osu file format v14

[General]
AudioFilename: audio.mp3
AudioLeadIn: 0
PreviewTime: 82063
Countdown: 0
SampleSet: Normal
StackLeniency: 0.7
Mode: 1
LetterboxInBreaks: 0
WidescreenStoryboard: 1

[Editor]
Bookmarks: 1247,11042,20838,40430,42879,62471,72267,77165,82063,119869,122471,129818
DistanceSpacing: 1
BeatDivisor: 4
GridSize: 32
TimelineZoom: 3.199999

[Metadata]
Title:Egret and Willow
TitleUnicode:Egret and Willow
Artist:Dirty Androids
ArtistUnicode:Dirty Androids
Creator:MMzz
Version:Muzukashii
Source:beatmania IIDX 24 SINOBUZ
Tags:FUTURE BEATS
BeatmapID:1413475
BeatmapSetID:667377

[Difficulty]
HPDrainRate:5
CircleSize:5
OverallDifficulty:5
ApproachRate:5
SliderMultiplier:1.4
SliderTickRate:1

[Events]
//Background and Video events
0,0,"feesh.jpg",-2,-23
//Break Periods
//Storyboard Layer 0 (Background)
//Storyboard Layer 1 (Fail)
//Storyboard Layer 2 (Pass)
//Storyboard Layer 3 (Foreground)
//Storyboard Sound Samples

[TimingPoints]
1247,306.122448979592,4,1,0,40,1,0
1247,-142.857142857143,4,1,0,40,0,0
10736,-117.647058823529,4,1,0,70,0,0
11042,-117.647058823529,4,1,0,70,0,0
20838,-100,4,1,0,80,0,1
24206,-100,4,1,0,80,0,0
25736,-100,4,1,0,80,0,1
34002,-100,4,1,0,80,0,0
35532,-100,4,1,0,80,0,1
40430,-100,4,1,0,80,0,0
77777,-105.263157894737,4,1,0,80,0,0
78389,-111.111111111111,4,1,0,80,0,0
79002,-117.647058823529,4,1,0,80,0,0
79614,-125,4,1,0,80,0,0
80838,-100,4,1,0,80,0,0
82063,-100,4,1,0,80,0,1
85430,-100,4,1,0,80,0,0
86961,-100,4,1,0,80,0,1
95226,-100,4,1,0,80,0,0
96757,-100,4,1,0,80,0,1
105022,-100,4,1,0,80,0,0
106859,-100,4,1,0,80,0,1
111451,-100,4,1,0,80,0,0
111757,-100,4,1,0,80,0,1
119869,-100,4,1,0,80,0,0

[HitObjects]
256,192,1247,5,8,0:0:0:0:
256,192,2471,1,0,0:0:0:0:
256,192,3695,1,8,0:0:0:0:
256,192,4920,1,0,0:0:0:0:
256,192,5226,1,0,0:0:0:0:
192,192,6144,1,8,0:0:0:0:
192,192,7369,1,0,0:0:0:0:
192,192,7981,1,0,0:0:0:0:
192,192,8593,1,8,0:0:0:0:
192,192,9818,1,0,0:0:0:0:
192,192,10736,1,0,0:0:0:0:
192,192,10889,1,0,0:0:0:0:
192,192,11042,1,4,0:0:0:0:
192,192,11502,1,0,0:0:0:0:
192,192,11655,1,8,0:0:0:0:
192,192,11961,1,0,0:0:0:0:
192,160,12573,1,0,0:0:0:0:
192,160,12879,1,8,0:0:0:0:
192,160,13491,1,0,0:0:0:0:
192,160,13951,1,0,0:0:0:0:
192,160,14104,1,8,0:0:0:0:
192,160,14410,1,0,0:0:0:0:
192,160,15022,1,0,0:0:0:0:
192,160,15328,1,8,0:0:0:0:
192,160,15634,1,0,0:0:0:0:
192,160,15940,1,0,0:0:0:0:
192,160,16400,1,0,0:0:0:0:
192,160,16553,1,8,0:0:0:0:
192,160,16859,1,0,0:0:0:0:
192,160,17471,1,0,0:0:0:0:
192,160,17777,1,8,0:0:0:0:
256,192,18389,12,0,19920,0:0:0:0:
224,160,20226,5,12,0:0:0:0:
160,160,20838,1,4,0:0:0:0:
200,94,20991,1,0,0:0:0:0:
160,160,21144,1,8,0:0:0:0:
160,160,21298,1,0,0:0:0:0:
160,160,21604,1,8,0:0:0:0:
128,64,21757,1,0,0:0:0:0:
256,160,22063,1,8,0:0:0:0:
256,160,22216,1,8,0:0:0:0:
256,160,22369,1,0,0:0:0:0:
256,160,22522,1,0,0:0:0:0:
256,160,22675,1,8,0:0:0:0:
256,160,22981,1,8,0:0:0:0:
257,170,23287,1,0,0:0:0:0:
197,94,23440,1,0,0:0:0:0:
257,170,23593,1,8,0:0:0:0:
255,166,23747,1,0,0:0:0:0:
257,170,24053,1,0,0:0:0:0:
253,164,24206,1,12,0:0:0:0:
199,155,24665,1,8,0:0:0:0:
231,165,24741,1,8,0:0:0:0:
233,166,24818,1,8,0:0:0:0:
233,166,24971,1,8,0:0:0:0:
230,165,25124,1,0,0:0:0:0:
222,165,25277,1,0,0:0:0:0:
222,166,25430,1,8,0:0:0:0:
222,166,25583,1,8,0:0:0:0:
222,166,25736,1,4,0:0:0:0:
172,89,26042,1,8,0:0:0:0:
172,89,26195,1,0,0:0:0:0:
172,89,26502,1,8,0:0:0:0:
172,89,26655,1,0,0:0:0:0:
172,89,26961,1,8,0:0:0:0:
172,89,27114,1,8,0:0:0:0:
172,94,27267,1,0,0:0:0:0:
172,94,27420,1,0,0:0:0:0:
181,91,27573,1,8,0:0:0:0:
179,91,27726,1,0,0:0:0:0:
172,89,27879,1,8,0:0:0:0:
178,92,28185,1,0,0:0:0:0:
181,93,28338,1,0,0:0:0:0:
188,93,28491,1,8,0:0:0:0:
188,93,28644,1,0,0:0:0:0:
188,93,28951,1,8,0:0:0:0:
207,92,29104,1,0,0:0:0:0:
213,90,29257,1,0,0:0:0:0:
210,91,29410,1,8,0:0:0:0:
209,91,29563,1,0,0:0:0:0:
206,92,29869,1,8,0:0:0:0:
207,92,30022,1,0,0:0:0:0:
10,166,30099,1,0,0:0:0:0:
203,93,30175,1,0,0:0:0:0:
199,93,30328,1,8,0:0:0:0:
131,162,30481,1,8,0:0:0:0:
200,93,30634,1,4,0:0:0:0:
179,50,30787,1,0,0:0:0:0:
179,50,30940,1,8,0:0:0:0:
160,64,31093,1,0,0:0:0:0:
224,128,31400,1,8,0:0:0:0:
224,128,31553,1,0,0:0:0:0:
192,128,31859,1,8,0:0:0:0:
192,128,32012,1,8,0:0:0:0:
192,128,32165,1,0,0:0:0:0:
192,128,32318,1,0,0:0:0:0:
192,128,32471,1,8,0:0:0:0:
192,128,32777,1,8,0:0:0:0:
160,128,33083,1,0,0:0:0:0:
160,128,33236,1,0,0:0:0:0:
160,128,33389,1,8,0:0:0:0:
160,128,33542,1,0,0:0:0:0:
160,128,33849,1,0,0:0:0:0:
160,128,34002,1,12,0:0:0:0:
160,128,34461,1,8,0:0:0:0:
192,64,34537,1,8,0:0:0:0:
192,64,34614,1,8,0:0:0:0:
192,64,34767,1,8,0:0:0:0:
192,64,34920,1,0,0:0:0:0:
224,128,35073,1,0,0:0:0:0:
224,128,35226,1,8,0:0:0:0:
224,128,35379,1,0,0:0:0:0:
224,128,35532,1,4,0:0:0:0:
222,98,35838,1,8,0:0:0:0:
222,98,35991,1,0,0:0:0:0:
222,98,36144,1,8,0:0:0:0:
222,98,36298,1,8,0:0:0:0:
221,91,36451,1,0,0:0:0:0:
221,91,36604,1,0,0:0:0:0:
221,91,36910,1,8,0:0:0:0:
220,91,37063,1,0,0:0:0:0:
211,93,37216,1,0,0:0:0:0:
214,93,37369,1,8,0:0:0:0:
202,94,37522,1,0,0:0:0:0:
105,134,37675,1,8,0:0:0:0:
105,134,37828,1,8,0:0:0:0:
105,134,37981,1,0,0:0:0:0:
105,134,38287,1,0,0:0:0:0:
113,129,38593,1,8,0:0:0:0:
112,129,38747,1,0,0:0:0:0:
112,129,38823,1,0,0:0:0:0:
109,128,38900,1,0,0:0:0:0:
109,128,39053,1,0,0:0:0:0:
107,128,39359,1,0,0:0:0:0:
107,128,39512,1,0,0:0:0:0:
112,129,39665,1,8,0:0:0:0:
114,124,39741,1,8,0:0:0:0:
114,124,39818,1,8,0:0:0:0:
109,128,39971,1,0,0:0:0:0:
111,123,40124,1,8,0:0:0:0:
110,123,40277,1,0,0:0:0:0:
107,128,40430,1,4,0:0:0:0:
256,192,40583,12,0,42573,0:0:0:0:
160,128,42879,5,4,0:0:0:0:
160,128,43338,1,0,0:0:0:0:
160,128,43491,1,8,0:0:0:0:
160,128,43798,1,0,0:0:0:0:
160,128,43951,1,0,0:0:0:0:
160,128,44257,1,8,0:0:0:0:
160,128,44410,1,0,0:0:0:0:
160,128,44563,1,0,0:0:0:0:
160,128,44716,1,8,0:0:0:0:
160,128,45022,1,8,0:0:0:0:
160,128,45175,1,8,0:0:0:0:
160,128,45328,1,0,0:0:0:0:
160,128,45787,1,0,0:0:0:0:
160,128,45940,1,8,0:0:0:0:
160,128,46247,1,0,0:0:0:0:
160,128,46400,1,0,0:0:0:0:
160,128,46553,1,8,0:0:0:0:
160,128,46859,1,8,0:0:0:0:
160,128,47165,1,8,0:0:0:0:
160,128,47318,1,0,0:0:0:0:
160,128,47471,1,8,0:0:0:0:
160,128,47777,1,0,0:0:0:0:
160,128,48236,1,0,0:0:0:0:
160,128,48389,1,8,0:0:0:0:
134,145,48695,1,0,0:0:0:0:
138,152,48849,1,0,0:0:0:0:
136,152,49155,1,8,0:0:0:0:
136,152,49308,1,0,0:0:0:0:
136,152,49461,1,0,0:0:0:0:
136,152,49614,1,8,0:0:0:0:
136,152,49920,1,8,0:0:0:0:
129,154,50073,1,8,0:0:0:0:
129,154,50226,1,0,0:0:0:0:
180,138,50532,1,8,0:0:0:0:
180,138,50685,1,0,0:0:0:0:
180,138,50838,1,8,0:0:0:0:
201,157,50991,1,8,0:0:0:0:
180,138,51144,1,0,0:0:0:0:
174,136,51298,1,0,0:0:0:0:
165,147,51604,1,0,0:0:0:0:
169,145,51757,1,0,0:0:0:0:
164,142,51910,1,8,0:0:0:0:
164,142,51986,1,8,0:0:0:0:
165,141,52063,1,8,0:0:0:0:
163,142,52216,1,0,0:0:0:0:
165,147,52369,1,8,0:0:0:0:
165,147,52522,1,8,0:0:0:0:
163,142,52675,1,4,0:0:0:0:
117,144,53134,1,0,0:0:0:0:
128,128,53287,1,8,0:0:0:0:
128,128,53593,1,8,0:0:0:0:
128,128,53747,1,8,0:0:0:0:
96,128,54053,1,8,0:0:0:0:
96,128,54206,1,0,0:0:0:0:
96,128,54359,1,0,0:0:0:0:
96,128,54512,1,8,0:0:0:0:
96,128,54818,1,8,0:0:0:0:
96,128,54971,1,8,0:0:0:0:
96,128,55124,1,0,0:0:0:0:
128,160,55430,1,8,0:0:0:0:
128,160,55583,1,0,0:0:0:0:
128,160,55736,1,8,0:0:0:0:
128,160,56042,1,8,0:0:0:0:
160,160,56195,1,8,0:0:0:0:
128,160,56349,1,0,0:0:0:0:
128,160,56502,1,0,0:0:0:0:
128,160,56655,1,8,0:0:0:0:
224,160,56961,1,8,0:0:0:0:
224,160,57114,1,0,0:0:0:0:
224,160,57267,1,8,0:0:0:0:
192,160,57420,1,8,0:0:0:0:
224,160,57573,1,0,0:0:0:0:
192,160,57879,1,8,0:0:0:0:
192,160,58032,1,0,0:0:0:0:
192,160,58185,1,8,0:0:0:0:
192,160,58491,1,8,0:0:0:0:
192,160,58644,1,8,0:0:0:0:
160,64,58951,1,8,0:0:0:0:
169,112,59104,1,0,0:0:0:0:
169,112,59257,1,0,0:0:0:0:
169,112,59410,1,8,0:0:0:0:
172,121,59716,1,8,0:0:0:0:
172,120,59869,1,8,0:0:0:0:
172,120,60022,1,0,0:0:0:0:
170,120,60328,1,8,0:0:0:0:
172,121,60481,1,0,0:0:0:0:
172,121,60634,1,8,0:0:0:0:
172,120,60940,1,8,0:0:0:0:
170,120,61093,1,8,0:0:0:0:
184,108,61400,1,8,0:0:0:0:
185,109,61553,1,0,0:0:0:0:
185,109,61629,1,0,0:0:0:0:
185,109,61706,1,0,0:0:0:0:
185,109,61859,1,8,0:0:0:0:
182,109,62012,1,0,0:0:0:0:
184,108,62165,1,8,0:0:0:0:
184,108,62318,1,8,0:0:0:0:
185,109,62471,1,4,0:0:0:0:
217,140,62930,1,0,0:0:0:0:
217,140,63083,1,8,0:0:0:0:
217,140,63389,1,0,0:0:0:0:
217,140,64002,1,0,0:0:0:0:
217,140,64308,1,8,0:0:0:0:
205,143,64614,1,0,0:0:0:0:
205,143,64767,1,8,0:0:0:0:
205,143,64920,1,0,0:0:0:0:
205,143,65379,1,0,0:0:0:0:
205,143,65532,1,8,0:0:0:0:
205,143,65838,1,0,0:0:0:0:
225,140,66144,1,8,0:0:0:0:
220,141,66298,1,8,0:0:0:0:
220,141,66451,1,0,0:0:0:0:
137,102,66757,1,8,0:0:0:0:
130,105,67063,1,8,0:0:0:0:
160,64,67216,1,8,0:0:0:0:
160,64,67369,1,4,0:0:0:0:
219,140,67828,1,0,0:0:0:0:
219,140,67981,1,8,0:0:0:0:
214,141,68287,1,0,0:0:0:0:
214,141,68900,1,0,0:0:0:0:
214,141,69206,1,8,0:0:0:0:
214,141,69512,1,0,0:0:0:0:
214,141,69665,1,8,0:0:0:0:
214,134,69818,1,0,0:0:0:0:
213,105,70277,1,0,0:0:0:0:
213,105,70430,1,8,0:0:0:0:
96,160,70736,1,0,0:0:0:0:
96,128,71042,1,8,0:0:0:0:
96,128,71195,1,8,0:0:0:0:
96,128,71349,1,0,0:0:0:0:
128,128,71655,1,8,0:0:0:0:
128,128,71808,1,0,0:0:0:0:
128,128,71884,1,0,0:0:0:0:
128,128,71961,1,0,0:0:0:0:
128,128,72114,1,8,0:0:0:0:
128,128,72267,1,4,0:0:0:0:
160,128,72573,1,8,0:0:0:0:
160,128,72726,1,0,0:0:0:0:
160,128,72879,1,0,0:0:0:0:
192,128,73185,1,8,0:0:0:0:
160,128,73338,1,8,0:0:0:0:
192,128,73491,1,0,0:0:0:0:
192,128,73798,1,8,0:0:0:0:
177,71,73951,1,0,0:0:0:0:
224,128,74104,1,0,0:0:0:0:
224,128,74410,1,8,0:0:0:0:
128,160,74486,1,8,0:0:0:0:
224,128,74563,1,8,0:0:0:0:
224,128,74716,1,4,0:0:0:0:
224,128,75022,1,8,0:0:0:0:
224,128,75175,1,0,0:0:0:0:
224,128,75328,1,0,0:0:0:0:
224,128,75634,1,8,0:0:0:0:
192,128,75787,1,8,0:0:0:0:
224,128,75940,1,0,0:0:0:0:
192,128,76093,1,8,0:0:0:0:
224,128,76247,1,0,0:0:0:0:
192,128,76400,1,8,0:0:0:0:
224,128,76553,1,0,0:0:0:0:
224,128,76859,1,0,0:0:0:0:
224,128,77165,1,0,0:0:0:0:
192,104,77777,1,0,0:0:0:0:
192,104,78389,1,8,0:0:0:0:
192,104,79002,1,8,0:0:0:0:
256,192,79614,12,0,80379,0:0:0:0:
224,160,80838,5,8,0:0:0:0:
224,160,81144,1,8,0:0:0:0:
224,160,81451,1,0,0:0:0:0:
224,160,81604,1,0,0:0:0:0:
224,160,81757,1,8,0:0:0:0:
160,160,82063,1,4,0:0:0:0:
200,94,82216,1,0,0:0:0:0:
160,160,82369,1,8,0:0:0:0:
160,160,82523,1,0,0:0:0:0:
160,160,82829,1,8,0:0:0:0:
128,64,82982,1,0,0:0:0:0:
256,160,83288,1,8,0:0:0:0:
256,160,83441,1,8,0:0:0:0:
256,160,83594,1,0,0:0:0:0:
256,160,83747,1,0,0:0:0:0:
256,160,83900,1,8,0:0:0:0:
256,160,84206,1,8,0:0:0:0:
257,170,84512,1,0,0:0:0:0:
197,94,84665,1,0,0:0:0:0:
257,170,84818,1,8,0:0:0:0:
255,166,84972,1,0,0:0:0:0:
257,170,85278,1,0,0:0:0:0:
253,164,85431,1,12,0:0:0:0:
199,155,85890,1,8,0:0:0:0:
231,165,85966,1,8,0:0:0:0:
233,166,86043,1,8,0:0:0:0:
233,166,86196,1,8,0:0:0:0:
230,165,86349,1,0,0:0:0:0:
222,165,86502,1,0,0:0:0:0:
222,166,86655,1,8,0:0:0:0:
222,166,86808,1,8,0:0:0:0:
222,166,86961,1,4,0:0:0:0:
172,89,87267,1,8,0:0:0:0:
172,89,87420,1,0,0:0:0:0:
172,89,87727,1,8,0:0:0:0:
172,89,87880,1,0,0:0:0:0:
172,89,88186,1,8,0:0:0:0:
172,89,88339,1,8,0:0:0:0:
172,94,88492,1,0,0:0:0:0:
172,94,88645,1,0,0:0:0:0:
181,91,88798,1,8,0:0:0:0:
179,91,88951,1,0,0:0:0:0:
172,89,89104,1,8,0:0:0:0:
178,92,89410,1,0,0:0:0:0:
181,93,89563,1,0,0:0:0:0:
188,93,89716,1,8,0:0:0:0:
188,93,89869,1,0,0:0:0:0:
188,93,90176,1,8,0:0:0:0:
207,92,90329,1,0,0:0:0:0:
213,90,90482,1,0,0:0:0:0:
210,91,90635,1,8,0:0:0:0:
209,91,90788,1,0,0:0:0:0:
206,92,91094,1,8,0:0:0:0:
207,92,91247,1,0,0:0:0:0:
128,128,91323,1,0,0:0:0:0:
203,93,91400,1,0,0:0:0:0:
199,93,91553,1,8,0:0:0:0:
128,128,91706,1,8,0:0:0:0:
200,93,91859,1,4,0:0:0:0:
179,50,92012,1,0,0:0:0:0:
179,50,92165,1,8,0:0:0:0:
160,64,92318,1,0,0:0:0:0:
224,128,92625,1,8,0:0:0:0:
224,128,92778,1,0,0:0:0:0:
192,128,93084,1,8,0:0:0:0:
192,128,93237,1,8,0:0:0:0:
192,128,93390,1,0,0:0:0:0:
192,128,93543,1,0,0:0:0:0:
192,128,93696,1,8,0:0:0:0:
192,128,94002,1,8,0:0:0:0:
160,128,94308,1,0,0:0:0:0:
160,128,94461,1,0,0:0:0:0:
160,128,94614,1,8,0:0:0:0:
160,128,94767,1,0,0:0:0:0:
160,128,95074,1,0,0:0:0:0:
160,128,95227,1,12,0:0:0:0:
160,128,95686,1,8,0:0:0:0:
192,64,95762,1,8,0:0:0:0:
192,64,95839,1,8,0:0:0:0:
192,64,95992,1,8,0:0:0:0:
192,64,96145,1,0,0:0:0:0:
224,128,96298,1,0,0:0:0:0:
224,128,96451,1,8,0:0:0:0:
224,128,96604,1,0,0:0:0:0:
224,128,96757,1,4,0:0:0:0:
222,98,97063,1,8,0:0:0:0:
222,98,97216,1,0,0:0:0:0:
222,98,97369,1,8,0:0:0:0:
222,98,97523,1,8,0:0:0:0:
221,91,97676,1,0,0:0:0:0:
221,91,97829,1,0,0:0:0:0:
221,91,98135,1,8,0:0:0:0:
220,91,98288,1,0,0:0:0:0:
211,93,98441,1,0,0:0:0:0:
214,93,98594,1,8,0:0:0:0:
202,94,98747,1,0,0:0:0:0:
105,134,98900,1,8,0:0:0:0:
105,134,99053,1,8,0:0:0:0:
105,134,99206,1,0,0:0:0:0:
105,134,99512,1,0,0:0:0:0:
113,129,99818,1,8,0:0:0:0:
112,129,99972,1,0,0:0:0:0:
112,129,100048,1,0,0:0:0:0:
109,128,100125,1,0,0:0:0:0:
109,128,100278,1,0,0:0:0:0:
107,128,100584,1,0,0:0:0:0:
107,128,100737,1,0,0:0:0:0:
112,129,100890,1,8,0:0:0:0:
114,124,100966,1,8,0:0:0:0:
114,124,101043,1,8,0:0:0:0:
109,128,101196,1,0,0:0:0:0:
111,123,101349,1,8,0:0:0:0:
110,123,101502,1,8,0:0:0:0:
107,128,101655,1,4,0:0:0:0:
192,160,101808,1,0,0:0:0:0:
96,160,101961,1,8,0:0:0:0:
96,160,102114,1,0,0:0:0:0:
96,160,102420,1,8,0:0:0:0:
96,160,102573,1,0,0:0:0:0:
96,160,102879,1,8,0:0:0:0:
96,160,103032,1,8,0:0:0:0:
96,160,103185,1,0,0:0:0:0:
96,160,103338,1,0,0:0:0:0:
96,160,103491,1,8,0:0:0:0:
96,160,103798,1,8,0:0:0:0:
128,160,104104,1,0,0:0:0:0:
128,160,104257,1,0,0:0:0:0:
128,160,104410,1,8,0:0:0:0:
128,160,104563,1,0,0:0:0:0:
128,160,104869,1,0,0:0:0:0:
128,160,105022,1,12,0:0:0:0:
160,160,105481,1,8,0:0:0:0:
160,160,105558,1,8,0:0:0:0:
160,160,105634,1,8,0:0:0:0:
160,160,105787,1,8,0:0:0:0:
160,160,105940,1,0,0:0:0:0:
160,160,106093,1,0,0:0:0:0:
160,160,106247,1,8,0:0:0:0:
160,160,106400,1,0,0:0:0:0:
160,160,106553,1,8,0:0:0:0:
160,160,106859,1,4,0:0:0:0:
160,160,107165,1,12,0:0:0:0:
160,160,107471,1,4,0:0:0:0:
160,160,107930,1,0,0:0:0:0:
160,160,108083,1,0,0:0:0:0:
160,160,108389,1,8,0:0:0:0:
160,160,108695,1,8,0:0:0:0:
160,160,108849,1,8,0:0:0:0:
160,160,109002,1,0,0:0:0:0:
160,160,109155,1,0,0:0:0:0:
160,160,109308,1,8,0:0:0:0:
160,160,109461,1,0,0:0:0:0:
160,160,109767,1,8,0:0:0:0:
160,160,109920,1,0,0:0:0:0:
160,160,110073,1,0,0:0:0:0:
160,160,110226,1,8,0:0:0:0:
160,160,110379,1,0,0:0:0:0:
160,160,110685,1,8,0:0:0:0:
160,160,110838,1,0,0:0:0:0:
159,169,110915,1,0,0:0:0:0:
160,160,110991,1,0,0:0:0:0:
160,160,111144,1,8,0:0:0:0:
160,160,111298,1,8,0:0:0:0:
160,160,111451,1,0,0:0:0:0:
160,160,111757,1,12,0:0:0:0:
160,160,112063,1,4,0:0:0:0:
160,160,112369,1,12,0:0:0:0:
160,160,112675,1,4,0:0:0:0:
160,160,112981,1,8,0:0:0:0:
160,160,113134,1,0,0:0:0:0:
160,160,113287,1,8,0:0:0:0:
160,160,113440,1,8,0:0:0:0:
160,160,113593,1,0,0:0:0:0:
160,160,113900,1,8,0:0:0:0:
160,160,114053,1,8,0:0:0:0:
160,160,114206,1,0,0:0:0:0:
160,160,114359,1,8,0:0:0:0:
160,160,114665,1,0,0:0:0:0:
160,160,114818,1,8,0:0:0:0:
160,160,114971,1,8,0:0:0:0:
160,160,115124,1,0,0:0:0:0:
160,160,115277,1,8,0:0:0:0:
160,160,115583,1,8,0:0:0:0:
160,160,115736,1,8,0:0:0:0:
160,160,115889,1,0,0:0:0:0:
128,160,116042,1,8,0:0:0:0:
160,160,116119,1,8,0:0:0:0:
128,160,116195,1,8,0:0:0:0:
128,160,116349,1,4,0:0:0:0:
192,160,116655,5,8,0:0:0:0:
192,160,116808,1,0,0:0:0:0:
192,160,116961,1,8,0:0:0:0:
192,160,117114,1,8,0:0:0:0:
192,160,117267,1,0,0:0:0:0:
192,160,117420,1,4,0:0:0:0:
192,128,117726,1,0,0:0:0:0:
192,128,117879,1,0,0:0:0:0:
192,128,118032,1,8,0:0:0:0:
192,128,118109,1,8,0:0:0:0:
192,128,118185,1,8,0:0:0:0:
192,128,118338,1,0,0:0:0:0:
192,128,118491,1,8,0:0:0:0:
192,128,118644,1,8,0:0:0:0:
192,128,118798,1,0,0:0:0:0:
192,128,119104,1,0,0:0:0:0:
192,128,119410,1,0,0:0:0:0:
128,128,119486,1,0,0:0:0:0:
192,128,119563,1,0,0:0:0:0:
192,128,119716,1,8,0:0:0:0:
256,192,119869,12,0,122471,0:0:0:0:
