osu file format v14

[General]
AudioFilename: audio.mp3
AudioLeadIn: 0
PreviewTime: 82063
Countdown: 0
SampleSet: Normal
StackLeniency: 0.7
Mode: 1
LetterboxInBreaks: 0
WidescreenStoryboard: 0

[Editor]
Bookmarks: 1247,11042,20838,40430,42879,62471,72267,77165,82063,119869,122471,129818
DistanceSpacing: 1
BeatDivisor: 4
GridSize: 32
TimelineZoom: 3.199999

[Metadata]
Title:Egret and Willow
TitleUnicode:Egret and Willow
Artist:Dirty Androids
ArtistUnicode:Dirty Androids
Creator:MMzz
Version:Inner Oni
Source:beatmania IIDX 24 SINOBUZ
Tags:FUTURE BEATS
BeatmapID:1412162
BeatmapSetID:667377

[Difficulty]
HPDrainRate:6
CircleSize:5
OverallDifficulty:7
ApproachRate:5
SliderMultiplier:1.4
SliderTickRate:1

[Events]
//Background and Video events
0,0,"feesh.jpg",-2,-23
//Break Periods
//Storyboard Layer 0 (Background)
//Storyboard Layer 1 (Fail)
//Storyboard Layer 2 (Pass)
//Storyboard Layer 3 (Foreground)
//Storyboard Sound Samples

[TimingPoints]
1247,306.122448979592,4,1,0,40,1,0
1247,-142.857142857143,4,1,0,40,0,0
10736,-117.647058823529,4,1,0,70,0,0
11042,-117.647058823529,4,1,0,70,0,0
20838,-100,4,1,0,80,0,1
24206,-100,4,1,0,80,0,0
25736,-100,4,1,0,80,0,1
34002,-100,4,1,0,80,0,0
35532,-100,4,1,0,80,0,1
40430,-100,4,1,0,80,0,0
77777,-105.263157894737,4,1,0,80,0,0
78389,-111.111111111111,4,1,0,80,0,0
79002,-117.647058823529,4,1,0,80,0,0
79614,-125,4,1,0,80,0,0
80838,-100,4,1,0,80,0,0
82063,-100,4,1,0,80,0,1
85430,-100,4,1,0,80,0,0
86961,-100,4,1,0,80,0,1
95226,-100,4,1,0,80,0,0
96757,-100,4,1,0,80,0,1
105022,-100,4,1,0,80,0,0
106859,-100,4,1,0,80,0,1
111451,-100,4,1,0,80,0,0
111757,-100,4,1,0,80,0,1
119869,-100,4,1,0,80,0,0

[HitObjects]
160,160,1247,5,8,0:0:0:0:
256,192,2165,1,8,0:0:0:0:
256,192,2471,1,0,0:0:0:0:
224,192,3389,1,0,0:0:0:0:
224,192,3695,1,0,0:0:0:0:
192,192,4614,1,0,0:0:0:0:
192,192,4920,1,8,0:0:0:0:
192,192,5226,1,8,0:0:0:0:
160,192,6144,1,0,0:0:0:0:
160,192,7369,1,8,0:0:0:0:
160,192,7981,1,8,0:0:0:0:
160,192,8593,1,0,0:0:0:0:
160,160,9512,1,8,0:0:0:0:
160,160,9818,1,0,0:0:0:0:
192,160,10736,5,8,0:0:0:0:
192,160,10813,1,8,0:0:0:0:
192,160,10889,1,8,0:0:0:0:
192,160,10966,1,8,0:0:0:0:
192,160,11042,1,4,0:0:0:0:
192,160,11502,1,0,0:0:0:0:
192,160,11655,1,8,0:0:0:0:
192,160,11961,1,0,0:0:0:0:
192,160,12573,1,0,0:0:0:0:
192,160,12879,1,8,0:0:0:0:
192,160,13185,1,0,0:0:0:0:
192,160,13338,1,8,0:0:0:0:
192,160,13491,1,0,0:0:0:0:
160,96,13951,5,0,0:0:0:0:
160,96,14104,1,8,0:0:0:0:
160,96,14410,1,0,0:0:0:0:
160,96,15022,1,0,0:0:0:0:
160,96,15328,1,8,0:0:0:0:
160,96,15634,1,8,0:0:0:0:
160,96,15787,1,8,0:0:0:0:
160,96,15940,1,0,0:0:0:0:
160,96,16400,1,0,0:0:0:0:
160,96,16553,1,8,0:0:0:0:
160,96,16859,1,0,0:0:0:0:
160,96,17471,1,0,0:0:0:0:
160,96,17777,1,8,0:0:0:0:
256,192,18389,12,0,19920,0:0:0:0:
96,128,20226,5,12,0:0:0:0:
96,128,20838,1,4,0:0:0:0:
192,128,20991,1,0,0:0:0:0:
192,128,21068,1,0,0:0:0:0:
192,96,21144,1,8,0:0:0:0:
192,96,21221,1,8,0:0:0:0:
192,128,21298,1,0,0:0:0:0:
192,96,21451,1,8,0:0:0:0:
128,160,21604,1,0,0:0:0:0:
128,160,21680,1,8,0:0:0:0:
128,160,21757,1,0,0:0:0:0:
192,96,21910,1,8,0:0:0:0:
224,160,22063,1,8,0:0:0:0:
224,160,22139,1,0,0:0:0:0:
224,160,22216,1,8,0:0:0:0:
224,160,22292,1,8,0:0:0:0:
224,160,22369,1,0,0:0:0:0:
224,160,22522,1,0,0:0:0:0:
128,128,22599,1,0,0:0:0:0:
160,160,22675,1,8,0:0:0:0:
160,160,22828,1,0,0:0:0:0:
160,160,22981,1,8,0:0:0:0:
192,160,23287,1,4,0:0:0:0:
160,64,23440,1,0,0:0:0:0:
160,64,23517,1,0,0:0:0:0:
160,64,23593,1,8,0:0:0:0:
160,64,23670,1,8,0:0:0:0:
160,64,23747,1,0,0:0:0:0:
96,128,23900,1,8,0:0:0:0:
160,160,24053,1,0,0:0:0:0:
160,160,24129,1,0,0:0:0:0:
160,96,24206,1,12,0:0:0:0:
160,96,24665,1,8,0:0:0:0:
160,96,24741,1,8,0:0:0:0:
160,96,24818,1,0,0:0:0:0:
160,96,24894,1,0,0:0:0:0:
160,64,24971,1,0,0:0:0:0:
160,64,25048,1,8,0:0:0:0:
160,64,25124,1,0,0:0:0:0:
160,64,25277,1,8,0:0:0:0:
160,64,25430,1,8,0:0:0:0:
160,64,25507,1,0,0:0:0:0:
160,64,25583,1,8,0:0:0:0:
160,64,25660,1,8,0:0:0:0:
160,64,25736,1,4,0:0:0:0:
256,192,25889,1,0,0:0:0:0:
288,192,25966,1,0,0:0:0:0:
288,192,26042,1,8,0:0:0:0:
256,192,26119,1,8,0:0:0:0:
256,192,26195,1,0,0:0:0:0:
256,192,26349,1,8,0:0:0:0:
256,192,26502,1,0,0:0:0:0:
256,192,26578,1,8,0:0:0:0:
256,192,26655,1,0,0:0:0:0:
256,192,26808,1,8,0:0:0:0:
192,160,26961,1,8,0:0:0:0:
192,160,27037,1,0,0:0:0:0:
192,160,27114,1,8,0:0:0:0:
192,160,27190,1,8,0:0:0:0:
192,160,27267,1,0,0:0:0:0:
192,160,27420,1,0,0:0:0:0:
192,160,27497,1,0,0:0:0:0:
192,160,27573,1,8,0:0:0:0:
192,160,27726,1,8,0:0:0:0:
192,160,27879,1,8,0:0:0:0:
192,160,27956,1,0,0:0:0:0:
192,160,28032,1,0,0:0:0:0:
192,160,28109,1,8,0:0:0:0:
192,160,28185,1,0,0:0:0:0:
224,192,28338,1,8,0:0:0:0:
224,192,28415,1,8,0:0:0:0:
224,192,28491,1,8,0:0:0:0:
224,192,28568,1,8,0:0:0:0:
224,192,28644,1,0,0:0:0:0:
160,128,28798,1,8,0:0:0:0:
160,128,28874,1,8,0:0:0:0:
160,128,28951,1,0,0:0:0:0:
160,128,29027,1,8,0:0:0:0:
160,128,29104,1,0,0:0:0:0:
128,128,29257,1,8,0:0:0:0:
128,128,29333,1,8,0:0:0:0:
128,128,29410,1,8,0:0:0:0:
128,128,29486,1,8,0:0:0:0:
128,128,29563,1,0,0:0:0:0:
256,160,29614,1,0,0:0:0:0:
256,160,29665,1,0,0:0:0:0:
256,160,29716,1,8,0:0:0:0:
256,160,29792,1,8,0:0:0:0:
256,160,29869,1,0,0:0:0:0:
256,160,29945,1,8,0:0:0:0:
256,160,30022,1,0,0:0:0:0:
128,160,30099,1,0,0:0:0:0:
128,160,30175,1,8,0:0:0:0:
128,160,30252,1,8,0:0:0:0:
160,160,30328,1,0,0:0:0:0:
160,160,30405,1,8,0:0:0:0:
160,160,30481,1,0,0:0:0:0:
192,160,30634,1,4,0:0:0:0:
160,128,30787,1,0,0:0:0:0:
160,128,30864,1,0,0:0:0:0:
160,128,30940,1,8,0:0:0:0:
160,128,31017,1,8,0:0:0:0:
160,128,31093,1,0,0:0:0:0:
160,128,31247,1,8,0:0:0:0:
160,128,31400,1,0,0:0:0:0:
160,64,31476,1,8,0:0:0:0:
160,64,31553,1,0,0:0:0:0:
160,64,31706,1,8,0:0:0:0:
160,64,31859,1,8,0:0:0:0:
160,64,31935,1,0,0:0:0:0:
160,64,32012,1,8,0:0:0:0:
160,64,32088,1,8,0:0:0:0:
160,64,32165,1,0,0:0:0:0:
96,128,32318,1,0,0:0:0:0:
96,128,32394,1,0,0:0:0:0:
96,128,32471,1,8,0:0:0:0:
96,128,32624,1,0,0:0:0:0:
96,128,32777,1,8,0:0:0:0:
96,128,32854,1,8,0:0:0:0:
96,128,32930,1,8,0:0:0:0:
96,128,33007,1,8,0:0:0:0:
96,128,33083,1,4,0:0:0:0:
160,128,33236,1,0,0:0:0:0:
160,128,33313,1,0,0:0:0:0:
160,128,33389,1,8,0:0:0:0:
160,128,33542,1,0,0:0:0:0:
160,128,33695,1,8,0:0:0:0:
160,128,33772,1,8,0:0:0:0:
160,128,33849,1,0,0:0:0:0:
160,128,33925,1,0,0:0:0:0:
256,192,34002,1,12,0:0:0:0:
256,192,34461,1,8,0:0:0:0:
256,192,34537,1,8,0:0:0:0:
256,192,34614,1,0,0:0:0:0:
192,64,34690,1,0,0:0:0:0:
256,192,34767,1,0,0:0:0:0:
256,192,34843,1,8,0:0:0:0:
256,192,34920,1,0,0:0:0:0:
224,192,35073,1,0,0:0:0:0:
224,192,35226,1,8,0:0:0:0:
224,128,35303,1,0,0:0:0:0:
224,192,35379,1,8,0:0:0:0:
224,192,35456,1,8,0:0:0:0:
224,128,35532,1,4,0:0:0:0:
128,64,35838,1,8,0:0:0:0:
160,64,35991,1,0,0:0:0:0:
160,96,36068,1,0,0:0:0:0:
160,96,36144,1,8,0:0:0:0:
160,96,36298,1,8,0:0:0:0:
160,96,36451,1,0,0:0:0:0:
160,96,36604,1,0,0:0:0:0:
160,160,36910,1,8,0:0:0:0:
160,160,37063,1,0,0:0:0:0:
160,160,37216,1,0,0:0:0:0:
160,160,37292,1,0,0:0:0:0:
160,160,37369,1,8,0:0:0:0:
160,160,37522,1,0,0:0:0:0:
160,160,37675,1,8,0:0:0:0:
160,160,37752,1,8,0:0:0:0:
160,160,37828,1,0,0:0:0:0:
256,128,37981,1,0,0:0:0:0:
256,128,38032,1,0,0:0:0:0:
256,128,38083,1,0,0:0:0:0:
256,128,38134,1,8,0:0:0:0:
256,128,38287,1,0,0:0:0:0:
256,128,38338,1,0,0:0:0:0:
256,128,38389,1,0,0:0:0:0:
256,128,38440,1,8,0:0:0:0:
256,96,38593,1,8,0:0:0:0:
256,96,38670,1,0,0:0:0:0:
256,96,38747,1,8,0:0:0:0:
256,96,38823,1,8,0:0:0:0:
256,96,38900,1,0,0:0:0:0:
256,96,38976,1,8,0:0:0:0:
256,96,39053,1,0,0:0:0:0:
256,96,39129,1,0,0:0:0:0:
256,96,39206,1,8,0:0:0:0:
256,96,39282,1,0,0:0:0:0:
320,96,39359,1,8,0:0:0:0:
320,96,39410,1,8,0:0:0:0:
320,96,39461,1,8,0:0:0:0:
320,96,39512,1,0,0:0:0:0:
288,96,39588,1,8,0:0:0:0:
288,96,39665,1,0,0:0:0:0:
288,96,39741,1,0,0:0:0:0:
192,64,39818,1,8,0:0:0:0:
192,64,39894,1,8,0:0:0:0:
192,64,39971,1,0,0:0:0:0:
192,64,40048,1,0,0:0:0:0:
192,64,40124,1,8,0:0:0:0:
192,64,40201,1,0,0:0:0:0:
192,64,40277,1,0,0:0:0:0:
192,64,40354,1,8,0:0:0:0:
192,64,40430,1,0,0:0:0:0:
256,192,40583,12,0,42573,0:0:0:0:
192,192,42879,5,4,0:0:0:0:
256,192,43109,1,0,0:0:0:0:
160,160,43338,1,0,0:0:0:0:
160,160,43491,1,8,0:0:0:0:
256,192,43644,1,0,0:0:0:0:
256,192,43798,1,8,0:0:0:0:
256,192,43951,1,8,0:0:0:0:
256,192,44257,1,8,0:0:0:0:
256,192,44410,1,0,0:0:0:0:
256,192,44563,1,0,0:0:0:0:
256,192,44639,1,0,0:0:0:0:
256,192,44716,1,8,0:0:0:0:
256,192,44869,1,0,0:0:0:0:
256,192,45022,1,8,0:0:0:0:
256,192,45175,1,8,0:0:0:0:
256,192,45252,1,8,0:0:0:0:
256,192,45328,1,0,0:0:0:0:
256,192,45558,1,0,0:0:0:0:
256,192,45787,1,0,0:0:0:0:
256,192,45940,1,8,0:0:0:0:
224,160,46093,1,0,0:0:0:0:
224,160,46247,1,8,0:0:0:0:
224,160,46400,1,8,0:0:0:0:
256,192,46553,1,0,0:0:0:0:
128,160,46706,1,0,0:0:0:0:
128,160,46757,1,0,0:0:0:0:
128,160,46808,1,0,0:0:0:0:
256,192,46859,1,8,0:0:0:0:
128,160,47012,1,0,0:0:0:0:
224,128,47088,1,0,0:0:0:0:
256,192,47165,1,8,0:0:0:0:
256,224,47318,1,0,0:0:0:0:
256,192,47471,1,8,0:0:0:0:
224,128,47624,1,8,0:0:0:0:
224,128,47701,1,8,0:0:0:0:
224,160,47777,1,0,0:0:0:0:
224,128,48007,1,0,0:0:0:0:
224,128,48236,1,0,0:0:0:0:
224,128,48389,1,8,0:0:0:0:
224,128,48542,1,8,0:0:0:0:
224,128,48695,1,0,0:0:0:0:
224,128,48849,1,8,0:0:0:0:
192,96,49155,1,8,0:0:0:0:
224,128,49308,1,0,0:0:0:0:
192,96,49461,1,0,0:0:0:0:
192,96,49537,1,0,0:0:0:0:
224,128,49614,1,8,0:0:0:0:
192,96,49767,1,0,0:0:0:0:
192,96,49920,1,8,0:0:0:0:
192,96,49997,1,8,0:0:0:0:
192,96,50073,1,0,0:0:0:0:
224,128,50226,1,0,0:0:0:0:
128,160,50532,1,8,0:0:0:0:
128,160,50583,1,8,0:0:0:0:
128,160,50634,1,8,0:0:0:0:
128,160,50685,1,0,0:0:0:0:
224,96,50762,1,0,0:0:0:0:
128,160,50838,1,8,0:0:0:0:
128,160,50889,1,8,0:0:0:0:
128,160,50940,1,8,0:0:0:0:
128,160,50991,1,0,0:0:0:0:
224,96,51068,1,0,0:0:0:0:
224,96,51144,1,8,0:0:0:0:
224,96,51221,1,8,0:0:0:0:
224,96,51298,1,0,0:0:0:0:
224,96,51374,1,8,0:0:0:0:
256,128,51451,1,0,0:0:0:0:
256,128,51604,1,0,0:0:0:0:
256,128,51655,1,0,0:0:0:0:
256,128,51706,1,0,0:0:0:0:
256,128,51757,1,8,0:0:0:0:
224,160,51833,1,8,0:0:0:0:
224,160,51910,1,0,0:0:0:0:
224,160,51986,1,0,0:0:0:0:
192,128,52063,1,8,0:0:0:0:
192,128,52139,1,8,0:0:0:0:
192,128,52216,1,0,0:0:0:0:
192,128,52292,1,0,0:0:0:0:
192,128,52369,1,8,0:0:0:0:
192,128,52445,1,0,0:0:0:0:
192,128,52522,1,0,0:0:0:0:
192,128,52599,1,8,0:0:0:0:
192,128,52675,1,4,0:0:0:0:
224,192,52905,1,0,0:0:0:0:
224,192,53134,1,0,0:0:0:0:
224,192,53287,1,8,0:0:0:0:
224,192,53593,1,0,0:0:0:0:
224,192,53747,1,8,0:0:0:0:
224,160,53823,1,8,0:0:0:0:
224,160,53900,1,8,0:0:0:0:
224,160,54053,1,8,0:0:0:0:
224,160,54206,1,0,0:0:0:0:
192,160,54359,1,0,0:0:0:0:
192,160,54435,1,0,0:0:0:0:
192,160,54512,1,8,0:0:0:0:
192,160,54665,1,0,0:0:0:0:
192,160,54818,1,8,0:0:0:0:
192,160,54971,1,8,0:0:0:0:
192,160,55048,1,8,0:0:0:0:
192,160,55124,1,0,0:0:0:0:
128,128,55354,1,0,0:0:0:0:
64,128,55430,1,8,0:0:0:0:
96,192,55583,1,0,0:0:0:0:
96,192,55736,1,8,0:0:0:0:
192,128,55889,1,0,0:0:0:0:
192,128,55966,1,0,0:0:0:0:
160,192,56042,1,8,0:0:0:0:
160,192,56195,1,8,0:0:0:0:
192,160,56502,1,0,0:0:0:0:
192,160,56578,1,8,0:0:0:0:
160,192,56655,1,0,0:0:0:0:
192,160,56808,1,0,0:0:0:0:
192,160,56859,1,0,0:0:0:0:
192,160,56910,1,0,0:0:0:0:
160,192,56961,1,8,0:0:0:0:
192,160,57114,1,0,0:0:0:0:
160,192,57267,1,8,0:0:0:0:
160,192,57420,1,8,0:0:0:0:
256,128,57497,1,8,0:0:0:0:
160,192,57573,1,0,0:0:0:0:
192,224,57803,1,0,0:0:0:0:
128,192,57879,1,8,0:0:0:0:
128,192,58032,1,0,0:0:0:0:
128,192,58185,1,8,0:0:0:0:
128,160,58338,1,0,0:0:0:0:
128,160,58415,1,0,0:0:0:0:
128,192,58491,1,8,0:0:0:0:
128,192,58644,1,8,0:0:0:0:
128,160,58951,1,8,0:0:0:0:
96,192,59104,1,0,0:0:0:0:
96,192,59257,1,0,0:0:0:0:
96,192,59333,1,0,0:0:0:0:
96,192,59410,1,8,0:0:0:0:
96,192,59563,1,0,0:0:0:0:
96,192,59716,1,8,0:0:0:0:
96,192,59869,1,8,0:0:0:0:
96,192,59945,1,8,0:0:0:0:
96,192,60022,1,0,0:0:0:0:
128,160,60252,1,0,0:0:0:0:
96,192,60328,1,8,0:0:0:0:
96,192,60481,1,0,0:0:0:0:
96,192,60634,1,8,0:0:0:0:
64,192,60787,1,0,0:0:0:0:
64,192,60864,1,0,0:0:0:0:
64,192,60940,1,8,0:0:0:0:
64,192,61093,1,8,0:0:0:0:
96,192,61247,1,0,0:0:0:0:
96,192,61400,1,8,0:0:0:0:
128,128,61553,1,8,0:0:0:0:
128,128,61604,1,8,0:0:0:0:
128,128,61655,1,8,0:0:0:0:
128,128,61706,1,0,0:0:0:0:
64,160,61782,1,0,0:0:0:0:
64,160,61859,1,8,0:0:0:0:
256,128,62012,1,8,0:0:0:0:
256,128,62088,1,8,0:0:0:0:
256,128,62165,1,0,0:0:0:0:
256,128,62241,1,8,0:0:0:0:
256,128,62318,1,0,0:0:0:0:
96,160,62471,1,4,0:0:0:0:
96,160,62777,1,0,0:0:0:0:
224,160,62930,1,0,0:0:0:0:
224,160,63083,1,8,0:0:0:0:
224,160,63389,1,0,0:0:0:0:
128,160,63542,1,0,0:0:0:0:
128,160,63619,1,0,0:0:0:0:
128,160,63695,1,8,0:0:0:0:
128,160,63849,1,8,0:0:0:0:
128,160,64002,1,0,0:0:0:0:
192,160,64308,1,8,0:0:0:0:
128,160,64461,1,0,0:0:0:0:
128,160,64614,1,8,0:0:0:0:
128,160,64690,1,8,0:0:0:0:
128,160,64767,1,8,0:0:0:0:
128,160,64843,1,8,0:0:0:0:
128,160,64920,1,0,0:0:0:0:
128,160,65226,1,0,0:0:0:0:
128,160,65379,1,0,0:0:0:0:
128,160,65532,1,8,0:0:0:0:
128,160,65838,1,0,0:0:0:0:
192,128,65991,1,0,0:0:0:0:
192,128,66068,1,0,0:0:0:0:
192,128,66144,1,8,0:0:0:0:
192,128,66298,1,0,0:0:0:0:
192,128,66451,1,8,0:0:0:0:
160,160,66757,1,8,0:0:0:0:
192,128,66910,1,0,0:0:0:0:
192,128,67063,1,8,0:0:0:0:
192,128,67139,1,0,0:0:0:0:
192,128,67216,1,8,0:0:0:0:
128,160,67369,1,4,0:0:0:0:
128,160,67675,1,8,0:0:0:0:
128,160,67828,1,0,0:0:0:0:
128,160,67981,1,8,0:0:0:0:
128,160,68287,1,0,0:0:0:0:
192,96,68440,1,0,0:0:0:0:
192,96,68517,1,0,0:0:0:0:
192,96,68593,1,8,0:0:0:0:
192,96,68747,1,8,0:0:0:0:
192,96,68900,1,0,0:0:0:0:
160,160,69206,1,8,0:0:0:0:
192,96,69359,1,0,0:0:0:0:
192,96,69512,1,8,0:0:0:0:
192,96,69588,1,8,0:0:0:0:
192,96,69665,1,8,0:0:0:0:
192,96,69741,1,8,0:0:0:0:
160,160,69818,1,0,0:0:0:0:
128,160,70124,1,8,0:0:0:0:
160,160,70277,1,0,0:0:0:0:
160,160,70430,1,8,0:0:0:0:
160,160,70736,1,0,0:0:0:0:
192,96,70889,1,0,0:0:0:0:
192,96,70966,1,0,0:0:0:0:
192,96,71042,1,8,0:0:0:0:
192,96,71195,1,0,0:0:0:0:
192,96,71349,1,8,0:0:0:0:
160,96,71502,1,8,0:0:0:0:
160,96,71578,1,8,0:0:0:0:
160,160,71655,1,0,0:0:0:0:
160,128,71808,1,8,0:0:0:0:
160,128,71884,1,8,0:0:0:0:
160,128,71961,1,0,0:0:0:0:
192,96,72037,1,0,0:0:0:0:
32,128,72114,1,8,0:0:0:0:
160,160,72267,1,4,0:0:0:0:
160,160,72573,1,8,0:0:0:0:
192,160,72726,1,0,0:0:0:0:
192,160,72879,1,0,0:0:0:0:
160,160,73185,1,8,0:0:0:0:
160,160,73338,1,8,0:0:0:0:
192,160,73491,1,0,0:0:0:0:
192,160,73644,1,0,0:0:0:0:
192,160,73721,1,0,0:0:0:0:
192,160,73798,1,8,0:0:0:0:
192,160,73951,1,8,0:0:0:0:
192,160,74027,1,8,0:0:0:0:
192,160,74104,1,0,0:0:0:0:
192,160,74257,1,0,0:0:0:0:
160,128,74410,1,8,0:0:0:0:
160,128,74486,1,0,0:0:0:0:
160,128,74563,1,8,0:0:0:0:
192,160,74716,1,4,0:0:0:0:
160,160,75022,1,8,0:0:0:0:
128,160,75175,1,0,0:0:0:0:
128,160,75328,1,0,0:0:0:0:
192,160,75634,1,8,0:0:0:0:
192,160,75685,1,8,0:0:0:0:
192,160,75736,1,8,0:0:0:0:
192,160,75787,1,0,0:0:0:0:
160,192,75864,1,0,0:0:0:0:
128,192,75940,1,0,0:0:0:0:
128,160,76093,1,8,0:0:0:0:
128,160,76144,1,8,0:0:0:0:
128,160,76195,1,8,0:0:0:0:
128,160,76247,1,0,0:0:0:0:
128,160,76400,1,8,0:0:0:0:
128,160,76451,1,8,0:0:0:0:
128,160,76502,1,8,0:0:0:0:
352,128,76553,1,0,0:0:0:0:
256,128,76655,1,8,0:0:0:0:
256,128,76757,1,8,0:0:0:0:
256,128,76859,1,0,0:0:0:0:
256,128,76961,1,8,0:0:0:0:
256,128,77063,1,8,0:0:0:0:
256,128,77165,1,0,0:0:0:0:
256,128,77777,1,0,0:0:0:0:
256,128,78389,1,8,0:0:0:0:
256,128,79002,1,8,0:0:0:0:
256,192,79614,12,0,80532,0:0:0:0:
128,160,80838,5,8,0:0:0:0:
128,160,80915,1,8,0:0:0:0:
160,128,80991,1,0,0:0:0:0:
160,128,81042,1,0,0:0:0:0:
160,128,81093,1,0,0:0:0:0:
160,128,81144,1,8,0:0:0:0:
192,128,81221,1,8,0:0:0:0:
192,128,81298,1,0,0:0:0:0:
192,128,81374,1,0,0:0:0:0:
192,128,81451,1,8,0:0:0:0:
192,128,81527,1,8,0:0:0:0:
192,128,81604,1,0,0:0:0:0:
192,128,81680,1,0,0:0:0:0:
192,128,81757,1,8,0:0:0:0:
192,128,81833,1,0,0:0:0:0:
192,128,81910,1,0,0:0:0:0:
192,128,81986,1,8,0:0:0:0:
96,128,82063,1,4,0:0:0:0:
192,128,82216,1,0,0:0:0:0:
192,128,82293,1,0,0:0:0:0:
192,96,82369,1,8,0:0:0:0:
192,96,82446,1,8,0:0:0:0:
192,128,82523,1,0,0:0:0:0:
192,96,82676,1,8,0:0:0:0:
128,160,82829,1,0,0:0:0:0:
128,160,82905,1,8,0:0:0:0:
128,160,82982,1,0,0:0:0:0:
192,96,83135,1,8,0:0:0:0:
224,160,83288,1,8,0:0:0:0:
224,160,83364,1,0,0:0:0:0:
224,160,83441,1,8,0:0:0:0:
224,160,83517,1,8,0:0:0:0:
224,160,83594,1,0,0:0:0:0:
224,160,83747,1,0,0:0:0:0:
128,128,83824,1,0,0:0:0:0:
160,160,83900,1,8,0:0:0:0:
160,160,84053,1,0,0:0:0:0:
160,160,84206,1,8,0:0:0:0:
192,160,84512,1,4,0:0:0:0:
160,64,84665,1,0,0:0:0:0:
160,64,84742,1,0,0:0:0:0:
160,64,84818,1,8,0:0:0:0:
160,64,84895,1,8,0:0:0:0:
160,64,84972,1,0,0:0:0:0:
96,128,85125,1,8,0:0:0:0:
160,160,85278,1,0,0:0:0:0:
160,160,85354,1,0,0:0:0:0:
160,96,85431,1,12,0:0:0:0:
160,96,85890,1,8,0:0:0:0:
160,96,85966,1,8,0:0:0:0:
160,96,86043,1,0,0:0:0:0:
160,96,86119,1,0,0:0:0:0:
160,64,86196,1,0,0:0:0:0:
160,64,86273,1,8,0:0:0:0:
160,64,86349,1,0,0:0:0:0:
160,64,86502,1,8,0:0:0:0:
160,64,86655,1,8,0:0:0:0:
160,64,86732,1,0,0:0:0:0:
160,64,86808,1,8,0:0:0:0:
160,64,86885,1,8,0:0:0:0:
160,64,86961,1,4,0:0:0:0:
256,192,87114,1,0,0:0:0:0:
288,192,87191,1,0,0:0:0:0:
288,192,87267,1,8,0:0:0:0:
256,192,87344,1,8,0:0:0:0:
256,192,87420,1,0,0:0:0:0:
256,192,87574,1,8,0:0:0:0:
256,192,87727,1,0,0:0:0:0:
256,192,87803,1,8,0:0:0:0:
256,192,87880,1,0,0:0:0:0:
256,192,88033,1,8,0:0:0:0:
192,160,88186,1,8,0:0:0:0:
192,160,88262,1,0,0:0:0:0:
192,160,88339,1,8,0:0:0:0:
192,160,88415,1,8,0:0:0:0:
192,160,88492,1,0,0:0:0:0:
192,160,88645,1,0,0:0:0:0:
192,160,88722,1,0,0:0:0:0:
192,160,88798,1,8,0:0:0:0:
192,160,88951,1,8,0:0:0:0:
192,160,89104,1,8,0:0:0:0:
192,160,89181,1,0,0:0:0:0:
192,160,89257,1,0,0:0:0:0:
192,160,89334,1,8,0:0:0:0:
192,160,89410,1,0,0:0:0:0:
224,192,89563,1,8,0:0:0:0:
224,192,89640,1,8,0:0:0:0:
224,192,89716,1,8,0:0:0:0:
224,192,89793,1,8,0:0:0:0:
224,192,89869,1,0,0:0:0:0:
160,128,90023,1,8,0:0:0:0:
160,128,90099,1,8,0:0:0:0:
160,128,90176,1,0,0:0:0:0:
160,128,90252,1,8,0:0:0:0:
160,128,90329,1,0,0:0:0:0:
128,128,90482,1,8,0:0:0:0:
128,128,90558,1,8,0:0:0:0:
128,128,90635,1,8,0:0:0:0:
128,128,90711,1,8,0:0:0:0:
128,128,90788,1,0,0:0:0:0:
256,160,90839,1,0,0:0:0:0:
256,160,90890,1,0,0:0:0:0:
256,160,90941,1,8,0:0:0:0:
256,160,91017,1,8,0:0:0:0:
256,160,91094,1,0,0:0:0:0:
256,160,91170,1,8,0:0:0:0:
256,160,91247,1,0,0:0:0:0:
128,160,91324,1,0,0:0:0:0:
128,160,91400,1,8,0:0:0:0:
128,160,91477,1,8,0:0:0:0:
160,160,91553,1,0,0:0:0:0:
160,160,91630,1,8,0:0:0:0:
160,160,91706,1,0,0:0:0:0:
192,160,91859,1,4,0:0:0:0:
160,128,92012,1,0,0:0:0:0:
160,128,92089,1,0,0:0:0:0:
160,128,92165,1,8,0:0:0:0:
160,128,92242,1,8,0:0:0:0:
160,128,92318,1,0,0:0:0:0:
160,128,92472,1,8,0:0:0:0:
160,128,92625,1,0,0:0:0:0:
160,64,92701,1,8,0:0:0:0:
160,64,92778,1,0,0:0:0:0:
160,64,92931,1,8,0:0:0:0:
160,64,93084,1,8,0:0:0:0:
160,64,93160,1,0,0:0:0:0:
160,64,93237,1,8,0:0:0:0:
160,64,93313,1,8,0:0:0:0:
160,64,93390,1,0,0:0:0:0:
96,128,93543,1,0,0:0:0:0:
96,128,93619,1,0,0:0:0:0:
96,128,93696,1,8,0:0:0:0:
96,128,93849,1,0,0:0:0:0:
96,128,94002,1,8,0:0:0:0:
96,128,94079,1,8,0:0:0:0:
96,128,94155,1,8,0:0:0:0:
96,128,94232,1,8,0:0:0:0:
96,128,94308,1,4,0:0:0:0:
160,128,94461,1,0,0:0:0:0:
160,128,94538,1,0,0:0:0:0:
160,128,94614,1,8,0:0:0:0:
160,128,94767,1,0,0:0:0:0:
160,128,94920,1,8,0:0:0:0:
192,160,94997,1,8,0:0:0:0:
160,128,95074,1,0,0:0:0:0:
160,128,95150,1,0,0:0:0:0:
256,192,95227,1,12,0:0:0:0:
96,160,95532,1,0,0:0:0:0:
96,160,95609,1,0,0:0:0:0:
96,160,95685,1,8,0:0:0:0:
96,160,95762,1,8,0:0:0:0:
96,160,95838,1,0,0:0:0:0:
96,128,95915,1,8,0:0:0:0:
96,128,95991,1,0,0:0:0:0:
128,128,96068,1,0,0:0:0:0:
128,128,96144,1,8,0:0:0:0:
128,128,96221,1,8,0:0:0:0:
128,128,96298,1,0,0:0:0:0:
128,128,96374,1,0,0:0:0:0:
128,128,96451,1,8,0:0:0:0:
128,128,96527,1,0,0:0:0:0:
128,128,96604,1,8,0:0:0:0:
128,128,96680,1,8,0:0:0:0:
128,128,96757,1,4,0:0:0:0:
256,160,96910,1,0,0:0:0:0:
256,160,96986,1,0,0:0:0:0:
256,160,97063,1,8,0:0:0:0:
256,160,97139,1,8,0:0:0:0:
160,96,97216,1,0,0:0:0:0:
160,96,97369,1,8,0:0:0:0:
160,96,97523,1,8,0:0:0:0:
96,160,97599,1,8,0:0:0:0:
160,96,97676,1,0,0:0:0:0:
160,96,97829,1,8,0:0:0:0:
160,160,98135,1,8,0:0:0:0:
160,160,98288,1,0,0:0:0:0:
64,192,98364,1,0,0:0:0:0:
160,160,98441,1,0,0:0:0:0:
160,160,98517,1,0,0:0:0:0:
160,160,98594,1,8,0:0:0:0:
160,160,98747,1,0,0:0:0:0:
160,160,98900,1,8,0:0:0:0:
160,160,98977,1,8,0:0:0:0:
160,160,99053,1,0,0:0:0:0:
256,128,99206,1,0,0:0:0:0:
256,128,99257,1,0,0:0:0:0:
256,128,99308,1,0,0:0:0:0:
256,128,99359,1,8,0:0:0:0:
256,128,99512,1,0,0:0:0:0:
256,128,99563,1,0,0:0:0:0:
256,128,99614,1,0,0:0:0:0:
256,128,99665,1,8,0:0:0:0:
256,96,99818,1,0,0:0:0:0:
256,96,99895,1,8,0:0:0:0:
256,96,99972,1,0,0:0:0:0:
256,96,100048,1,8,0:0:0:0:
256,96,100125,1,8,0:0:0:0:
256,96,100201,1,8,0:0:0:0:
256,96,100278,1,0,0:0:0:0:
256,96,100354,1,0,0:0:0:0:
256,96,100431,1,8,0:0:0:0:
256,96,100507,1,0,0:0:0:0:
320,96,100584,1,8,0:0:0:0:
320,96,100635,1,8,0:0:0:0:
320,96,100686,1,8,0:0:0:0:
320,96,100737,1,0,0:0:0:0:
288,96,100813,1,8,0:0:0:0:
288,96,100890,1,0,0:0:0:0:
288,96,100966,1,0,0:0:0:0:
192,64,101043,1,8,0:0:0:0:
192,64,101119,1,8,0:0:0:0:
192,64,101196,1,0,0:0:0:0:
192,64,101273,1,0,0:0:0:0:
192,64,101349,1,8,0:0:0:0:
192,64,101426,1,0,0:0:0:0:
192,64,101502,1,0,0:0:0:0:
192,64,101579,1,8,0:0:0:0:
192,64,101655,1,4,0:0:0:0:
288,96,101808,1,0,0:0:0:0:
288,96,101884,1,0,0:0:0:0:
288,96,101961,1,8,0:0:0:0:
288,96,102037,1,8,0:0:0:0:
288,96,102114,1,0,0:0:0:0:
288,96,102267,1,8,0:0:0:0:
288,96,102420,1,0,0:0:0:0:
288,96,102497,1,8,0:0:0:0:
288,96,102573,1,0,0:0:0:0:
288,96,102726,1,8,0:0:0:0:
160,160,102879,1,8,0:0:0:0:
160,160,102956,1,0,0:0:0:0:
160,160,103032,1,8,0:0:0:0:
160,160,103109,1,8,0:0:0:0:
160,160,103185,1,0,0:0:0:0:
256,128,103338,1,0,0:0:0:0:
256,128,103389,1,0,0:0:0:0:
224,128,103440,1,0,0:0:0:0:
224,128,103491,1,8,0:0:0:0:
224,128,103644,1,0,0:0:0:0:
288,96,103798,1,8,0:0:0:0:
288,96,103874,1,8,0:0:0:0:
288,96,103951,1,8,0:0:0:0:
288,96,104027,1,8,0:0:0:0:
288,96,104104,1,4,0:0:0:0:
160,64,104257,1,0,0:0:0:0:
192,64,104333,1,0,0:0:0:0:
192,64,104410,1,8,0:0:0:0:
192,64,104563,1,0,0:0:0:0:
192,64,104716,1,8,0:0:0:0:
192,64,104792,1,8,0:0:0:0:
192,64,104869,1,0,0:0:0:0:
192,64,104945,1,0,0:0:0:0:
192,64,105022,1,12,0:0:0:0:
192,160,105481,1,8,0:0:0:0:
192,96,105532,1,8,0:0:0:0:
192,96,105583,1,8,0:0:0:0:
192,96,105634,1,0,0:0:0:0:
256,96,105711,1,8,0:0:0:0:
160,128,105787,1,0,0:0:0:0:
160,128,105864,1,0,0:0:0:0:
160,128,105940,1,8,0:0:0:0:
160,128,106017,1,8,0:0:0:0:
160,128,106093,1,0,0:0:0:0:
160,128,106170,1,8,0:0:0:0:
160,128,106247,1,0,0:0:0:0:
160,96,106323,1,8,0:0:0:0:
160,96,106400,1,0,0:0:0:0:
160,96,106476,1,0,0:0:0:0:
160,96,106553,1,8,0:0:0:0:
192,128,106859,1,4,0:0:0:0:
192,128,107165,1,12,0:0:0:0:
192,128,107471,1,4,0:0:0:0:
160,128,107930,1,0,0:0:0:0:
160,128,108083,1,0,0:0:0:0:
256,96,108236,1,0,0:0:0:0:
256,96,108287,1,0,0:0:0:0:
256,96,108338,1,0,0:0:0:0:
256,96,108389,1,8,0:0:0:0:
224,64,108542,1,0,0:0:0:0:
256,96,108695,1,8,0:0:0:0:
256,96,108772,1,0,0:0:0:0:
256,96,108849,1,0,0:0:0:0:
256,96,108925,1,8,0:0:0:0:
256,96,109002,1,0,0:0:0:0:
192,128,109155,1,8,0:0:0:0:
192,128,109231,1,8,0:0:0:0:
192,128,109308,1,8,0:0:0:0:
192,128,109384,1,8,0:0:0:0:
192,128,109461,1,0,0:0:0:0:
192,128,109614,1,8,0:0:0:0:
192,128,109690,1,8,0:0:0:0:
192,128,109767,1,0,0:0:0:0:
192,128,109843,1,8,0:0:0:0:
192,128,109920,1,0,0:0:0:0:
256,160,110073,1,8,0:0:0:0:
224,128,110150,1,8,0:0:0:0:
224,128,110226,1,8,0:0:0:0:
224,128,110379,1,0,0:0:0:0:
224,128,110532,1,8,0:0:0:0:
224,192,110685,1,0,0:0:0:0:
224,192,110736,1,0,0:0:0:0:
224,160,110787,1,0,0:0:0:0:
224,160,110838,1,8,0:0:0:0:
256,192,110991,1,0,0:0:0:0:
256,192,111144,1,8,0:0:0:0:
256,192,111221,1,0,0:0:0:0:
256,192,111298,1,8,0:0:0:0:
256,160,111374,1,8,0:0:0:0:
256,160,111451,1,0,0:0:0:0:
160,160,111757,1,12,0:0:0:0:
160,160,112063,1,4,0:0:0:0:
160,160,112369,1,12,0:0:0:0:
160,160,112675,1,4,0:0:0:0:
160,128,112981,1,8,0:0:0:0:
160,128,113134,1,0,0:0:0:0:
192,128,113211,1,0,0:0:0:0:
192,128,113287,1,8,0:0:0:0:
192,128,113440,1,8,0:0:0:0:
192,128,113593,1,0,0:0:0:0:
192,128,113670,1,8,0:0:0:0:
192,128,113747,1,0,0:0:0:0:
192,160,113900,1,8,0:0:0:0:
256,96,113951,1,8,0:0:0:0:
256,96,114002,1,8,0:0:0:0:
192,160,114053,1,0,0:0:0:0:
192,160,114129,1,8,0:0:0:0:
192,160,114206,1,0,0:0:0:0:
192,160,114282,1,0,0:0:0:0:
192,160,114359,1,8,0:0:0:0:
192,160,114435,1,8,0:0:0:0:
192,160,114512,1,0,0:0:0:0:
192,160,114588,1,8,0:0:0:0:
192,160,114665,1,0,0:0:0:0:
192,160,114741,1,0,0:0:0:0:
192,160,114818,1,8,0:0:0:0:
192,64,114869,1,8,0:0:0:0:
192,64,114920,1,8,0:0:0:0:
192,160,114971,1,0,0:0:0:0:
192,160,115047,1,8,0:0:0:0:
192,160,115124,1,0,0:0:0:0:
192,160,115200,1,0,0:0:0:0:
192,160,115277,1,8,0:0:0:0:
192,160,115353,1,8,0:0:0:0:
192,160,115430,1,0,0:0:0:0:
192,160,115506,1,8,0:0:0:0:
192,160,115583,1,0,0:0:0:0:
192,160,115659,1,0,0:0:0:0:
192,160,115736,1,8,0:0:0:0:
192,160,115813,1,8,0:0:0:0:
192,160,115889,1,0,0:0:0:0:
192,160,115966,1,0,0:0:0:0:
192,160,116042,1,8,0:0:0:0:
192,160,116119,1,0,0:0:0:0:
192,160,116195,1,0,0:0:0:0:
192,160,116272,1,8,0:0:0:0:
192,160,116349,1,4,0:0:0:0:
160,160,116502,1,0,0:0:0:0:
160,160,116578,1,0,0:0:0:0:
224,160,116655,1,8,0:0:0:0:
160,160,116731,1,8,0:0:0:0:
224,160,116808,1,0,0:0:0:0:
224,160,116961,1,8,0:0:0:0:
224,160,117114,1,8,0:0:0:0:
160,128,117190,1,8,0:0:0:0:
160,160,117267,1,0,0:0:0:0:
160,160,117420,1,4,0:0:0:0:
160,96,117726,1,0,0:0:0:0:
160,96,117879,1,0,0:0:0:0:
224,128,118032,1,0,0:0:0:0:
224,128,118083,1,0,0:0:0:0:
224,128,118134,1,0,0:0:0:0:
224,128,118185,1,8,0:0:0:0:
160,96,118338,1,8,0:0:0:0:
128,128,118491,1,0,0:0:0:0:
128,128,118568,1,0,0:0:0:0:
128,128,118644,1,8,0:0:0:0:
128,128,118721,1,8,0:0:0:0:
128,128,118798,1,0,0:0:0:0:
160,128,118874,1,8,0:0:0:0:
160,128,118951,1,8,0:0:0:0:
160,128,119027,1,8,0:0:0:0:
160,128,119104,1,0,0:0:0:0:
160,96,119180,1,8,0:0:0:0:
160,96,119257,1,8,0:0:0:0:
160,96,119333,1,8,0:0:0:0:
160,96,119410,1,0,0:0:0:0:
160,96,119486,1,8,0:0:0:0:
160,96,119563,1,0,0:0:0:0:
160,96,119639,1,0,0:0:0:0:
160,96,119716,1,8,0:0:0:0:
256,192,119869,12,0,122471,0:0:0:0:
