osu file format v14

[General]
AudioFilename: audio.mp3
AudioLeadIn: 0
PreviewTime: 81169
Countdown: 0
SampleSet: Soft
StackLeniency: 0.5
Mode: 0
LetterboxInBreaks: 0
WidescreenStoryboard: 1

[Editor]
Bookmarks: 10760,20556,42597,62189,81781,101373,119587
DistanceSpacing: 1
BeatDivisor: 2
GridSize: 32
TimelineZoom: 2.699999

[Metadata]
Title:Egret and Willow
TitleUnicode:Egret and Willow
Artist:Dirty Androids
ArtistUnicode:Dirty Androids
Creator:-PC
Version:Easy
Source:beatmania IIDX 24 SINOBUZ
Tags:future beats bemani konami liiraye daoski stingy
BeatmapID:1937967
BeatmapSetID:915233

[Difficulty]
HPDrainRate:2
CircleSize:3
OverallDifficulty:2
ApproachRate:2.3
SliderMultiplier:0.819999999999999
SliderTickRate:1

[Events]
//Background and Video events
0,0,"egret.jpg",0,0
//Break Periods
2,77083,79944
//Storyboard Layer 0 (Background)
//Storyboard Layer 1 (Fail)
//Storyboard Layer 2 (Pass)
//Storyboard Layer 3 (Foreground)
//Storyboard Sound Samples

[TimingPoints]
965,306.122448979592,4,2,1,50,1,0
19944,-100,4,2,1,70,0,0
20556,-100,4,2,1,70,0,1
40148,-100,4,2,1,70,0,0
81781,-100,4,2,1,70,0,1
101067,-100,4,2,1,70,0,0
101373,-100,4,2,1,70,0,1
119587,-100,4,2,1,70,0,0
119740,-55.5555555555556,4,2,1,40,0,0
120352,-55.5555555555556,4,2,1,35,0,0
120965,-55.5555555555556,4,2,1,30,0,0
121577,-55.5555555555556,4,2,1,25,0,0
121883,-55.5555555555556,4,2,1,20,0,0
122189,-55.5555555555556,4,2,1,5,0,0

[Colours]
Combo1 : 90,152,254
Combo2 : 253,238,55
Combo3 : 64,253,163
Combo4 : 52,215,250

[HitObjects]
401,230,10760,6,0,B|376:77|475:158|450:0,2,246,4|0|8,1:0|1:3|0:0,0:0:0:0:
444,299,12903,1,0,0:0:0:0:
381,351,13209,2,0,B|233:340|233:340|197:362|197:362|59:352,1,328,0|0,1:0|0:0,0:0:0:0:
7,288,14740,2,0,P|-3:241|91:186,1,164,0|0,1:0|0:0,0:0:0:0:
165,184,15658,6,0,P|194:124|209:26,2,164,0|8|0,1:0|0:0|0:0,0:0:0:0:
8,262,17495,1,8,0:0:0:0:
140,357,18107,2,0,B|332:382|234:259|448:290,1,328,0|0,1:3|2:0,0:0:0:0:
509,138,19944,1,4,1:2:0:0:
356,198,20556,6,0,P|274:192|221:124,1,164,4|8,1:0|0:0,0:0:0:0:
239,52,21475,2,0,B|166:44|166:44|154:33|154:33|80:25,1,164,2|2,1:3|1:3,0:0:0:0:
0,13,22393,1,8,1:2:0:0:
0,176,23005,6,0,P|51:208|112:215,1,123,2|2,1:3|1:3,0:0:0:0:
243,175,23924,2,0,P|257:254|316:324,1,164,2|8,1:3|0:3,0:0:0:0:
386,343,24842,2,0,P|430:330|449:297,1,81.9999999999999,4|4,1:3|1:3,0:0:0:0:
440,219,25454,6,0,B|430:117|498:181|492:74,1,164,4|8,1:0|0:2,0:0:0:0:
432,17,26373,2,0,L|267:37,1,164,2|2,1:3|1:3,0:0:0:0:
188,50,27291,1,8,1:2:0:0:
208,212,27903,6,0,P|209:283|173:321,1,123,2|2,1:3|1:3,0:0:0:0:
64,280,28822,2,0,P|63:209|99:171,2,123,4|4|12,1:2|1:2|1:2,0:0:0:0:
103,351,30046,1,4,1:2:0:0:
176,319,30352,6,0,P|244:306|328:350,1,164,4|8,1:0|0:0,0:0:0:0:
404,369,31271,2,0,B|444:354|444:354|458:234,1,164,2|2,1:3|1:3,0:0:0:0:
467,152,32189,1,8,1:2:0:0:
371,20,32801,6,0,P|311:37|279:97,1,123,2|2,1:3|1:3,0:0:0:0:
279,209,33720,2,0,B|126:191|182:288|47:265,1,246,2|8,1:3|1:2,0:0:0:0:
0,199,34944,1,2,1:3:0:0:
37,125,35250,6,0,P|113:98|194:135,1,164,2|8,1:3|0:0,0:0:0:0:
279,209,36322,2,0,L|413:214,1,123,0|2,1:0|1:3,0:0:0:0:
483,218,37087,1,8,0:0:0:0:
440,376,37699,5,2,1:3:0:0:
374,326,38005,2,0,P|308:311|253:326,1,123,2|2,1:3|1:3,0:0:0:0:
178,355,38771,2,0,B|168:265|168:265|147:247|147:247|135:157,1,205,4|12,1:2|0:0,0:0:0:0:
116,0,40148,1,0,1:0:0:0:
495,80,42597,5,2,1:3:0:0:
390,206,43209,2,0,P|308:192|219:190,1,164,10|0,0:0|0:0,0:0:0:0:
175,253,44128,2,0,P|133:282|37:228,1,164,2|0,1:3|0:0,0:0:0:0:
34,155,45046,5,2,1:3:0:0:
186,95,45658,2,0,P|229:101|263:129,1,81.9999999999999,10|0,0:0|0:0,0:0:0:0:
312,186,46271,2,0,P|393:169|467:199,2,164,2|10|2,0:0|0:0|1:3,0:0:0:0:
229,327,48107,6,0,P|221:272|156:155,1,164,10|0,0:0|0:0,0:0:0:0:
104,130,49026,1,2,1:3:0:0:
205,1,49638,1,0,0:0:0:0:
268,53,49944,6,0,B|407:38,2,123,2|2|2,1:3|1:3|0:0,0:0:0:0:
211,112,51169,2,0,B|194:214|269:173|244:277,1,164,2|10,0:0|0:0,0:0:0:0:
196,329,52087,1,2,3:2:0:0:
114,321,52393,5,2,1:3:0:0:
24,183,53005,2,0,P|32:125|75:61,2,123,10|2|2,0:0|3:2|1:3,0:0:0:0:
46,262,54230,1,10,0:0:0:0:
196,329,54842,5,2,1:3:0:0:
275,185,55454,2,0,P|268:145|243:106,1,81.9999999999999,10|0,0:0|3:0,0:0:0:0:
171,79,56067,2,0,B|101:92|101:92|87:104|87:104|6:118,2,164,2|10|2,0:0|0:0|1:3,0:0:0:0:
329,38,57903,6,0,P|352:121|420:168,1,164,10|0,0:0|0:0,0:0:0:0:
494,170,58822,1,2,1:3:0:0:
459,330,59434,1,2,3:2:0:0:
390,284,59740,6,0,P|310:270|234:314,1,164,2|10,1:3|0:0,0:0:0:0:
88,371,60965,2,0,P|41:348|22:313,1,81.9999999999999,2|2,0:0|0:0,0:0:0:0:
16,242,61577,2,0,P|32:193|65:170,1,81.9999999999999,8|2,0:0|0:0,0:0:0:0:
135,161,62189,6,0,P|214:166|300:144,1,164,4|8,1:0|0:0,0:0:0:0:
374,124,63107,2,0,B|427:155|427:155|409:343,1,246,2|8,1:3|0:0,0:0:0:0:
245,337,64638,6,0,P|211:265|208:176,1,164,2|8,1:3|0:0,0:0:0:0:
209,99,65556,2,0,B|178:73|178:73|56:100,1,164,2|2,1:3|0:0,0:0:0:0:
8,166,66475,2,0,P|26:210|54:228,1,81.9999999999999,8|0,0:0|0:0,0:0:0:0:
135,224,67087,6,0,P|217:229|287:289,1,164,4|8,1:0|0:0,0:0:0:0:
346,324,68005,2,0,B|403:295|403:295|425:109,1,246,2|8,1:3|0:0,0:0:0:0:
279,40,69536,6,0,P|202:68|121:72,1,164,2|8,1:3|0:0,0:0:0:0:
41,51,70454,2,0,B|5:84|5:84|27:201,1,164,2|2,1:3|0:0,0:0:0:0:
64,269,71373,1,8,0:0:0:0:
144,282,71679,1,4,0:0:0:0:
206,229,71985,6,0,P|220:172|145:102,2,164,2|8|2,1:3|1:2|1:3,0:0:0:0:
53,288,73822,1,8,1:2:0:0:
200,358,74434,2,0,B|268:349|268:349|289:329|289:329|364:320,1,164,4|8,1:0|1:2,0:0:0:0:
506,258,75658,2,0,P|454:241|396:143,1,164,0|2,1:0|0:0,0:0:0:0:
448,0,76883,1,2,0:0:0:0:
434,5,81781,6,0,P|354:2|299:65,1,164,4|8,1:0|0:0,0:0:0:0:
285,140,82699,2,0,B|212:148|212:148|200:159|200:159|126:166,1,164,2|2,1:3|1:3,0:0:0:0:
44,175,83618,1,8,1:2:0:0:
0,17,84230,6,0,P|60:23|112:55,1,123,2|2,1:3|1:3,0:0:0:0:
217,119,85149,2,0,P|299:111|364:61,1,164,2|8,1:3|0:3,0:0:0:0:
431,18,86067,2,0,P|470:29|498:62,1,81.9999999999999,4|4,1:3|1:3,0:0:0:0:
511,139,86679,6,0,P|510:223|475:297,1,164,4|8,1:0|0:2,0:0:0:0:
423,356,87597,2,0,L|253:335,1,164,2|2,1:3|1:3,0:0:0:0:
178,326,88516,1,8,1:2:0:0:
50,224,89128,6,0,P|5:168|10:116,1,123,2|2,1:3|1:3,0:0:0:0:
121,81,90047,2,0,P|165:136|160:188,2,123,4|4|12,1:2|1:2|1:2,0:0:0:0:
46,47,91271,1,4,1:2:0:0:
8,120,91577,6,0,P|0:209|54:261,1,164,4|8,1:0|0:0,0:0:0:0:
129,271,92495,2,0,B|211:257|211:257|269:323,1,164,2|2,1:3|1:3,0:0:0:0:
316,381,93413,1,8,1:2:0:0:
466,318,94026,6,0,P|433:267|375:251,1,123,2|2,1:3|1:3,0:0:0:0:
258,289,94945,2,0,B|276:136|179:192|202:57,1,246,2|8,1:3|1:2,0:0:0:0:
265,8,96169,1,2,1:3:0:0:
342,35,96475,6,0,P|369:111|332:192,1,164,2|8,1:3|0:0,0:0:0:0:
217,206,97547,2,0,L|84:189,1,123,0|2,1:0|1:3,0:0:0:0:
15,176,98312,1,8,0:0:0:0:
11,339,98924,5,2,1:3:0:0:
87,369,99230,2,0,P|149:364|192:323,1,123,2|2,1:3|1:3,0:0:0:0:
246,263,99996,2,0,B|336:273|336:273|354:294|354:294|444:306,1,205,4|12,1:2|0:0,0:0:0:0:
498,152,101373,6,0,P|430:153|386:101,1,123,4|2,1:0|1:3,0:0:0:0:
272,139,102291,2,0,P|249:194|147:205,1,164,2|0,1:3|0:0,0:0:0:0:
89,158,103209,1,8,0:0:0:0:
156,8,103822,6,0,P|218:11|259:54,1,123,2|2,1:3|1:3,0:0:0:0:
214,167,104740,2,0,B|374:158|291:252|446:231,1,246,2|8,1:3|3:2,0:0:0:0:
512,193,105965,1,2,3:0:0:0:
437,339,106577,5,4,1:2:0:0:
367,380,106883,1,12,1:2:0:0:
319,314,107189,2,0,B|251:303|251:303|228:315|228:315|157:305,1,164,4|2,1:0|3:2,0:0:0:0:
78,291,108107,1,8,1:2:0:0:
163,150,108720,6,0,P|163:86|103:45,1,123,2|2,1:3|1:3,0:0:0:0:
6,92,109638,2,0,P|6:156|66:197,2,123,4|4|4,1:2|1:2|1:2,0:0:0:0:
46,20,110862,1,12,0:0:0:0:
192,94,111475,5,4,1:0:0:0:
271,76,111781,1,8,1:2:0:0:
351,58,112087,1,2,1:3:0:0:
414,110,112393,2,0,B|426:166|426:166|420:177|420:177|436:236,2,123,4|2|2,1:2|1:3|1:3,0:0:0:0:
395,29,113618,5,4,1:0:0:0:
305,114,114077,2,0,P|246:120|198:83,2,123,4|4|4,1:2|1:2|1:2,0:0:0:0:
395,29,115454,2,0,P|431:8|478:11,1,81.9999999999999,14|2,1:2|1:3,0:0:0:0:
511,79,116067,6,0,B|522:179|453:128|466:232,1,164,4|8,1:0|0:0,0:0:0:0:
426,344,117138,2,0,P|374:347|305:290,1,123,4|2,1:0|1:3,0:0:0:0:
265,246,117903,2,0,L|176:261,1,81.9999999999999,10|0,0:0|3:0,0:0:0:0:
103,273,118516,6,0,P|42:245|15:118,1,205,4|2,1:0|1:3,0:0:0:0:
57,50,119587,1,4,1:0:0:0:
256,192,119893,12,0,122189,0:0:0:0:
