osu file format v14

[General]
AudioFilename: audio.mp3
AudioLeadIn: 0
PreviewTime: 48066
Countdown: 1
SampleSet: Soft
StackLeniency: 0.2
Mode: 0
LetterboxInBreaks: 0
WidescreenStoryboard: 0

[Editor]
Bookmarks: 51266,102466
DistanceSpacing: 3
BeatDivisor: 4
GridSize: 4
TimelineZoom: 3.399999

[Metadata]
Title:Lift Off
TitleUnicode:Lift Off
Artist:Dirt Monkey
ArtistUnicode:Dirt Monkey
Creator:_zee
Version:SHITMAP #1
Source:
Tags:trap,dubstep,rick n morty
BeatmapID:1442501
BeatmapSetID:682147

[Difficulty]
HPDrainRate:5
CircleSize:4.5
OverallDifficulty:8
ApproachRate:9.5
SliderMultiplier:1.8
SliderTickRate:1

[Events]
//Background and Video events
0,0,"facf24b5fb5baf7123b3e6cee0127392.jpg",0,0
//Break Periods
//Storyboard Layer 0 (Background)
//Storyboard Layer 1 (Fail)
//Storyboard Layer 2 (Pass)
//Storyboard Layer 3 (Foreground)
//Storyboard Sound Samples

[TimingPoints]
48066,400,4,2,0,60,1,0
51266,-100,4,2,0,60,0,1
102466,-100,4,2,0,60,0,0

[HitObjects]
192,280,48066,6,0,L|144:220,1,45
72,144,48266,2,0,L|136:144,1,45
228,68,48466,2,0,L|168:116,1,45
88,180,48666,2,0,L|156:180,1,45
268,180,48866,2,0,L|188:180,1,45
120,268,49066,2,0,L|176:228,1,45
152,108,49266,2,0,L|152:160,1,45
264,232,49466,2,0,L|264:156,1,45
332,72,49666,2,0,L|332:132,1,45
468,116,49866,2,0,L|408:168,1,45
364,260,50066,2,0,L|364:208,1,45
240,272,50266,2,0,L|240:204,1,45
136,144,50466,2,0,L|208:144,1,45
288,60,50666,2,0,L|224:64,1,45
340,148,50866,2,0,P|292:164|236:156,1,90
136,64,51266,6,0,B|224:120|332:92|372:64,1,225,8|0,0:0|0:0,0:0:0:0:
152,160,51866,2,0,P|208:172|224:168,1,45
360,120,52066,2,0,P|312:144|284:192,1,90,8|0,0:0|0:0,0:0:0:0:
252,348,52466,5,0,0:0:0:0:
112,236,52666,2,0,L|136:176,1,45
172,68,52866,2,0,P|184:144|240:188,1,135,8|0,0:0|0:0,0:0:0:0:
352,228,53266,5,0,0:0:0:0:
424,44,53466,2,0,L|380:80,1,45
284,160,53666,2,0,P|336:136|408:164,1,135,8|0,0:0|0:0,0:0:0:0:
344,284,54066,2,0,P|300:228|224:232,1,135
64,280,54466,2,0,L|64:116,1,135,8|0,0:0|0:0,0:0:0:0:
132,208,54866,5,0,0:0:0:0:
284,112,55066,2,0,L|204:112,1,45
104,120,55266,2,0,P|156:120|184:44,1,135,8|0,0:0|0:0,0:0:0:0:
52,52,55666,5,0,0:0:0:0:
52,320,55866,2,0,L|52:252,1,45
56,140,56066,2,0,P|56:200|144:240,1,135,8|0,0:0|0:0,0:0:0:0:
248,240,56466,5,0,0:0:0:0:
248,40,56666,2,0,L|248:108,1,45
248,220,56866,2,0,B|248:148|248:148|316:204,1,135,8|0,0:0|0:0,0:0:0:0:
368,192,57266,6,0,B|396:132|396:132,1,60,0|8,0:0|0:0,0:0:0:0:
472,272,57532,5,8,3:0:0:0:
332,296,57666,6,0,P|268:260|232:200,1,135,8|0,3:0|0:0,0:0:0:0:
212,76,58066,2,0,L|148:112,1,45,2|0,0:0|0:0,0:0:0:0:
108,216,58266,2,0,L|132:164,1,45
216,76,58466,6,0,P|184:128|232:192,1,135,8|0,0:0|0:0,0:0:0:0:
348,224,58866,2,0,L|308:172,1,45
304,52,59066,2,0,L|348:108,1,45
420,188,59266,6,0,P|300:152|276:120,1,135,8|0,0:0|0:0,0:0:0:0:
212,44,59666,2,0,L|212:100,1,45,2|0,0:0|0:0,0:0:0:0:
156,212,59866,2,0,L|156:144,1,45
92,48,60066,6,0,L|88:200,1,135,8|0,0:0|0:0,0:0:0:0:
172,288,60466,2,0,P|224:312|188:260,1,135
216,258,60866,2,0,P|164:234|200:286,1,135,8|0,0:0|0:0,0:0:0:0:
304,296,61266,2,0,L|304:216,1,45,2|0,0:0|0:0,0:0:0:0:
368,132,61466,2,0,L|368:192,1,45
424,300,61666,6,0,B|440:240|440:240|376:268|348:232,1,135,8|0,0:0|0:0,0:0:0:0:
244,200,62066,2,0,L|304:200,1,45,2|0,0:0|0:0,0:0:0:0:
408,136,62266,2,0,L|340:140,1,45
248,68,62466,6,0,L|152:72,1,90,8|0,0:0|0:0,0:0:0:0:
68,172,62766,1,0,0:0:0:0:
68,328,62866,2,0,L|68:264,1,45,4|0,0:0|0:0,0:0:0:0:
180,296,63266,2,0,B|324:300|320:300|232:232|232:232|328:228|312:136,1,315,0|4,0:0|0:0,0:0:0:0:
184,132,64066,6,0,B|128:132|128:132|196:80,1,135,8|0,0:0|0:0,0:0:0:0:
324,80,64466,1,2,0:0:0:0:
184,136,64666,2,0,L|112:184,1,45
84,260,64866,6,0,B|84:208|84:208|140:256|184:248,1,135,8|0,0:0|0:0,0:0:0:0:
308,204,65266,2,0,L|236:204,1,45,2|0,0:0|0:0,0:0:0:0:
120,136,65466,2,0,L|196:136,1,45
308,64,65666,6,0,P|264:120|296:184,1,135,8|0,0:0|0:0,0:0:0:0:
384,264,66066,1,2,0:0:0:0:
132,168,66266,2,0,L|196:204,1,45
248,252,66466,6,0,B|210:252|210:252|176:272|142:251|142:251|104:252,1,135,8|0,0:0|0:0,0:0:0:0:
232,187,66866,2,0,L|348:96,1,135
444,20,67266,2,0,L|332:108,1,135,8|0,0:0|0:0,0:0:0:0:
232,184,67666,5,2,0:0:0:0:
64,68,67866,2,0,L|64:144,1,45
64,248,68066,2,0,B|64:184|64:184|112:240,1,135,8|0,0:0|0:0,0:0:0:0:
180,352,68466,1,2,0:0:0:0:
276,100,68666,2,0,L|276:176,1,45
280,280,68866,6,0,B|280:216|280:216|328:272,1,135,8|0,0:0|0:0,0:0:0:0:
392,352,69266,1,2,0:0:0:0:
424,84,69466,2,0,L|424:160,1,45
428,264,69666,6,0,B|428:200|428:200|476:256,1,135,8|0,0:0|0:0,0:0:0:0:
474,253,70066,6,0,B|472:168|472:168,1,60,0|8,3:0|3:0,3:0:0:0:
464,28,70332,5,8,3:0:0:0:
372,256,70466,6,0,B|368:168|368:168|324:216|304:200,1,135,8|0,0:0|0:0,0:0:0:0:
232,292,70866,2,0,L|232:216,1,45,2|0,0:0|0:0,0:0:0:0:
96,248,71066,2,0,L|176:248,1,45
276,248,71266,6,0,P|336:236|288:200,1,135,8|0,0:0|0:0,0:0:0:0:
168,192,71666,2,0,L|224:192,1,45,2|0,0:0|0:0,0:0:0:0:
336,132,71866,2,0,L|280:132,1,45
156,132,72066,6,0,P|104:156|164:168,1,135,8|0,0:0|0:0,0:0:0:0:
284,188,72466,2,0,L|284:128,1,45,2|0,0:0|0:0,0:0:0:0:
364,32,72666,2,0,L|364:84,1,45
360,212,72866,6,0,B|360:152|360:152|304:212,1,135,8|0,0:0|0:0,0:0:0:0:
224,316,73266,2,0,P|160:328|208:288,1,135
171,289,73666,6,0,P|176:345|224:316,1,135,8|0,0:0|0:0,0:0:0:0:
244,184,74066,2,0,L|244:120,1,45,2|0,0:0|0:0,0:0:0:0:
156,36,74266,2,0,L|156:96,1,45
160,216,74466,6,0,B|160:152|160:152|224:208,1,135,8|0,0:0|0:0,0:0:0:0:
316,288,74866,2,0,L|316:224,1,45
208,160,75066,2,0,L|280:156,1,45
368,72,75266,6,0,L|412:112,1,45,8|0,0:0|0:0,0:0:0:0:
452,176,75466,2,2,L|372:180,1,45
148,188,75666,6,2,P|176:152|187:139,1,45
236,84,75866,2,2,L|236:144,1,45
336,220,76066,6,2,L|292:260,1,45
228,296,76266,2,2,L|228:228,1,45
160,100,76466,6,2,L|160:40,1,45,2|6,0:0|0:0,0:0:0:0:
336,260,76866,6,0,P|380:204|456:196,1,135,8|0,0:0|0:0,0:0:0:0:
439,192,77266,6,0,P|375:206|336:256,1,90
212,332,77666,6,0,P|184:272|176:240,1,90,8|0,0:0|0:0,0:0:0:0:
216,116,77966,1,0,0:0:0:0:
260,244,78066,2,0,P|280:288|352:312,1,90
448,332,78366,1,0,0:0:0:0:
440,196,78466,6,0,B|440:256|440:256|392:220,1,90,8|0,0:0|0:0,0:0:0:0:
316,148,78766,1,0,0:0:0:0:
320,284,78866,2,0,B|320:236|320:236|260:200,1,90
160,164,79166,1,0,0:0:0:0:
296,160,79266,2,0,B|344:128|344:128|344:60,1,90,8|0,0:0|0:0,0:0:0:0:
208,100,79566,1,0,0:0:0:0:
108,188,79666,2,0,L|108:88,1,90
212,184,79966,1,0,0:0:0:0:
118,303,80066,6,0,P|52:301|112:272,1,180,8|0,0:0|0:0,0:0:0:0:
384,268,80666,2,0,L|304:272,1,45
216,208,80866,6,0,L|296:208,1,45,8|0,0:0|0:0,0:0:0:0:
380,144,81066,2,0,L|380:76,1,45
260,36,81266,6,0,L|260:100,1,45
256,240,81466,2,0,L|256:176,1,45
144,84,81666,6,0,L|180:120,1,45,8|0,0:0|0:0,0:0:0:0:
256,240,81866,2,0,L|256:164,1,45
368,84,82066,6,0,L|324:128,1,45
144,300,82266,2,0,L|188:256,1,45
256,132,82466,6,0,L|256:208,1,45,8|0,0:0|0:0,0:0:0:0:
368,300,82666,2,0,L|324:256,1,45
244,168,82866,6,0,L|244:100,1,60,0|8,0:0|3:0,0:0:0:0:
152,32,83132,5,8,3:0:0:0:
92,76,83266,6,0,P|100:140|172:176,1,135,8|0,0:0|0:0,0:0:0:0:
340,168,83666,5,0,0:0:0:0:
72,176,83866,2,0,P|72:152|88:124,1,45
212,52,84066,2,0,P|184:112|176:144,1,90,8|0,0:0|0:0,0:0:0:0:
216,268,84366,1,0,0:0:0:0:
260,140,84466,6,0,P|280:96|352:72,1,90
448,52,84766,1,0,0:0:0:0:
440,188,84866,2,0,B|440:128|440:128|392:164,1,90,8|0,0:0|0:0,0:0:0:0:
316,236,85166,1,0,0:0:0:0:
320,100,85266,2,0,B|320:148|320:148|260:184,1,90
160,220,85566,1,0,0:0:0:0:
296,224,85666,6,0,B|344:256|344:256|344:324,1,90,8|0,0:0|0:0,0:0:0:0:
208,284,85966,1,0,0:0:0:0:
108,196,86066,2,0,L|108:296,1,90
212,200,86366,1,0,0:0:0:0:
118,80,86466,6,0,P|52:82|112:112,1,180,8|0,0:0|0:0,0:0:0:0:
384,116,87066,2,0,L|304:112,1,45
216,176,87266,6,0,L|296:176,1,45,8|0,0:0|0:0,0:0:0:0:
380,240,87466,2,0,L|380:308,1,45
260,348,87666,2,0,L|260:284,1,45
256,144,87866,2,0,L|256:208,1,45
144,300,88066,6,0,P|161:283|180:212,1,90,8|0,0:0|0:0,0:0:0:0:
184,88,88366,1,0,0:0:0:0:
181,222,88466,2,0,P|196:276|288:316,1,135
260,316,88866,2,0,P|202:284|181:222,1,135
181,222,89266,2,0,P|130:229|175:253,1,135
256,212,89666,6,0,B|256:164|256:164|220:132|220:132|220:52,1,135,8|0,0:0|0:0,0:0:0:0:
356,88,90066,1,0,0:0:0:0:
356,360,90266,2,0,L|356:280,1,45
200,316,90466,2,0,B|248:316|248:316|296:276,1,90,8|0,0:0|0:0,0:0:0:0:
276,156,90766,1,0,0:0:0:0:
144,156,90866,6,0,B|192:156|192:156|252:116,1,90
332,48,91166,1,0,0:0:0:0:
332,184,91266,2,0,B|332:128|332:128|288:168,1,90,8|0,0:0|0:0,0:0:0:0:
200,236,91566,1,0,0:0:0:0:
76,248,91666,2,0,B|76:304|76:304|120:264,1,90
200,188,91966,1,0,0:0:0:0:
76,136,92066,2,0,B|76:80|76:80|120:120,1,90,8|0,0:0|0:0,0:0:0:0:
200,188,92366,1,0,0:0:0:0:
200,52,92466,2,0,B|200:104|200:104|260:152,1,90
344,196,92766,1,0,0:0:0:0:
208,192,92866,6,0,P|164:192|212:204,1,135,8|0,0:0|0:0,0:0:0:0:
328,152,93266,1,0,0:0:0:0:
104,304,93466,2,0,L|104:228,1,45
44,140,93666,6,0,L|80:188,1,45,8|0,0:0|0:0,0:0:0:0:
152,284,93866,1,0,0:0:0:0:
196,208,93966,1,0,0:0:0:0:
108,212,94066,2,0,L|108:152,1,45,2|0,0:0|0:0,0:0:0:0:
228,96,94266,5,0,0:0:0:0:
272,172,94366,1,0,0:0:0:0:
184,168,94466,2,0,L|184:228,1,45,8|0,0:0|0:0,0:0:0:0:
300,284,94666,5,0,0:0:0:0:
344,208,94766,1,0,0:0:0:0:
256,212,94866,2,0,L|256:152,1,45,2|0,0:0|0:0,0:0:0:0:
376,96,95066,5,0,0:0:0:0:
420,172,95166,1,0,0:0:0:0:
332,168,95266,2,0,L|332:228,1,45,8|0,0:0|0:0,0:0:0:0:
200,192,95466,5,0,0:0:0:0:
275,236,95566,1,0,0:0:0:0:
276,144,95666,6,0,L|276:52,1,60,2|8,0:0|3:0,0:0:0:0:
208,248,95932,5,8,3:0:0:0:
203,192,96066,6,0,P|168:192|136:96,1,135,8|0,3:0|0:0,0:0:0:0:
256,156,96466,1,0,0:0:0:0:
52,332,96666,2,0,L|128:332,1,45
216,268,96866,2,0,P|152:268|128:216,1,90,8|0,0:0|0:0,0:0:0:0:
136,116,97166,5,0,0:0:0:0:
136,252,97266,2,0,P|173:276|216:268,1,90
312,176,97566,1,0,0:0:0:0:
424,252,97666,6,0,P|387:276|344:267,1,90,8|0,0:0|0:0,0:0:0:0:
248,175,97966,1,0,0:0:0:0:
136,100,98066,2,0,P|172:75|215:84,1,90,2|0,0:0|0:0,0:0:0:0:
311,176,98366,1,0,0:0:0:0:
423,100,98466,6,0,P|386:75|343:84,1,90,12|0,0:0|0:0,0:0:0:0:
247,177,98766,1,0,0:0:0:0:
136,252,98866,2,0,P|173:276|216:268,1,90,2|0,0:0|0:0,0:0:0:0:
312,176,99166,1,0,0:0:0:0:
204,96,99266,6,0,P|160:96|208:108,1,135,8|0,0:0|0:0,0:0:0:0:
324,56,99666,1,0,0:0:0:0:
100,208,99866,2,0,L|100:132,1,45
40,44,100066,6,0,L|76:92,1,45,8|0,0:0|0:0,0:0:0:0:
156,180,100266,2,0,L|196:128,1,45
104,116,100466,2,0,L|104:56,1,45,2|0,0:0|0:0,0:0:0:0:
224,0,100666,5,0,0:0:0:0:
268,76,100766,1,0,0:0:0:0:
180,72,100866,6,0,L|180:132,1,45,8|0,0:0|0:0,0:0:0:0:
228,244,101066,1,0,0:0:0:0:
52,36,101266,6,0,L|52:108,1,45
132,188,101466,1,0,0:0:0:0:
356,340,101666,6,0,L|356:260,1,45
272,188,101866,1,0,0:0:0:0:
44,336,102066,6,0,B|44:236|44:236|84:304|112:320,1,180
