osu file format v14

[General]
AudioFilename: audio.mp3
AudioLeadIn: 0
PreviewTime: 203738
Countdown: 0
SampleSet: Soft
StackLeniency: 0.8
Mode: 0
LetterboxInBreaks: 0
WidescreenStoryboard: 1

[Editor]
Bookmarks: 5438,25838,45038,64238,102638,143438,181838,203438,213038,222638,261038
DistanceSpacing: 1.1
BeatDivisor: 12
GridSize: 16
TimelineZoom: 2.599999

[Metadata]
Title:Runaway
TitleUnicode:逃避行
Artist:Dios
ArtistUnicode:Dios
Creator:AirinCat
Version:Hard
Source:
Tags:touhikou tohiko japanese pop jpop Tanaka Ichika Nito Sasanomaly ササノマリイ
BeatmapID:3583912
BeatmapSetID:1679293

[Difficulty]
HPDrainRate:4
CircleSize:3.8
OverallDifficulty:6
ApproachRate:8
SliderMultiplier:1.8
SliderTickRate:1

[Events]
//Background and Video events
0,0,"80045977_p0.jpg",0,0
//Break Periods
2,102838,104288
2,203438,212288
//Storyboard Layer 0 (Background)
//Storyboard Layer 1 (Fail)
//Storyboard Layer 2 (Pass)
//Storyboard Layer 3 (Foreground)
//Storyboard Layer 4 (Overlay)
//Storyboard Sound Samples

[TimingPoints]
5438,600,4,2,1,80,1,0
5438,-71.4285714285714,4,2,1,80,0,0
14588,-125,4,2,1,80,0,0
15038,-71.4285714285714,4,2,1,80,0,0
25838,600,4,2,2,50,1,0
25838,-83.3333333333333,4,2,2,50,0,0
44438,-90.9090909090908,4,2,2,50,0,0
45038,-83.3333333333333,4,2,2,50,0,0
54638,-76.9230769230769,4,2,2,50,0,0
61838,-90.9090909090909,4,2,2,40,0,0
63038,-166.666666666667,4,2,2,50,0,0
64238,-71.4285714285714,4,2,1,80,0,1
73388,-125,4,2,1,80,0,0
73838,-71.4285714285714,4,2,1,80,0,1
92588,-125,4,2,1,80,0,0
93038,-71.4285714285714,4,2,1,80,0,1
102638,-71.4285714285714,4,2,1,50,0,0
105038,-90.9090909090909,4,2,2,50,0,0
114038,-100,4,2,2,50,0,0
114638,-90.9090909090909,4,2,2,50,0,0
116438,-111.111111111111,4,2,2,50,0,0
117038,-90.9090909090909,4,2,2,50,0,0
124238,-83.3333333333333,4,2,2,60,0,0
133838,-76.9230769230769,4,2,2,60,0,0
141038,-125,4,2,1,50,0,0
141638,-83.3333333333333,4,2,1,50,0,0
142238,-142.857142857143,4,2,1,50,0,0
143438,-71.4285714285714,4,2,1,80,0,1
152588,-125,4,2,1,80,0,0
153038,-71.4285714285714,4,2,1,80,0,1
171788,-125,4,2,1,80,0,0
172238,-71.4285714285714,4,2,1,80,0,1
181238,-111.111111111111,4,2,1,60,0,0
181838,-142.857142857143,4,2,2,40,0,0
190238,-142.857142857143,4,2,2,50,0,0
191438,-76.923076923077,4,2,1,60,0,0
213038,-76.923076923077,4,2,2,60,0,0
213638,-111.111111111111,4,2,2,50,0,0
217238,-90.9090909090908,4,2,2,50,0,0
217538,-90.9090909090909,4,2,2,50,0,0
217675,-83.3333333333333,4,2,2,60,0,0
217838,-90.9090909090908,4,2,2,60,0,0
219488,-76.9230769230769,4,2,2,60,0,0
220238,-71.4285714285714,4,2,1,70,0,0
222038,-125,4,2,1,70,0,0
222638,-71.4285714285714,4,2,1,80,0,1
231788,-125,4,2,1,80,0,0
232238,-71.4285714285714,4,2,1,80,0,1
250988,-125,4,2,1,80,0,0
251438,-71.4285714285714,4,2,1,80,0,1
260438,-100,4,2,1,60,0,0
262088,-100,4,2,1,40,0,0

[Colours]
Combo1 : 145,175,240
Combo2 : 216,180,171
Combo3 : 205,180,220
Combo4 : 188,182,228

[HitObjects]
17,127,5438,6,0,P|68:144|131:104,1,125.999996154785,6|0,1:2|0:2,0:2:0:0:
177,43,5888,1,2,0:2:0:0:
249,83,6038,2,0,L|274:209,1,125.999996154785,8|0,0:2|0:2,0:2:0:0:
341,253,6488,1,0,1:2:0:0:
305,325,6638,2,0,P|269:335|221:346,2,83.9999974365235,2|2|2,0:2|0:2|0:2,0:2:0:0:
398,366,7238,2,0,P|438:355|483:348,2,83.9999974365235,10|2|2,0:2|3:2|3:2,0:2:0:0:
419,273,7838,6,0,P|380:224|395:165,2,125.999996154785,0|0|8,1:2|0:2|0:2,0:2:0:0:
506,100,8738,2,0,P|478:93|440:81,1,62.9999980773926,2|0,0:2|1:2,0:0:0:0:
372,38,9038,2,0,B|302:49|320:71|255:84,1,125.999996154785,2|2,0:2|1:2,0:2:0:0:
82,171,9638,1,10,0:2:0:0:
6,135,9788,2,0,P|40:84|102:80,1,125.999996154785,0|2,1:2|0:2,0:2:0:0:
187,125,10238,5,0,1:2:0:0:
187,125,10538,2,0,P|182:156|176:187,1,62.9999980773926,2|0,0:2|0:0,0:2:0:0:
116,247,10838,1,10,0:2:0:0:
172,305,10988,2,0,P|203:309|233:316,1,62.9999980773926,2|0,0:2|0:2,0:2:0:0:
307,362,11288,2,0,P|367:355|398:303,1,125.999996154785,2|0,0:2|0:2,0:0:0:0:
478,261,11738,2,0,P|471:230|466:199,1,62.9999980773926,2|0,1:2|0:2,0:2:0:0:
451,112,12038,2,0,P|385:132|373:192,1,125.999996154785,10|2,0:2|3:2,0:2:0:0:
194,222,12638,6,0,B|123:209|143:186|78:173,1,125.999996154785,2|2,1:2|0:2,0:2:0:0:
11,220,13088,2,0,P|2:252|-1:287,1,62.9999980773926,2|8,0:2|0:2,0:2:0:0:
43,353,13388,2,0,P|73:362|104:364,1,62.9999980773926,2|0,0:2|0:2,0:2:0:0:
174,310,13688,1,2,0:2:0:0:
235,377,13838,1,0,1:2:0:0:
235,377,13988,1,2,3:2:0:0:
181,203,14288,5,6,1:3:0:0:
283,115,14588,1,6,1:3:0:0:
283,115,15038,6,0,P|274:70|260:12,2,94.499997116089,6|2|2,1:2|3:2|3:2,0:2:0:0:
359,145,15638,2,0,P|377:198|388:270,1,125.999996154785,10|0,0:2|0:2,0:2:0:0:
328,325,16088,1,0,1:2:0:0:
253,290,16238,2,0,P|240:249|235:196,2,83.9999974365235,2|2|2,0:2|0:2|0:2,0:2:0:0:
189,355,16838,2,0,P|147:364|108:377,2,83.9999974365235,10|2|2,0:2|3:2|3:2,0:2:0:0:
146,273,17438,6,0,B|134:207|108:220|101:156,2,125.999996154785,2|0|8,1:2|0:2|0:2,0:2:0:0:
0,193,18338,2,0,P|9:160|19:128,1,62.9999980773926,2|0,0:2|1:2,0:0:0:0:
72,59,18638,2,0,P|126:68|199:86,1,125.999996154785,2|2,0:2|1:2,0:2:0:0:
356,160,19238,1,10,0:2:0:0:
429,127,19388,2,0,P|451:70|420:18,1,125.999996154785,0|2,1:2|0:2,0:2:0:0:
345,71,19838,5,0,1:2:0:0:
345,71,20138,2,0,P|319:75|274:83,1,62.9999980773926,2|0,3:2|3:2,0:0:0:0:
236,146,20438,1,10,0:2:0:0:
158,119,20588,2,0,P|149:88|143:57,1,62.9999980773926,2|0,0:2|0:2,0:2:0:0:
68,105,20888,2,0,P|19:141|18:201,1,125.999996154785,2|0,1:2|0:2,0:2:0:0:
50,280,21338,2,0,P|84:287|124:296,1,62.9999980773926,2|0,1:2|0:2,0:2:0:0:
179,247,21638,1,10,0:2:0:0:
248,299,21788,2,0,P|310:310|357:270,1,125.999996154785,2|0,1:2|0:2,0:2:0:0:
388,184,22238,6,0,P|378:133|371:89,2,83.9999974365235,2|2|2,1:2|0:2|0:2,0:2:0:0:
295,202,22838,2,0,P|288:160|278:119,2,83.9999974365235,10|2|2,0:2|3:2|3:2,0:2:0:0:
355,272,23438,1,2,1:2:0:0:
428,303,23588,2,0,P|463:295|488:287,1,62.9999980773926,2|2,0:2|1:2,0:0:0:0:
261,281,24038,1,10,0:2:0:0:
212,342,24188,2,0,P|181:348|149:355,2,62.9999980773926,2|0|0,1:2|3:2|3:2,0:2:0:0:
0,170,25838,6,0,P|11:213|26:283,2,107.999996704102,0|0|0,1:2|0:2|0:2,0:2:0:0:
49,90,26638,1,0,3:2:0:0:
47,84,26738,2,0,P|80:75|110:65,1,53.9999983520508,0|0,3:2|3:2,0:2:0:0:
155,14,27038,2,0,B|207:21|199:33|260:45,1,107.999996704102,10|0,0:2|3:2,0:2:0:0:
326,91,27488,1,0,3:2:0:0:
326,91,27638,2,0,P|377:84|435:71,1,107.999996704102,2|0,3:2|0:2,0:2:0:0:
461,240,28238,6,0,P|411:246|354:259,2,107.999996704102,0|0|0,1:2|0:2|0:2,0:2:0:0:
508,169,29038,1,0,3:2:0:0:
512,165,29138,2,0,P|505:142|502:110,1,53.9999983520508,0|0,3:2|3:2,0:2:0:0:
438,66,29438,2,0,P|385:57|341:93,1,107.999996704102,10|0,0:2|3:2,0:2:0:0:
284,146,29888,1,0,3:2:0:0:
284,146,30038,2,0,P|229:135|168:126,1,107.999996704102,2|0,3:2|0:0,0:2:0:0:
89,13,30638,6,0,P|75:66|62:127,1,107.999996704102,0|0,1:2|0:2,0:2:0:0:
0,163,31088,1,0,3:2:0:0:
44,233,31238,2,0,P|95:249|150:258,1,107.999996704102,2|0,3:2|3:2,3:2:0:0:
222,214,31688,1,0,3:2:0:0:
271,280,31838,2,0,P|264:305|259:337,2,53.9999983520508,10|0|0,0:2|3:2|3:2,0:0:0:0:
142,170,32438,1,2,3:2:0:0:
142,170,32588,1,0,3:2:0:0:
229,18,32938,5,0,3:2:0:0:
235,17,33038,2,0,L|295:27,1,53.9999983520508,2|0,1:2|0:0,0:2:0:0:
348,81,33338,2,0,P|380:73|410:64,1,53.9999983520508,0|0,3:2|3:2,0:2:0:0:
471,103,33638,2,0,L|491:194,2,80.9999975280763,2|0|0,3:2|3:2|3:2,0:0:0:0:
399,172,34238,2,0,B|361:163|361:163|326:195,1,71.9999978027344,10|0,0:2|0:0,0:2:0:0:
321,199,34538,2,0,L|335:266,1,53.9999983520508,0|0,3:2|3:2,0:2:0:0:
290,329,34838,2,0,P|229:344|174:362,1,107.999996704102,2|2,1:2|3:2,0:2:0:0:
16,308,35438,6,0,P|-14:265|0:215,2,107.999996704102,0|0|0,1:2|0:2|0:0,0:0:0:0:
110,243,36238,1,0,3:2:0:0:
109,236,36338,2,0,P|137:227|166:223,1,53.9999983520508,0|0,3:2|3:2,0:2:0:0:
212,158,36638,2,0,P|266:165|326:179,1,107.999996704102,10|0,0:2|3:2,0:0:0:0:
443,262,37238,2,0,P|476:221|467:170,1,107.999996704102,2|0,3:2|0:0,0:2:0:0:
402,56,37838,6,0,P|462:46|516:28,2,107.999996704102,2|0|0,1:2|0:2|0:2,0:2:0:0:
326,108,38638,1,0,3:2:0:0:
325,116,38738,2,0,P|298:109|259:103,1,53.9999983520508,0|0,3:2|3:2,0:2:0:0:
194,117,39038,2,0,P|159:156|169:207,1,107.999996704102,10|0,0:2|0:2,0:2:0:0:
281,317,39638,2,0,P|310:307|344:300,2,53.9999983520508,0|0|2,3:2|3:2|3:2,0:0:0:0:
72,384,40238,6,0,P|63:348|54:314,1,71.9999978027344,0|0,1:2|3:2,0:0:0:0:
16,288,40538,2,0,P|22:253|30:224,1,53.9999983520508,0|0,3:2|0:0,0:2:0:0:
85,175,40838,2,0,L|70:100,1,71.9999978027344,2|0,3:2|3:2,0:0:0:0:
160,34,41288,1,0,3:0:0:0:
160,34,41438,2,0,P|223:19|284:12,1,125.999996154785,8|0,0:2|3:2,0:0:0:0:
362,30,41938,2,0,P|375:73|384:117,1,89.9999972534181,0|0,3:2|0:2,0:2:0:0:
352,184,42338,1,0,3:2:0:0:
501,269,42638,6,0,P|526:223|513:172,1,107.999996704102,2|0,1:2|0:2,0:2:0:0:
440,212,43088,2,0,B|354:224|377:258|289:272,1,161.999995056153,0|0,0:0|1:2,0:0:0:0:
226,235,43688,1,0,3:2:0:0:
174,295,43838,2,0,P|142:250|154:199,1,107.999996704102,2|0,1:2|0:2,0:2:0:0:
209,147,44288,1,2,3:2:0:0:
167,82,44438,2,0,P|118:73|71:57,1,99.0000030212403,8|0,0:2|0:0,0:2:0:0:
2,275,45038,6,0,P|55:285|105:303,1,107.999996704102,0|2,1:2|0:2,0:0:0:0:
221,368,45638,2,0,P|256:361|290:351,1,71.9999978027344,10|0,0:2|0:2,0:2:0:0:
319,319,45938,2,0,P|353:327|389:333,1,71.9999978027344,2|2,0:2|0:2,0:0:0:0:
430,359,46238,5,0,1:2:0:0:
501,320,46388,2,0,P|520:244|468:187,1,161.999995056153,2|10,0:2|0:2,0:2:0:0:
307,80,47138,2,0,L|289:159,1,71.9999978027344,2|0,0:2|3:2,0:2:0:0:
309,192,47438,6,0,P|335:198|361:203,2,53.9999983520508,2|2|2,1:2|0:2|0:2,0:2:0:0:
126,126,48038,1,10,0:0:0:0:
47,202,48238,2,0,P|35:254|32:308,1,107.999996704102,0|0,3:0|0:0,0:0:0:0:
63,344,48638,2,0,L|133:358,1,71.9999978027344,2|0,1:2|0:2,0:2:0:0:
175,336,48938,1,2,1:2:0:0:
310,169,49238,2,0,P|316:204|320:240,1,71.9999978027344,10|0,0:2|0:2,0:2:0:0:
290,274,49538,2,0,B|275:307|275:307|293:337,1,71.9999978027344,2|2,0:2|0:2,0:0:0:0:
331,370,49838,6,0,P|380:357|443:346,1,107.999996704102,0|2,1:2|0:2,0:2:0:0:
512,188,50438,2,0,P|459:176|407:160,1,107.999996704102,10|2,0:2|0:2,0:2:0:0:
337,75,50938,1,2,0:2:0:0:
331,80,51038,2,0,L|345:0,2,80.9999975280763,2|2|2,1:2|0:2|0:2,0:2:0:0:
249,106,51638,2,0,P|196:99|152:128,1,107.999996704102,10|0,0:2|3:2,0:2:0:0:
35,118,52138,5,0,3:2:0:0:
27,118,52238,2,0,L|39:174,1,53.9999983520508,2|0,1:2|0:2,0:2:0:0:
106,220,52538,2,0,L|93:286,1,53.9999983520508,2|0,0:2|0:2,0:2:0:0:
25,342,52838,2,0,P|78:352|130:362,1,107.999996704102,10|2,0:2|0:2,0:2:0:0:
230,305,53338,1,2,0:2:0:0:
238,306,53438,2,0,L|250:250,2,53.9999983520508,2|2|2,1:2|0:2|1:2,0:2:0:0:
456,344,54038,2,0,P|403:345|367:304,1,107.999996704102,10|2,0:2|0:3,0:2:0:0:
368,307,54638,6,0,P|377:266|388:228,1,77.9999964294435,2|0,1:2|0:2,0:2:0:0:
433,198,54938,2,0,P|426:156|419:121,1,77.9999964294435,2|0,3:2|0:2,0:2:0:0:
449,76,55238,2,0,B|460:39|460:39|434:8,1,77.9999964294435,10|0,0:2|0:2,0:2:0:0:
383,0,55538,2,0,P|348:6|302:19,1,77.9999964294435,2|2,3:2|0:2,0:0:0:0:
279,58,55838,1,0,1:2:0:0:
208,20,55988,2,0,P|125:55|122:133,1,175.499991966248,2|10,0:2|0:2,0:2:0:0:
295,292,56738,2,0,P|303:259|306:234,1,58.4999973220826,2|0,3:2|0:2,0:2:0:0:
266,163,57038,6,0,P|235:156|208:152,2,58.4999973220826,2|2|2,1:2|0:2|3:2,0:2:0:0:
498,117,57638,1,10,0:2:0:0:
449,54,57788,2,0,P|405:88|405:145,1,116.999994644165,2|2,0:2|0:2,0:2:0:0:
462,206,58238,2,0,P|500:247|493:303,2,116.999994644165,2|2|8,1:2|1:2|0:2,0:2:0:0:
362,341,59138,2,0,L|295:326,1,58.4999973220826,0|0,3:2|3:2,0:2:0:0:
230,292,59438,6,0,P|199:297|171:306,1,58.4999973220826,2|0,1:2|0:2,0:2:0:0:
110,361,59738,2,0,P|74:311|90:256,1,116.999994644165,2|8,3:2|0:2,0:2:0:0:
11,177,60238,1,2,0:2:0:0:
3,179,60338,2,0,L|24:101,1,58.4999973220826,2|0,3:2|0:0,0:2:0:0:
82,67,60638,2,0,L|141:82,1,58.4999973220826,2|0,1:2|0:2,0:2:0:0:
210,124,60938,2,0,B|283:109|263:90|324:82,1,116.999994644165,2|8,3:2|0:2,0:2:0:0:
491,177,61538,2,0,B|519:147|519:147|512:110,1,77.9999964294435,0|0,0:0|0:2,0:0:0:0:
479,68,61838,6,0,P|454:62|431:54,3,49.5000015106202,2|0|0|0,1:2|0:2|0:2|0:2,0:2:0:0:
375,117,62438,2,0,P|350:122|327:130,3,49.5000015106202,2|0|0|0,1:2|0:2|0:2|0:2,0:2:0:0:
267,70,63038,2,0,P|227:61|161:40,1,107.999996704102,2|8,1:2|0:2,0:2:0:0:
163,40,64238,6,0,L|141:121,1,83.9999974365235,4|2,1:1|3:2,0:2:0:0:
29,158,64638,1,2,3:2:0:0:
82,269,64838,2,0,P|147:286|207:306,1,125.999996154785,10|0,0:2|0:2,0:2:0:0:
266,356,65288,1,0,1:2:0:0:
341,319,65438,2,0,P|349:277|361:237,2,83.9999974365235,2|2|2,0:2|0:2|0:2,0:2:0:0:
455,269,66038,2,0,P|443:308|434:349,2,83.9999974365235,10|2|2,0:2|3:2|3:2,0:2:0:0:
512,162,66638,6,0,P|451:170|407:127,2,125.999996154785,2|0|8,1:2|0:2|0:2,0:2:0:0:
300,152,67538,2,0,L|286:219,1,62.9999980773926,2|0,0:2|1:2,0:2:0:0:
322,298,67838,2,0,B|386:304|372:326|441:335,1,125.999996154785,2|2,0:2|1:2,0:2:0:0:
218,360,68438,1,10,0:2:0:0:
145,320,68588,2,0,B|83:336|101:356|34:376,1,125.999996154785,0|0,1:2|0:2,0:2:0:0:
20,281,69038,6,0,P|10:240|-8:194,2,83.9999974365235,2|2|2,1:2|0:2|0:2,0:2:0:0:
121,199,69638,1,10,0:2:0:0:
218,257,69838,2,0,P|268:243|318:228,1,104.999996795654,2|2,0:2|0:2,0:2:0:0:
403,256,70238,2,0,P|413:285|420:316,2,62.9999980773926,2|2|0,3:2|0:2|1:2,0:0:0:0:
457,182,70688,2,0,P|448:151|440:120,1,62.9999980773926,2|8,0:2|0:2,0:2:0:0:
473,39,70988,2,0,P|412:30|365:70,1,125.999996154785,2|0,0:2|0:2,0:2:0:0:
312,134,71438,5,2,1:2:0:0:
242,79,71588,2,0,P|177:69|116:52,1,125.999996154785,2|2,0:2|0:2,0:2:0:0:
41,86,72038,1,8,0:2:0:0:
100,147,72188,2,0,P|82:207|66:268,1,125.999996154785,2|2,0:2|0:2,0:2:0:0:
0,319,72638,1,2,1:2:0:0:
0,319,72788,1,2,0:2:0:0:
247,372,73088,5,6,1:3:0:0:
198,229,73388,1,6,1:3:0:0:
198,229,73838,6,0,P|242:239|288:252,2,83.9999974365235,4|2|2,1:1|3:2|3:2,0:2:0:0:
130,170,74438,2,0,P|118:110|159:66,1,125.999996154785,10|0,0:2|0:2,0:2:0:0:
223,13,74888,1,0,1:2:0:0:
296,62,75038,2,0,P|342:52|387:39,1,94.499997116089,2|0,0:2|3:2,0:2:0:0:
387,39,75338,2,0,P|416:43|457:53,1,62.9999980773926,2|2,1:2|3:2,0:0:0:0:
509,113,75638,1,10,0:2:0:0:
438,155,75788,2,0,P|421:215|411:277,1,125.999996154785,2|2,3:2|0:2,0:2:0:0:
447,352,76238,6,0,P|398:314|338:327,2,125.999996154785,2|0|8,1:2|0:2|0:2,0:2:0:0:
313,191,77138,2,0,P|318:160|326:129,1,62.9999980773926,2|0,0:2|1:2,0:0:0:0:
268,60,77438,2,0,B|196:68|224:90|151:105,1,125.999996154785,2|2,0:2|1:2,0:2:0:0:
20,239,78038,1,10,0:2:0:0:
0,160,78188,2,0,P|60:154|102:197,1,125.999996154785,0|0,1:2|0:2,0:2:0:0:
95,291,78638,5,2,1:2:0:0:
95,291,78938,2,0,P|103:324|110:361,1,62.9999980773926,2|0,0:2|0:0,0:2:0:0:
193,367,79238,1,10,0:2:0:0:
266,325,79388,2,0,P|261:289|253:260,1,62.9999980773926,2|0,0:2|0:2,0:2:0:0:
171,212,79688,2,0,B|170:145|198:151|202:88,1,125.999996154785,2|0,1:2|0:2,0:2:0:0:
148,30,80138,2,0,P|121:34|81:47,1,62.9999980773926,2|0,1:2|0:2,0:2:0:0:
12,8,80438,2,0,P|-10:64|22:114,1,125.999996154785,10|2,0:2|3:2,0:2:0:0:
256,191,81038,6,0,P|295:177|336:167,1,83.9999974365235,2|2,1:2|3:2,0:2:0:0:
401,57,81438,1,2,3:2:0:0:
494,139,81638,2,0,P|514:199|521:268,1,125.999996154785,10|0,0:2|0:2,0:2:0:0:
475,337,82088,1,0,1:2:0:0:
407,305,82238,2,0,P|366:314|310:327,1,94.499997116089,2|0,3:2|0:2,0:2:0:0:
314,325,82538,2,0,P|283:319|252:315,1,62.9999980773926,2|0,1:2|0:2,0:2:0:0:
169,348,82838,2,0,P|113:319|106:251,1,125.999996154785,10|2,0:2|0:2,0:2:0:0:
158,194,83288,1,2,0:2:0:0:
82,141,83438,5,4,1:1:0:0:
82,141,83738,2,0,P|75:106|70:70,1,62.9999980773926,2|0,0:2|0:2,0:2:0:0:
115,12,84038,1,10,0:2:0:0:
189,38,84188,2,0,B|265:30|244:12|310:6,1,125.999996154785,2|0,0:2|1:2,0:2:0:0:
391,35,84638,1,2,3:2:0:0:
391,35,84788,1,2,0:2:0:0:
345,110,84938,2,0,P|349:132|358:174,1,62.9999980773926,2|0,1:2|0:2,0:2:0:0:
428,220,85238,2,0,P|487:209|512:154,1,125.999996154785,10|2,0:2|3:2,0:2:0:0:
393,303,85838,6,0,P|361:308|331:315,1,62.9999980773926,2|0,1:2|0:2,0:2:0:0:
254,357,86138,2,0,P|224:348|187:339,1,62.9999980773926,2|0,0:2|0:2,0:2:0:0:
145,271,86438,2,0,P|151:242|159:208,1,62.9999980773926,10|0,0:2|0:2,0:2:0:0:
225,149,86738,2,0,P|218:110|212:76,1,62.9999980773926,2|0,0:2|1:2,0:2:0:0:
132,38,87038,2,0,B|65:42|86:65|13:78,1,125.999996154785,2|0,3:2|1:2,0:2:0:0:
213,86,87638,2,0,P|253:77|289:70,1,62.9999980773926,10|0,0:2|1:2,0:2:0:0:
335,10,87938,2,0,L|392:22,1,41.9999987182618,2|2,0:2|0:0,0:0:0:0:
452,92,88238,6,0,P|440:138|433:184,2,94.499997116089,2|2|2,1:2|3:2|3:2,0:2:0:0:
357,96,88838,2,0,P|346:125|339:177,1,83.9999974365235,8|0,0:2|0:0,0:0:0:0:
298,195,89138,2,0,P|266:191|236:182,1,62.9999980773926,2|0,0:2|0:2,0:2:0:0:
153,163,89438,2,0,P|96:186|83:245,1,125.999996154785,2|0,3:2|1:2,0:2:0:0:
220,362,90038,1,8,0:2:0:0:
220,362,90338,2,0,L|297:344,1,62.9999980773926,2|0,0:2|0:2,0:2:0:0:
366,371,90638,6,0,P|410:329|397:263,1,125.999996154785,2|2,1:2|0:2,0:2:0:0:
315,140,91238,2,0,P|323:106|327:78,1,62.9999980773926,10|0,0:2|0:2,0:2:0:0:
401,34,91538,2,0,P|433:39|462:45,1,62.9999980773926,2|0,3:2|3:2,0:0:0:0:
431,122,91838,1,2,1:2:0:0:
255,16,92288,5,6,1:3:0:0:
151,120,92588,1,6,1:3:0:0:
151,120,93038,6,0,P|144:73|134:24,2,94.499997116089,4|2|2,1:1|3:2|3:2,0:2:0:0:
218,180,93638,2,0,P|257:226|244:286,1,125.999996154785,10|0,0:2|0:2,0:2:0:0:
187,348,94088,1,0,1:2:0:0:
106,346,94238,2,0,P|98:303|84:265,2,83.9999974365235,2|2|2,0:2|0:2|0:2,0:2:0:0:
22,375,94838,2,0,P|8:333|-3:276,2,83.9999974365235,10|2|2,0:2|3:2|3:2,0:2:0:0:
106,346,95438,6,0,P|162:322|219:344,2,125.999996154785,2|0|8,1:2|0:2|0:2,0:2:0:0:
298,245,96338,2,0,L|310:183,1,62.9999980773926,2|0,0:2|1:2,0:0:0:0:
273,106,96638,2,0,P|211:92|150:77,1,125.999996154785,2|2,0:2|1:2,0:2:0:0:
0,174,97238,1,10,0:2:0:0:
36,253,97388,2,0,P|93:234|110:176,1,125.999996154785,0|0,1:2|0:2,0:2:0:0:
52,92,97838,5,0,1:2:0:0:
52,92,98138,2,0,L|74:27,1,62.9999980773926,2|0,0:2|0:2,0:2:0:0:
147,0,98438,1,10,0:2:0:0:
195,68,98588,2,0,P|229:76|257:85,1,62.9999980773926,2|0,0:2|0:2,0:2:0:0:
309,147,98888,2,0,B|377:134|354:107|420:91,1,125.999996154785,2|0,1:2|0:2,0:2:0:0:
497,118,99338,2,0,L|513:179,1,62.9999980773926,2|0,1:2|0:2,0:2:0:0:
491,266,99638,2,0,P|432:281|383:245,1,125.999996154785,10|2,0:2|3:2,0:2:0:0:
214,126,100238,6,0,P|172:133|132:145,2,83.9999974365235,2|2|2,1:2|3:2|3:2,0:2:0:0:
263,52,100838,2,0,P|307:93|303:154,1,125.999996154785,10|0,0:2|0:2,0:2:0:0:
320,240,101288,1,2,1:2:0:0:
234,233,101438,2,0,P|167:246|110:266,1,125.999996154785,2|0,0:2|1:2,0:0:0:0:
0,123,102038,1,8,0:2:0:0:
64,71,102188,2,0,P|126:78|187:92,1,125.999996154785,0|0,1:2|0:2,0:2:0:0:
258,48,102638,5,2,0:2:0:0:
20,273,105038,6,0,P|12:225|-2:170,2,99.0000030212403,0|0|0,1:2|0:2|0:2,0:2:0:0:
94,324,105788,1,0,3:2:0:0:
94,324,105938,2,0,P|119:317|143:313,1,49.5000015106202,0|0,3:2|3:2,0:2:0:0:
206,261,106238,2,0,P|254:269|302:281,1,99.0000030212403,10|0,0:2|0:2,0:2:0:0:
375,332,106688,1,0,3:2:0:0:
375,332,106838,2,0,P|370:358|365:386,2,49.5000015106202,2|0|0,3:2|3:2|3:2,0:0:0:0:
495,212,107438,6,0,P|505:165|513:109,2,99.0000030212403,0|0|0,1:2|0:2|0:2,0:2:0:0:
346,168,108338,2,0,P|351:141|356:118,1,49.5000015106202,0|0,3:2|0:2,0:2:0:0:
300,56,108638,2,0,P|254:49|203:37,1,99.0000030212403,10|0,0:2|0:2,0:2:0:0:
134,87,109088,1,0,3:2:0:0:
134,87,109238,2,0,P|111:91|77:102,2,49.5000015106202,2|0|0,3:2|3:2|3:2,0:0:0:0:
175,222,109838,5,0,1:2:0:0:
175,222,110138,2,0,P|151:229|122:238,1,49.5000015106202,0|0,3:2|3:2,0:2:0:0:
84,307,110438,2,0,P|91:330|98:354,1,49.5000015106202,2|0,3:2|3:2,0:2:0:0:
178,380,110738,2,0,P|224:364|273:353,1,99.0000030212403,2|8,3:2|0:2,0:2:0:0:
333,297,111188,2,0,P|381:304|428:321,1,99.0000030212403,0|0,3:2|0:2,0:2:0:0:
504,280,111638,2,0,P|507:248|519:222,2,49.5000015106202,2|0|0,3:2|3:2|3:2,0:0:0:0:
402,169,112238,5,0,1:2:0:0:
402,169,112538,2,0,P|408:145|413:120,1,49.5000015106202,0|0,3:2|0:2,0:2:0:0:
367,53,112838,2,0,P|319:39|270:33,1,99.0000030212403,2|0,3:2|3:2,0:2:0:0:
195,71,113288,1,0,3:2:0:0:
195,70,113438,2,0,P|187:93|182:117,1,49.5000015106202,10|0,0:2|0:2,0:2:0:0:
113,163,113738,2,0,P|118:187|125:210,1,49.5000015106202,0|0,3:2|3:2,0:0:0:0:
109,303,114038,2,0,P|66:342|8:336,1,120,2|0,1:2|3:2,0:2:0:0:
0,249,114638,6,0,B|57:237|91:273|68:292|122:328|173:316,1,198.000006042481,2|0,1:2|0:2,0:2:0:0:
321,346,115538,2,0,P|325:321|332:297,1,49.5000015106202,0|0,3:2|0:2,0:2:0:0:
263,253,115838,2,0,P|253:204|240:156,1,99.0000030212403,10|0,0:2|3:2,0:2:0:0:
284,82,116288,1,0,3:2:0:0:
284,82,116438,2,0,P|347:73|422:48,1,134.999995880127,2|0,3:2|0:2,0:2:0:0:
459,71,117038,6,0,P|469:119|488:169,2,99.0000030212403,2|0|0,1:2|0:2|0:2,0:2:0:0:
371,162,117938,2,0,P|378:189|383:219,1,49.5000015106202,0|0,3:2|3:2,0:0:0:0:
337,282,118238,2,0,P|292:288|241:306,1,99.0000030212403,10|0,0:2|3:2,0:0:0:0:
119,221,118838,2,0,P|70:210|23:196,1,99.0000030212403,2|0,3:2|3:2,0:2:0:0:
84,41,119438,5,0,1:2:0:0:
84,41,119738,2,0,P|115:49|145:58,1,49.5000015106202,0|0,3:2|3:2,0:0:0:0:
179,133,120038,2,0,P|226:142|291:161,1,99.0000030212403,2|0,3:2|3:2,0:2:0:0:
354,120,120488,1,0,3:2:0:0:
354,120,120638,2,0,P|362:88|370:56,1,66.0000020141602,10|0,0:2|3:2,0:2:0:0:
464,133,121088,1,0,3:2:0:0:
464,133,121238,2,0,P|470:107|477:82,2,49.5000015106202,2|0|0,3:2|3:2|3:2,0:0:0:0:
467,268,121838,5,0,1:2:0:0:
467,268,122138,2,0,L|419:255,1,49.5000015106202,0|0,3:2|0:2,0:2:0:0:
344,274,122438,2,0,L|331:330,1,49.5000015106202,2|0,3:2|3:2,0:0:0:0:
259,359,122738,2,0,L|210:348,1,49.5000015106202,0|0,3:2|0:2,0:2:0:0:
166,276,123038,2,0,L|178:223,2,49.5000015106202,2|0|0,1:2|3:2|3:2,0:0:0:0:
22,165,123638,2,0,L|3:264,1,99.0000030212403,10|0,0:2|0:2,0:2:0:0:
135,378,124238,6,0,P|187:367|241:363,1,107.999996704102,6|2,1:2|0:2,0:0:0:0:
365,298,124838,2,0,P|399:306|434:315,1,71.9999978027344,8|0,0:2|0:2,0:2:0:0:
478,300,125138,2,0,P|486:265|495:230,1,71.9999978027344,2|2,0:2|0:2,0:0:0:0:
467,187,125438,2,0,P|439:180|413:176,1,53.9999983520508,0|2,1:2|0:2,0:0:0:0:
311,33,126038,2,0,P|306:48|302:71,5,35.9999989013672,10|0|0|2|0|0,0:2|3:2|3:2|3:2|3:2|3:2,0:2:0:0:
267,97,126638,6,0,P|214:102|171:71,1,107.999996704102,2|2,1:2|0:2,0:0:0:0:
7,137,127238,2,0,P|65:152|118:171,1,107.999996704102,10|2,0:2|0:2,0:2:0:0:
171,247,127738,1,2,0:2:0:0:
165,242,127838,2,0,P|155:277|148:321,1,71.9999978027344,0|0,1:2|0:2,0:2:0:0:
176,344,128138,1,2,1:2:0:0:
342,334,128438,2,0,P|348:307|354:281,1,53.9999983520508,10|0,0:2|0:2,0:2:0:0:
341,230,128738,2,0,P|305:222|270:214,1,71.9999978027344,2|0,0:2|0:2,0:2:0:0:
233,178,129038,6,0,P|216:128|245:84,1,107.999996704102,6|2,1:2|0:2,0:2:0:0:
396,7,129638,2,0,P|431:14|466:20,1,71.9999978027344,10|0,0:2|0:2,0:2:0:0:
494,62,129938,2,0,P|484:96|480:132,1,71.9999978027344,2|0,0:2|0:2,0:2:0:0:
444,160,130238,1,2,1:2:0:0:
512,341,130688,1,2,0:2:0:0:
512,341,130838,2,0,P|475:332|441:326,1,71.9999978027344,10|0,0:2|0:2,0:2:0:0:
405,285,131138,2,0,P|369:288|334:297,1,71.9999978027344,2|0,3:2|0:2,0:2:0:0:
300,333,131438,5,2,1:2:0:0:
216,321,131588,2,0,P|181:270|207:209,1,125.999996154785,2|0,0:2|0:2,0:2:0:0:
235,178,132038,2,0,P|229:124|218:71,1,107.999996704102,10|2,0:2|0:2,0:2:0:0:
120,85,132538,2,0,P|122:103|126:129,1,35.9999989013672,2|0,0:2|1:2,0:0:0:0:
328,112,132938,2,0,P|339:60|314:13,2,107.999996704102,2|8|2,1:2|0:2|1:2,0:2:0:0:
373,258,133838,6,0,P|421:288|477:276,1,116.999994644165,2|2,1:2|3:2,0:2:0:0:
347,366,134438,2,0,P|312:370|267:383,1,77.9999964294435,10|0,0:2|0:2,0:2:0:0:
213,365,134738,2,0,P|202:327|195:289,1,77.9999964294435,2|2,3:2|0:2,0:0:0:0:
231,250,135038,1,0,1:2:0:0:
178,185,135188,2,0,P|112:176|68:225,1,136.499993751526,2|0,0:2|0:2,0:2:0:0:
28,265,135638,6,0,P|14:208|0:151,1,116.999994644165,10|2,0:2|3:2,0:2:0:0:
37,61,136138,1,2,0:2:0:0:
42,69,136238,2,0,P|80:59|120:50,1,77.9999964294435,2|0,1:2|0:2,0:2:0:0:
151,14,136538,2,0,L|215:22,1,58.4999973220826,2|0,3:2|0:2,0:2:0:0:
265,85,136838,1,10,0:2:0:0:
209,145,136988,2,0,P|193:201|190:259,1,116.999994644165,2|2,0:2|0:2,0:2:0:0:
145,330,137438,2,0,P|197:351|249:327,1,116.999994644165,2|2,1:2|1:2,0:2:0:0:
372,230,138038,2,0,P|410:236|447:247,1,77.9999964294435,8|0,0:2|3:2,0:0:0:0:
488,230,138338,2,0,P|490:200|498:172,1,58.4999973220826,2|0,3:2|0:0,0:2:0:0:
484,95,138638,6,0,P|456:89|423:79,1,58.4999973220826,2|0,1:2|0:2,0:2:0:0:
357,120,138938,2,0,B|299:129|313:148|249:163,1,116.999994644165,2|8,3:2|0:2,0:2:0:0:
170,128,139438,1,2,0:2:0:0:
166,132,139538,2,0,P|159:97|146:49,1,77.9999964294435,2|0,3:2|0:2,0:2:0:0:
99,36,139838,2,0,P|71:43|39:50,1,58.4999973220826,2|2,1:2|0:2,0:2:0:0:
0,119,140138,2,0,P|14:175|25:233,1,116.999994644165,2|8,3:2|0:2,0:2:0:0:
140,348,140738,2,0,P|168:340|197:335,1,58.4999973220826,2|0,3:2|0:2,0:2:0:0:
257,268,141038,6,0,L|239:197,1,72,2|0,1:2|3:2,0:2:0:0:
289,130,141488,1,0,3:2:0:0:
368,158,141638,2,0,L|384:210,3,53.9999983520508,2|0|0|0,1:2|3:2|3:2|3:2,0:2:0:0:
456,251,142238,2,0,P|394:246|351:289,1,125.999996154785,2|8,1:2|0:2,0:2:0:0:
351,289,143438,6,0,P|311:275|270:267,1,83.9999974365235,4|2,1:1|3:2,0:2:0:0:
160,348,143838,1,2,3:2:0:0:
65,256,144038,2,0,P|48:193|90:145,1,125.999996154785,10|0,0:2|0:2,0:2:0:0:
111,75,144488,1,0,1:2:0:0:
173,121,144638,2,0,P|213:132|254:142,2,83.9999974365235,2|2|2,0:2|0:2|0:2,0:2:0:0:
269,53,145238,2,0,P|227:44|185:33,2,83.9999974365235,10|2|2,0:2|3:2|3:2,0:2:0:0:
353,116,145838,6,0,B|418:127|402:155|469:174,2,125.999996154785,2|0|8,1:2|0:2|0:2,0:2:0:0:
182,200,146738,2,0,P|175:230|168:261,1,62.9999980773926,2|0,0:2|1:2,0:2:0:0:
214,335,147038,2,0,P|292:353|341:368,1,125.999996154785,2|0,0:2|1:2,0:2:0:0:
500,302,147638,1,10,0:2:0:0:
448,239,147788,2,0,P|458:178|475:115,1,125.999996154785,0|2,1:2|0:2,0:2:0:0:
417,45,148238,5,0,1:2:0:0:
417,45,148538,2,0,P|391:39|346:28,1,62.9999980773926,2|0,0:2|0:2,0:2:0:0:
284,74,148838,1,10,0:2:0:0:
203,44,148988,2,0,P|193:72|186:108,1,62.9999980773926,2|0,0:2|0:2,0:2:0:0:
220,182,149288,2,0,P|280:204|346:215,1,125.999996154785,2|0,3:2|0:2,0:2:0:0:
341,302,149738,2,0,P|306:307|269:318,1,62.9999980773926,2|0,1:2|0:2,0:2:0:0:
203,279,150038,2,0,B|141:293|158:316|92:334,1,125.999996154785,10|2,0:2|3:2,0:2:0:0:
5,144,150638,6,0,P|18:104|27:63,1,83.9999974365235,2|2,1:2|3:2,0:2:0:0:
147,104,151088,2,0,P|137:133|130:168,1,62.9999980773926,2|8,3:2|0:2,0:0:0:0:
162,240,151388,2,0,P|215:269|273:250,1,125.999996154785,2|2,0:2|0:2,0:2:0:0:
326,184,151838,1,2,1:2:0:0:
326,184,151988,1,2,3:2:0:0:
336,373,152288,5,6,1:3:0:0:
476,328,152588,1,6,1:3:0:0:
476,328,153038,6,0,P|487:283|498:236,2,83.9999974365235,4|2|2,1:1|3:2|3:2,0:2:0:0:
397,367,153638,2,0,B|330:358|348:335|277:328,1,125.999996154785,10|0,0:2|0:2,0:2:0:0:
214,272,154088,1,0,1:2:0:0:
160,338,154238,2,0,P|119:349|79:363,2,83.9999974365235,2|2|2,0:2|0:2|0:2,0:2:0:0:
47,278,154838,2,0,P|91:264|134:251,2,83.9999974365235,10|2|2,0:2|3:2|3:2,0:2:0:0:
61,175,155438,6,0,P|39:118|70:66,2,125.999996154785,2|0|8,1:2|0:2|0:2,0:2:0:0:
233,273,156338,2,0,P|245:243|252:213,1,62.9999980773926,2|0,0:2|1:2,0:2:0:0:
201,149,156638,2,0,P|263:165|325:175,1,125.999996154785,2|2,0:2|1:2,0:2:0:0:
512,126,157238,1,10,0:2:0:0:
488,51,157388,2,0,P|434:80|423:140,1,125.999996154785,0|0,1:2|0:2,0:2:0:0:
481,210,157838,5,2,1:2:0:0:
481,210,158138,2,0,P|471:238|463:274,1,62.9999980773926,2|0,0:2|0:2,0:2:0:0:
392,312,158438,1,10,0:2:0:0:
334,259,158588,2,0,P|304:251|268:243,1,62.9999980773926,2|0,0:2|0:2,0:2:0:0:
209,185,158888,2,0,P|147:200|87:219,1,125.999996154785,2|0,1:2|0:2,0:2:0:0:
46,289,159338,2,0,P|53:317|62:355,1,62.9999980773926,2|0,1:2|0:2,0:2:0:0:
142,384,159638,2,0,B|212:372|191:350|258:341,1,125.999996154785,10|2,0:2|3:2,0:2:0:0:
463,382,160238,5,0,1:2:0:0:
463,382,160538,2,0,P|470:356|479:319,1,62.9999980773926,2|0,0:2|0:2,0:2:0:0:
449,240,160838,2,0,P|419:235|387:228,1,62.9999980773926,10|0,0:2|3:2,0:0:0:0:
323,166,161138,2,0,P|292:174|262:184,1,62.9999980773926,2|0,3:2|1:2,0:2:0:0:
188,237,161438,2,0,P|156:231|108:214,1,83.9999974365235,8|6,0:3|0:3,0:0:0:0:
96,168,161738,1,4,0:3:0:0:
17,197,161888,2,0,P|10:226|1:260,1,62.9999980773926,4|12,3:3|0:3,0:0:0:0:
72,372,162238,1,4,0:3:0:0:
79,375,162338,2,0,P|88:344|97:313,1,62.9999980773926,12|4,0:3|0:3,0:0:0:0:
183,279,162638,5,4,1:1:0:0:
183,279,162938,2,0,P|213:284|244:293,1,62.9999980773926,2|0,0:2|0:2,0:2:0:0:
302,353,163238,1,10,0:2:0:0:
381,334,163388,2,0,P|420:287|413:226,1,125.999996154785,2|0,0:2|1:2,0:2:0:0:
354,158,163838,1,2,3:2:0:0:
354,158,163988,1,2,0:2:0:0:
276,192,164138,2,0,P|245:186|213:181,1,62.9999980773926,2|0,1:2|0:2,0:2:0:0:
150,121,164438,2,0,P|157:90|162:59,1,62.9999980773926,10|0,0:2|1:2,0:2:0:0:
234,0,164738,2,0,P|264:5|296:10,1,62.9999980773926,2|0,0:2|0:2,0:2:0:0:
365,63,165038,6,0,B|435:49|421:36|485:26,1,125.999996154785,2|2,1:2|0:2,0:2:0:0:
512,195,165638,2,0,P|481:187|450:180,1,62.9999980773926,10|0,0:2|0:2,0:2:0:0:
370,215,165938,2,0,P|361:245|356:276,1,62.9999980773926,2|0,0:2|1:2,0:2:0:0:
296,336,166238,2,0,P|237:352|185:319,1,125.999996154785,2|0,3:2|1:2,0:2:0:0:
60,187,166838,2,0,P|30:196|0:203,1,62.9999980773926,10|0,0:2|1:2,0:2:0:0:
24,286,167138,2,0,P|53:276|84:269,1,62.9999980773926,2|0,0:2|0:2,0:2:0:0:
156,204,167438,6,0,P|147:155|132:110,2,94.499997116089,6|2|2,1:2|3:2|3:2,0:2:0:0:
237,239,168038,2,0,P|268:232|305:224,1,62.9999980773926,10|2,0:2|0:2,0:0:0:0:
362,170,168338,1,2,0:2:0:0:
362,170,168488,1,2,0:2:0:0:
437,215,168638,2,0,L|462:307,1,94.499997116089,2|2,3:2|0:2,0:2:0:0:
461,306,168938,2,0,L|400:323,1,62.9999980773926,0|2,1:2|0:2,0:2:0:0:
325,378,169238,1,8,0:2:0:0:
325,378,169538,2,0,L|309:317,1,62.9999980773926,2|0,0:2|0:2,0:2:0:0:
236,276,169838,6,0,P|205:281|175:291,1,62.9999980773926,2|0,1:2|0:2,0:2:0:0:
109,346,170138,2,0,P|77:340|47:333,1,62.9999980773926,2|0,0:2|0:2,0:2:0:0:
0,257,170438,2,0,P|9:219|16:190,1,62.9999980773926,10|0,0:2|0:2,0:2:0:0:
85,136,170738,2,0,P|123:141|149:150,1,62.9999980773926,2|0,3:2|3:2,0:0:0:0:
100,229,171038,1,2,1:2:0:0:
124,20,171488,5,6,1:3:0:0:
0,87,171788,1,6,1:3:0:0:
0,87,172238,6,0,P|9:46|15:4,2,83.9999974365235,4|2|2,1:1|3:2|3:2,0:2:0:0:
50,162,172838,2,0,P|104:191|163:176,1,125.999996154785,10|0,0:2|0:2,0:2:0:0:
220,126,173288,1,0,1:2:0:0:
279,179,173438,2,0,P|286:220|291:262,2,83.9999974365235,2|2|2,0:2|0:2|0:2,0:2:0:0:
386,243,174038,2,0,P|378:201|373:159,2,83.9999974365235,10|2|2,0:2|3:2|3:2,0:2:0:0:
352,329,174638,6,0,B|417:320|411:341|477:332,2,125.999996154785,2|0|8,1:2|0:2|0:2,0:2:0:0:
229,212,175538,2,0,P|199:217|164:230,1,62.9999980773926,2|0,0:2|1:2,0:0:0:0:
101,284,175838,2,0,P|39:283|0:236,1,125.999996154785,2|2,0:2|1:2,0:2:0:0:
143,117,176438,1,10,0:2:0:0:
96,49,176588,2,0,P|36:62|8:116,1,125.999996154785,0|0,1:2|0:2,0:2:0:0:
80,185,177038,5,2,1:2:0:0:
80,185,177338,2,0,P|87:215|94:246,1,62.9999980773926,2|0,0:2|0:0,0:2:0:0:
40,308,177638,1,10,0:2:0:0:
109,361,177788,2,0,P|141:354|172:346,1,62.9999980773926,2|0,0:2|0:2,0:2:0:0:
240,300,178088,2,0,B|302:305|288:327|359:338,1,125.999996154785,2|0,1:2|0:2,0:2:0:0:
424,279,178538,2,0,P|453:270|497:261,1,62.9999980773926,2|0,1:2|0:2,0:2:0:0:
512,180,178838,2,0,P|507:119|458:82,1,125.999996154785,10|2,0:2|0:2,0:2:0:0:
262,33,179438,6,0,P|255:74|251:116,1,83.9999974365235,2|2,1:2|3:2,0:2:0:0:
333,208,179838,1,2,3:2:0:0:
228,275,180038,2,0,P|166:262|103:257,1,125.999996154785,10|0,0:2|0:2,0:2:0:0:
42,304,180488,1,2,1:2:0:0:
0,236,180638,2,0,P|9:195|15:153,2,83.9999974365235,2|2|2,0:2|0:2|0:2,0:2:0:0:
103,257,181238,2,0,P|111:196|124:132,1,121.499996292114,10|0,0:2|0:2,0:2:0:0:
70,64,181838,5,0,1:2:0:0:
70,64,182288,1,0,3:2:0:0:
130,13,182438,2,0,L|161:17,3,31.4999990386963,8|0|0|0,0:2|0:2|0:2|0:2,0:2:0:0:
228,75,183038,2,0,P|264:79|299:86,1,62.9999980773926,0|0,3:2|0:2,0:2:0:0:
445,27,183638,2,0,P|434:89|425:151,1,125.999996154785,8|0,0:2|0:2,0:2:0:0:
425,151,184688,5,0,3:2:0:0:
356,186,184838,2,0,L|317:179,3,31.4999990386963,8|0|0|0,0:2|0:2|0:2|0:2,0:2:0:0:
255,218,185438,2,0,P|249:249|243:283,1,62.9999980773926,0|0,3:2|0:2,0:2:0:0:
433,373,186038,1,8,0:2:0:0:
470,302,186188,2,0,P|461:255|452:209,1,94.4999971160889,0|0,3:2|1:2,0:2:0:0:
452,209,187088,5,0,3:2:0:0:
499,145,187238,2,0,L|490:107,3,31.4999990386963,8|0|0|0,0:2|0:2|0:2|0:2,0:2:0:0:
425,73,187838,2,0,L|364:89,1,62.9999980773926,0|0,3:2|0:2,0:2:0:0:
276,196,188438,2,0,P|225:185|147:173,1,125.999996154785,8|0,0:2|0:2,0:2:0:0:
152,173,189488,5,0,3:2:0:0:
98,112,189638,2,0,L|105:72,3,31.4999990386963,8|0|0|0,0:2|0:2|0:2|0:2,0:2:0:0:
171,33,190238,2,0,L|239:43,1,62.9999980773926,2|0,3:2|0:2,0:2:0:0:
57,200,190838,6,0,L|39:195,10,10.4999996795654,8|0|0|0|0|0|0|0|0|0|0,3:2|3:2|3:2|3:2|3:2|3:2|1:2|3:2|3:2|3:2|3:2,3:2:0:0:
45,186,191438,6,0,P|-10:248|15:328,1,175.499991966248,4|0,1:1|3:2,0:2:0:0:
92,367,192038,2,0,L|153:351,1,58.4999973220826,8|8,0:2|0:3,0:2:0:0:
202,288,192338,1,8,0:3:0:0:
202,288,192488,1,8,0:3:0:0:
281,313,192638,2,0,P|288:340|300:379,2,58.4999973220826,2|4|0,3:2|0:3|1:2,0:0:0:0:
324,237,193088,2,0,P|351:227|385:221,1,58.4999973220826,4|8,3:3|0:2,0:2:0:0:
460,265,193388,1,8,0:3:0:0:
460,265,193538,2,0,P|468:293|474:321,1,58.4999973220826,4|0,0:3|0:2,0:2:0:0:
380,221,193838,6,0,B|380:165|405:169|406:107,1,116.999994644165,2|8,1:3|3:3,0:2:0:0:
368,37,194288,1,8,0:3:0:0:
440,0,194438,2,0,P|465:4|500:13,2,58.4999973220826,8|4|0,0:2|0:3|0:0,0:0:0:0:
368,37,194888,1,4,0:3:0:0:
293,67,195038,2,0,P|235:58|178:43,1,116.999994644165,10|0,3:2|1:2,0:2:0:0:
0,173,195638,2,0,P|63:117|144:144,1,175.499991966248,8|0,0:2|0:0,0:2:0:0:
191,218,196238,5,0,1:3:0:0:
116,330,196438,2,0,B|81:296|81:296|95:249,1,97.4999955368044,4|0,3:3|0:0,0:0:0:0:
191,218,196838,2,0,P|229:224|266:235,1,77.9999964294435,8|4,0:2|3:3,0:2:0:0:
351,316,197238,1,4,3:3:0:0:
454,261,197438,2,0,P|469:204|479:146,1,116.999994644165,6|0,3:3|1:2,0:2:0:0:
428,83,197888,1,0,3:3:0:0:
428,83,198038,2,0,P|399:76|362:71,1,58.4999973220826,8|8,0:2|3:3,0:2:0:0:
297,108,198338,2,0,P|289:135|285:168,1,58.4999973220826,4|8,3:3|3:3,0:2:0:0:
226,225,198638,6,0,P|170:238|121:209,1,116.999994644165,0|4,1:3|3:3,0:2:0:0:
58,153,199088,2,0,P|29:160|0:174,2,58.4999973220826,4|8|0,0:3|0:2|3:2,0:0:0:0:
110,79,199538,1,4,0:3:0:0:
110,79,199688,1,4,0:3:0:0:
188,111,199838,2,0,P|244:96|300:78,1,116.999994644165,2|0,3:2|1:2,0:2:0:0:
339,7,200288,1,0,3:2:0:0:
412,32,200438,2,0,P|441:96|454:153,1,116.999994644165,8|8,0:2|0:3,0:2:0:0:
402,200,200888,1,4,0:3:0:0:
256,192,201638,12,8,202838,0:3:0:0:
42,64,213038,5,8,1:1:0:0:
42,64,213638,5,8,1:1:0:0:
87,127,213788,2,0,L|74:207,1,80.9999975280763,0|0,3:2|0:2,0:2:0:0:
13,256,214238,1,8,1:1:0:0:
56,323,214388,2,0,L|142:341,1,80.9999975280763,0|0,3:2|0:2,0:2:0:0:
210,306,214838,2,0,L|226:222,2,80.9999975280763,8|0|8,1:1|3:2|1:1,0:2:0:0:
460,349,216038,6,0,L|475:269,1,80.9999975280763,8|0,1:1|3:2,0:2:0:0:
401,113,216638,1,8,1:1:0:0:
329,142,216788,2,0,L|249:124,1,80.9999975280763,0|0,3:2|0:2,0:2:0:0:
170,145,217238,2,0,L|161:196,1,49.5000015106202,8|0,1:1|0:2,0:2:0:0:
92,240,217538,2,0,L|102:290,1,49.5000015106202,8|0,1:1|0:0,0:2:0:0:
174,335,217838,6,0,L|229:323,3,49.5000015106202,2|0|0|0,1:2|0:2|0:2|0:2,0:2:0:0:
300,363,218438,1,2,1:2:0:0:
358,305,218588,2,0,L|341:245,1,49.5000015106202,2|0,3:2|0:0,0:2:0:0:
398,186,218888,2,0,L|446:174,1,49.5000015106202,2|2,0:2|1:2,0:0:0:0:
507,119,219188,2,0,P|496:68|483:21,1,99.0000030212403,2|2,0:0|3:2,0:0:0:0:
402,0,219638,1,0,1:2:0:0:
339,55,219788,2,0,P|283:67|235:35,1,116.999994644165,2|2,3:2|0:2,0:2:0:0:
147,63,220238,6,0,P|155:104|163:145,1,83.9999974365235,8|8,0:3|0:3,0:0:0:0:
214,175,220538,2,0,P|237:172|262:167,2,41.9999987182618,8|8|8,0:3|0:3|0:3,0:0:0:0:
187,223,220838,2,0,P|143:229|104:241,1,83.9999974365235,4|4,0:3|0:3,0:0:0:0:
51,223,221138,2,0,P|49:202|42:173,2,41.9999987182618,4|4|4,0:3|0:3|0:3,0:0:0:0:
33,273,221438,5,12,0:2:0:0:
121,345,221638,1,12,0:3:0:0:
232,303,221838,1,12,0:3:0:0:
336,355,222038,2,2,B|372:307|372:307|435:323,1,126,12|0,0:2|0:0,0:1:0:0:
453,335,222638,6,0,P|467:295|475:254,1,83.9999974365235,4|2,1:1|3:2,0:2:0:0:
392,164,223038,1,2,3:2:0:0:
298,228,223238,2,0,P|238:242|186:210,1,125.999996154785,10|0,0:2|0:2,0:2:0:0:
139,145,223688,1,0,1:2:0:0:
81,199,223838,2,0,P|41:208|-10:222,2,83.9999974365235,2|2|2,0:2|0:2|0:2,0:2:0:0:
25,310,224438,2,0,P|64:300|116:287,2,83.9999974365235,10|2|2,0:2|3:2|3:2,0:2:0:0:
81,199,225038,6,0,P|67:134|59:70,2,125.999996154785,2|0|8,1:2|0:2|0:2,0:2:0:0:
216,258,225938,2,0,P|225:289|230:323,1,62.9999980773926,2|0,0:2|1:2,0:0:0:0:
297,367,226238,2,0,P|357:350|420:342,1,125.999996154785,2|0,0:2|1:2,0:2:0:0:
510,181,226838,1,10,0:2:0:0:
468,252,226988,2,0,P|423:211|430:151,1,125.999996154785,0|0,1:2|0:2,0:2:0:0:
411,55,227438,6,0,P|451:65|492:74,2,83.9999974365235,2|2|2,1:2|0:2|0:2,0:2:0:0:
308,98,228038,1,10,0:0:0:0:
243,49,228188,2,0,P|187:73|175:132,1,125.999996154785,2|0,0:2|0:2,0:2:0:0:
213,213,228638,2,0,P|243:219|274:227,2,62.9999980773926,2|2|0,3:2|0:2|1:2,0:0:0:0:
140,264,229088,2,0,P|133:294|125:325,1,62.9999980773926,2|8,0:2|0:2,0:2:0:0:
49,368,229388,2,0,P|34:306|17:246,1,125.999996154785,2|0,0:2|0:2,0:2:0:0:
0,151,229838,5,2,1:2:0:0:
82,165,229988,2,0,P|142:156|171:103,1,125.999996154785,2|2,0:2|0:2,0:2:0:0:
157,20,230438,1,8,0:2:0:0:
236,15,230588,2,0,P|286:23|367:40,1,125.999996154785,2|2,0:2|0:2,0:2:0:0:
435,2,231038,1,2,1:2:0:0:
435,2,231188,1,2,0:2:0:0:
405,212,231488,5,6,1:3:0:0:
292,122,231788,1,6,1:3:0:0:
292,122,232238,6,0,P|284:163|275:205,2,83.9999974365235,4|2|2,1:1|3:2|3:2,0:2:0:0:
372,88,232838,2,0,P|435:81|477:127,1,125.999996154785,10|0,0:2|0:2,0:2:0:0:
512,194,233288,1,0,1:2:0:0:
441,227,233438,2,0,P|430:267|420:320,1,94.499997116089,2|2,0:2|0:2,0:2:0:0:
420,319,233738,2,0,L|358:306,1,62.9999980773926,0|2,1:2|0:2,0:0:0:0:
294,359,234038,1,10,0:2:0:0:
225,313,234188,2,0,P|232:250|247:189,1,125.999996154785,0|2,1:2|0:2,0:0:0:0:
202,126,234638,6,0,B|272:133|257:156|320:166,2,125.999996154785,2|0|8,1:2|0:2|0:2,0:2:0:0:
75,285,235538,2,0,P|44:291|14:301,1,62.9999980773926,2|0,0:2|1:2,0:0:0:0:
29,211,235838,2,0,P|18:148|2:87,1,125.999996154785,2|2,0:2|1:2,0:2:0:0:
202,126,236438,1,10,0:2:0:0:
268,75,236588,2,0,P|213:35|155:53,1,125.999996154785,0|0,1:2|0:2,0:2:0:0:
105,117,237038,5,0,1:2:0:0:
105,117,237338,2,0,P|112:148|119:181,1,62.9999980773926,2|0,0:2|0:2,0:2:0:0:
67,240,237638,1,10,0:2:0:0:
126,293,237788,2,0,P|165:285|198:276,1,62.9999980773926,2|0,0:2|0:2,0:2:0:0:
251,221,238088,2,0,B|315:227|306:248|368:262,1,125.999996154785,2|0,1:2|0:2,0:2:0:0:
445,223,238538,2,0,P|453:192|460:161,1,62.9999980773926,2|0,1:2|0:2,0:2:0:0:
431,80,238838,2,0,P|379:46|321:65,1,125.999996154785,10|2,0:2|3:2,0:2:0:0:
251,221,239438,6,0,P|305:205|346:190,2,83.9999974365235,2|2|2,1:2|3:2|3:2,0:2:0:0:
158,194,240038,2,0,B|134:132|165:131|143:70,1,125.999996154785,10|0,0:2|0:2,0:2:0:0:
70,37,240488,1,0,1:2:0:0:
10,93,240638,2,0,P|16:139|20:186,1,94.499997116089,2|0,3:2|0:2,0:2:0:0:
20,186,240938,2,0,P|12:216|4:246,1,62.9999980773926,2|0,1:2|0:2,0:2:0:0:
60,313,241238,2,0,P|150:296|213:361,1,188.999994232178,10|2,0:2|0:2,0:2:0:0:
313,324,241838,5,4,1:1:0:0:
313,324,242138,2,0,P|345:332|378:342,1,62.9999980773926,2|0,0:2|0:2,0:2:0:0:
460,330,242438,1,10,0:2:0:0:
439,247,242588,2,0,P|448:186|470:125,1,125.999996154785,2|0,0:2|1:2,0:2:0:0:
438,48,243038,1,2,3:2:0:0:
438,48,243188,1,2,0:2:0:0:
354,70,243338,2,0,P|324:62|291:55,1,62.9999980773926,2|0,1:2|0:2,0:2:0:0:
206,73,243638,2,0,P|162:115|168:176,1,125.999996154785,10|2,0:2|3:2,0:2:0:0:
337,306,244238,6,0,P|344:271|351:244,1,62.9999980773926,2|0,1:2|0:2,0:2:0:0:
319,165,244538,2,0,P|286:158|256:150,1,62.9999980773926,2|0,0:2|0:2,0:2:0:0:
168,176,244838,2,0,P|160:206|154:242,1,62.9999980773926,10|0,0:2|0:2,0:2:0:0:
84,294,245138,2,0,P|53:288|22:280,1,62.9999980773926,2|0,0:2|1:2,0:2:0:0:
134,373,245438,2,0,P|187:343|247:357,1,125.999996154785,2|0,3:2|1:2,0:2:0:0:
434,240,246038,2,0,P|440:206|446:175,1,62.9999980773926,10|0,0:2|1:2,0:2:0:0:
359,156,246338,2,0,P|352:189|346:220,1,62.9999980773926,2|2,0:2|0:2,0:2:0:0:
267,261,246638,6,0,P|220:253|176:236,2,94.499997116089,6|2|2,1:2|3:2|3:2,0:2:0:0:
301,341,247238,2,0,P|331:347|361:356,1,62.9999980773926,8|2,0:2|0:2,0:0:0:0:
439,310,247538,2,0,P|470:315|500:324,1,62.9999980773926,2|0,0:2|0:2,0:2:0:0:
489,232,247838,2,0,B|486:166|512:175|510:108,1,125.999996154785,2|0,3:2|1:2,0:2:0:0:
454,52,248288,1,2,0:2:0:0:
400,114,248438,1,8,0:2:0:0:
400,114,248738,2,0,P|370:119|328:128,1,62.9999980773926,2|0,0:2|0:0,0:2:0:0:
277,188,249038,6,0,P|214:169|153:162,1,125.999996154785,2|2,1:2|0:2,0:2:0:0:
3,61,249638,2,0,P|10:29|15:0,1,62.9999980773926,10|0,0:2|0:2,0:2:0:0:
112,21,249938,2,0,P|105:53|99:82,1,62.9999980773926,2|0,3:2|3:2,0:0:0:0:
34,145,250238,1,2,1:2:0:0:
291,177,250688,5,6,1:3:0:0:
231,43,250988,1,6,1:3:0:0:
231,43,251438,6,0,P|272:51|313:57,2,83.9999974365235,4|2|2,1:1|3:2|3:2,0:2:0:0:
150,83,252038,2,0,P|133:143|127:206,1,125.999996154785,10|0,0:2|0:2,0:2:0:0:
163,277,252488,1,0,1:2:0:0:
236,248,252638,2,0,P|278:258|317:265,2,83.9999974365235,2|2|2,0:2|0:2|0:2,0:2:0:0:
300,359,253238,2,0,P|259:347|218:341,2,83.9999974365235,10|2|2,0:2|3:2|3:2,0:2:0:0:
415,314,253838,6,0,B|426:240|452:259|459:197,2,125.999996154785,2|0|8,1:2|0:2|0:2,0:2:0:0:
337,180,254738,2,0,P|306:173|271:164,1,62.9999980773926,2|0,0:2|1:2,0:2:0:0:
183,180,255038,2,0,P|141:224|149:284,1,125.999996154785,2|2,0:2|1:2,0:2:0:0:
230,93,255638,1,10,0:2:0:0:
169,40,255788,2,0,B|106:50|119:70|51:82,1,125.999996154785,0|0,1:2|0:2,0:2:0:0:
0,152,256238,5,2,1:2:0:0:
0,152,256538,2,0,P|9:178|19:220,1,62.9999980773926,2|0,0:2|0:0,0:2:0:0:
92,236,256838,1,10,0:2:0:0:
59,313,256988,2,0,P|33:322|-5:337,1,62.9999980773926,2|0,0:2|0:2,0:2:0:0:
134,350,257288,2,0,P|196:360|254:384,1,125.999996154785,2|0,1:2|0:2,0:2:0:0:
333,357,257738,2,0,P|340:326|350:296,1,62.9999980773926,2|0,1:2|0:2,0:2:0:0:
298,227,258038,2,0,P|286:165|273:104,1,125.999996154785,10|0,0:2|3:2,0:2:0:0:
487,70,258638,6,0,P|492:111|503:158,2,83.9999974365235,2|2|2,1:2|3:2|3:2,0:2:0:0:
393,130,259238,2,0,P|406:191|415:253,1,125.999996154785,10|0,0:2|0:2,0:2:0:0:
485,294,259688,1,2,1:2:0:0:
427,341,259838,2,0,P|365:353|304:369,1,125.999996154785,2|2,0:2|1:2,0:2:0:0:
147,299,260438,2,0,P|115:233|151:170,1,150,10|0,0:2|0:2,0:2:0:0:
149,171,261038,5,4,1:2:0:0:
44,318,262088,2,0,P|28:252|17:185,2,135,0|0|0,1:2|1:2|1:2,0:2:0:0:
128,363,263438,1,0,1:2:0:0:
468,150,264488,2,0,P|483:215|494:282,2,135,0|0|0,1:2|1:2|1:2,0:2:0:0:
371,119,265838,1,0,0:0:0:0:
256,192,265988,12,0,270338,0:2:0:0:
