osu file format v14

[General]
AudioFilename: audio.mp3
AudioLeadIn: 0
PreviewTime: 102412
Countdown: 0
SampleSet: Normal
StackLeniency: 0
Mode: 1
LetterboxInBreaks: 0
WidescreenStoryboard: 0

[Editor]
DistanceSpacing: 1
BeatDivisor: 8
GridSize: 16
TimelineZoom: 2.999999

[Metadata]
Title:Shiawase (VIP)
TitleUnicode:Shiawase (VIP)
Artist:Dion Timmer
ArtistUnicode:Dion Timmer
Creator:koul
Version:Tidal Wave
Source:Rocket League
Tags:instrumental electronic dance monstercat 2018 legacy uncaged instinct future house ulqui ulko sobakaa
BeatmapID:4343374
BeatmapSetID:2074958

[Difficulty]
HPDrainRate:3
CircleSize:2
OverallDifficulty:8
ApproachRate:10
SliderMultiplier:1.4
SliderTickRate:1

[Events]
//Background and Video events
0,0,"bg.jpg",0,0
//Break Periods
2,64212,76362
//Storyboard Layer 0 (Background)
//Storyboard Layer 1 (Fail)
//Storyboard Layer 2 (Pass)
//Storyboard Layer 3 (Foreground)
//Storyboard Layer 4 (Overlay)
//Storyboard Sound Samples

[TimingPoints]
12,400,4,1,0,100,1,0
12712,-76.9230769230769,4,1,0,100,0,0
13512,-99.5024875621891,4,1,0,100,0,0
15912,-76.9230769230769,4,1,0,100,0,0
16712,-99.5024875621891,4,1,0,100,0,0
19112,-76.9230769230769,4,1,0,100,0,0
19912,-99.5024875621891,4,1,0,100,0,0
22312,-76.9230769230769,4,1,0,100,0,0
23112,-99.5024875621891,4,1,0,100,0,0
23912,-76.9230769230769,4,1,0,100,0,0
24712,-99.5024875621891,4,1,0,100,0,0
25512,-76.9230769230769,4,1,0,100,0,0
25912,-125,4,1,0,100,0,0
28712,-76.9230769230769,4,1,0,100,0,0
29112,-125,4,1,0,100,0,0
31912,-76.9230769230769,4,1,0,100,0,0
32312,-124.412469929983,4,1,0,100,0,0
32712,-122.089835482647,4,1,0,100,0,0
33112,-119.810561887956,4,1,0,100,0,0
33512,-117.573839649805,4,1,0,100,0,0
33912,-115.378874384427,4,1,0,100,0,0
34312,-113.224886538265,4,1,0,100,0,0
34712,-111.111111111111,4,1,0,100,0,0
35162,-100,4,1,0,100,0,0
35262,-98.7918800388875,4,1,0,100,0,0
35362,-97.5983556161793,4,1,0,100,0,0
35462,-96.4192504002627,4,1,0,100,0,0
35562,-95.2543901898221,4,1,0,100,0,0
35662,-94.1036028881028,4,1,0,100,0,0
35762,-92.9667184774856,4,1,0,100,0,0
35862,-91.8435689943678,4,1,0,100,0,0
35962,-90.7339885043487,4,1,0,100,0,0
36062,-89.6378130777142,4,1,0,100,0,0
36162,-88.5548807652176,4,1,0,100,0,0
36262,-87.4850315741536,4,1,0,100,0,0
36362,-86.4281074447207,4,1,0,100,0,0
36462,-85.3839522266692,4,1,0,100,0,0
36562,-84.3524116562321,4,1,0,100,0,0
36662,-83.3333333333333,4,1,0,100,0,0
36762,-76.9230769230769,4,1,0,100,0,0
37162,-111.111111111111,4,1,0,100,0,0
37362,-113.759583948846,4,1,0,100,0,0
37562,-116.47118646193,4,1,0,100,0,0
37762,-119.247423425438,4,1,0,100,0,0
37962,-122.089835482647,4,1,0,100,0,0
38162,-125,4,1,0,100,0,0
38362,-76.9230769230769,4,1,0,100,0,0
38762,-111.111111111111,4,1,0,100,0,0
38962,-76.9230769230769,4,1,0,100,0,0
39752,-102.198593134746,4,1,0,100,0,0
40152,-98.8370758459678,4,1,0,100,0,0
40352,-97.1980099998735,4,1,0,100,0,0
40952,-92.4421056900393,4,1,0,100,0,0
41152,-90.9090909090909,4,1,0,100,0,0
41612,-62.5,4,1,0,100,0,1
41772,-76.9230769230769,4,1,0,100,0,1
41887,-76.3925065351392,4,1,0,100,0,1
41987,-75.8655957113768,4,1,0,100,0,1
42087,-75.3423192102566,4,1,0,100,0,1
42187,-74.8226519643469,4,1,0,100,0,1
42253,-74.4816366332766,4,1,0,100,0,1
42320,-74.1370440963167,4,1,0,100,0,1
42387,-73.7940458317425,4,1,0,100,0,1
42487,-73.2850576699248,4,1,0,100,0,1
42587,-72.7795802107113,4,1,0,100,0,1
42687,-72.2775892393289,4,1,0,100,0,1
42787,-71.779060708024,4,1,0,100,0,1
42887,-71.2839707349104,4,1,0,100,0,1
42987,-70.7922956028252,4,1,0,100,0,1
43053,-70.4696492184958,4,1,0,100,0,1
43120,-70.1436183161079,4,1,0,100,0,1
43187,-69.8190958098947,4,1,0,100,0,1
43287,-69.3375245281536,4,1,0,100,0,1
43387,-68.8592748434156,4,1,0,100,0,1
43487,-68.3843238452475,4,1,0,100,0,1
43587,-67.9126487812389,4,1,0,100,0,1
43653,-67.6031268142945,4,1,0,100,0,1
43720,-67.2903580027006,4,1,0,100,0,1
43787,-66.9790362296405,4,1,0,100,0,1
43887,-66.5170540175719,4,1,0,100,0,1
43987,-66.0582582885624,4,1,0,100,0,1
44087,-65.6026270641159,4,1,0,100,0,1
44187,-65.1501385173311,4,1,0,100,0,1
44253,-64.853207100541,4,1,0,100,0,1
44320,-64.5531609123135,4,1,0,100,0,1
44387,-64.2545029008485,4,1,0,100,0,1
44487,-63.8113129259475,4,1,0,100,0,1
44587,-63.3711798162464,4,1,0,100,0,1
44687,-62.9340824872771,4,1,0,100,0,1
44772,-62.5,4,1,0,100,0,1
44972,-76.9230769230769,4,1,0,100,0,1
45087,-76.3925065351392,4,1,0,100,0,1
45187,-75.8655957113768,4,1,0,100,0,1
45287,-75.3423192102566,4,1,0,100,0,1
45387,-74.8226519643469,4,1,0,100,0,1
45453,-74.4816366332766,4,1,0,100,0,1
45520,-74.1370440963167,4,1,0,100,0,1
45587,-73.7940458317425,4,1,0,100,0,1
45687,-73.2850576699248,4,1,0,100,0,1
45787,-72.7795802107113,4,1,0,100,0,1
45887,-72.2775892393289,4,1,0,100,0,1
45987,-71.779060708024,4,1,0,100,0,1
46087,-71.2839707349104,4,1,0,100,0,1
46187,-70.7922956028252,4,1,0,100,0,1
46253,-70.4696492184958,4,1,0,100,0,1
46320,-70.1436183161079,4,1,0,100,0,1
46387,-69.8190958098947,4,1,0,100,0,1
46487,-69.3375245281536,4,1,0,100,0,1
46587,-68.8592748434156,4,1,0,100,0,1
46687,-68.3843238452475,4,1,0,100,0,1
46787,-67.9126487812389,4,1,0,100,0,1
46853,-67.6031268142945,4,1,0,100,0,1
46920,-67.2903580027006,4,1,0,100,0,1
46987,-66.9790362296405,4,1,0,100,0,1
47087,-66.5170540175719,4,1,0,100,0,1
47187,-66.0582582885624,4,1,0,100,0,1
47287,-65.6026270641159,4,1,0,100,0,1
47387,-65.1501385173311,4,1,0,100,0,1
47453,-64.853207100541,4,1,0,100,0,1
47520,-64.5531609123135,4,1,0,100,0,1
47587,-64.2545029008485,4,1,0,100,0,1
47687,-63.8113129259475,4,1,0,100,0,1
47787,-63.3711798162464,4,1,0,100,0,1
47887,-62.9340824872771,4,1,0,100,0,1
47972,-62.5,4,1,0,100,0,1
48187,-76.9230769230769,4,1,0,100,0,1
48287,-76.3139593211591,4,1,0,100,0,1
48387,-75.7096650345299,4,1,0,100,0,1
48487,-75.1101558696281,4,1,0,100,0,1
48587,-74.5153939353293,4,1,0,100,0,1
48653,-74.1254333207108,4,1,0,100,0,1
48720,-73.7316515489431,4,1,0,100,0,1
48787,-73.3399616918777,4,1,0,100,0,1
48887,-72.7592170912012,4,1,0,100,0,1
48987,-72.1830711333851,4,1,0,100,0,1
49087,-71.6114874039433,4,1,0,100,0,1
49187,-71.044429776739,4,1,0,100,0,1
49287,-70.481862411701,4,1,0,100,0,1
49387,-69.9237497525591,4,1,0,100,0,1
49453,-69.5578185403642,4,1,0,100,0,1
49520,-69.1883016310112,4,1,0,100,0,1
49587,-68.8207477324191,4,1,0,100,0,1
49687,-68.2757886577466,4,1,0,100,0,1
49787,-67.7351448572153,4,1,0,100,0,1
49887,-67.1987821602025,4,1,0,100,0,1
49987,-66.6666666666667,4,1,0,100,0,1
50587,-66.6666666666667,4,1,0,100,0,1
50653,-65.2618321832092,4,1,0,100,0,1
50720,-63.8659886907779,4,1,0,100,0,1
50812,-62.5,4,1,0,100,0,0
51212,-55.5555555555556,4,1,0,100,0,1
51387,-56.4528898839306,4,1,0,100,0,1
51487,-56.9069776646189,4,1,0,100,0,1
51587,-57.3647179724496,4,1,0,100,0,1
51637,-57.5949669959848,4,1,0,100,0,1
51687,-57.8261401871045,4,1,0,100,0,1
51787,-58.2912739245858,4,1,0,100,0,1
51887,-58.7601490391163,4,1,0,100,0,1
51987,-59.2327956250562,4,1,0,100,0,1
52087,-59.7092440188345,4,1,0,100,0,1
52187,-60.189524800896,4,1,0,100,0,1
52237,-60.4311119611277,4,1,0,100,0,1
52287,-60.6736687976641,4,1,0,100,0,1
52387,-61.1617070835197,4,1,0,100,0,1
52487,-61.653670982795,4,1,0,100,0,1
52587,-62.1495920717848,4,1,0,100,0,1
52653,-62.4790831889739,4,1,0,100,0,1
52720,-62.8153533686044,4,1,0,100,0,1
52787,-63.1534333960742,4,1,0,100,0,1
52887,-63.6614180620962,4,1,0,100,0,1
52987,-64.173488783413,4,1,0,100,0,1
53087,-64.689678426859,4,1,0,100,0,1
53187,-65.2100201236381,4,1,0,100,0,1
53237,-65.4717584183404,4,1,0,100,0,1
53287,-65.7345472714504,4,1,0,100,0,1
53387,-66.2632935366356,4,1,0,100,0,1
53487,-66.796292856334,4,1,0,100,0,1
53587,-67.3335794406647,4,1,0,100,0,1
53687,-67.8751877749213,4,1,0,100,0,1
53787,-68.4211526217853,4,1,0,100,0,1
53853,-68.7838929273159,4,1,0,100,0,1
53920,-69.1540963754106,4,1,0,100,0,1
53987,-69.5262923044067,4,1,0,100,0,1
54053,-69.8948915978491,4,1,0,100,0,1
54120,-70.271074578668,4,1,0,100,0,1
54187,-70.6492822229756,4,1,0,100,0,1
54253,-71.0238351388076,4,1,0,100,0,1
54325,-71.3317585192958,4,1,0,100,0,1
54387,-55.5555555555556,4,1,0,100,0,1
54587,-56.4528898839306,4,1,0,100,0,1
54687,-56.9069776646189,4,1,0,100,0,1
54787,-57.3647179724496,4,1,0,100,0,1
54837,-57.5949669959848,4,1,0,100,0,1
54887,-57.8261401871045,4,1,0,100,0,1
54987,-58.2912739245858,4,1,0,100,0,1
55087,-58.7601490391163,4,1,0,100,0,1
55187,-59.2327956250562,4,1,0,100,0,1
55287,-59.7092440188345,4,1,0,100,0,1
55387,-60.189524800896,4,1,0,100,0,1
55437,-60.4311119611277,4,1,0,100,0,1
55487,-60.6736687976641,4,1,0,100,0,1
55587,-61.1617070835197,4,1,0,100,0,1
55687,-61.653670982795,4,1,0,100,0,1
55787,-62.1495920717848,4,1,0,100,0,1
55853,-62.4790831889739,4,1,0,100,0,1
55920,-62.8153533686044,4,1,0,100,0,1
55987,-63.1534333960742,4,1,0,100,0,1
56087,-63.6614180620962,4,1,0,100,0,1
56187,-64.173488783413,4,1,0,100,0,1
56287,-64.689678426859,4,1,0,100,0,1
56387,-65.2100201236381,4,1,0,100,0,1
56437,-65.4717584183404,4,1,0,100,0,1
56487,-65.7345472714504,4,1,0,100,0,1
56587,-66.2632935366356,4,1,0,100,0,1
56687,-66.796292856334,4,1,0,100,0,1
56787,-67.3335794406647,4,1,0,100,0,1
56887,-67.8751877749213,4,1,0,100,0,1
56987,-68.4211526217853,4,1,0,100,0,1
57053,-68.7838929273159,4,1,0,100,0,1
57120,-69.1540963754106,4,1,0,100,0,1
57187,-69.5262923044067,4,1,0,100,0,1
57253,-69.8948915978491,4,1,0,100,0,1
57320,-70.271074578668,4,1,0,100,0,1
57387,-70.6492822229756,4,1,0,100,0,1
57453,-71.0238351388076,4,1,0,100,0,1
57520,-71.3317585192958,4,1,0,100,0,1
57572,-55.5555555555556,4,1,0,100,0,1
57787,-56.4528898839306,4,1,0,100,0,1
57887,-56.9069776646189,4,1,0,100,0,1
57987,-57.3647179724496,4,1,0,100,0,1
58037,-57.5949669959848,4,1,0,100,0,1
58087,-57.8261401871045,4,1,0,100,0,1
58187,-58.2912739245858,4,1,0,100,0,1
58287,-58.7601490391163,4,1,0,100,0,1
58387,-59.2327956250562,4,1,0,100,0,1
58487,-59.7092440188345,4,1,0,100,0,1
58587,-60.189524800896,4,1,0,100,0,1
58637,-60.4311119611277,4,1,0,100,0,1
58687,-60.6736687976641,4,1,0,100,0,1
58787,-61.1617070835197,4,1,0,100,0,1
58887,-61.653670982795,4,1,0,100,0,1
58987,-62.1495920717848,4,1,0,100,0,1
59053,-62.4790831889739,4,1,0,100,0,1
59120,-62.8153533686044,4,1,0,100,0,1
59187,-63.1534333960742,4,1,0,100,0,1
59287,-63.6614180620962,4,1,0,100,0,1
59387,-64.173488783413,4,1,0,100,0,1
59487,-64.689678426859,4,1,0,100,0,1
59587,-65.2100201236381,4,1,0,100,0,1
59637,-65.4717584183404,4,1,0,100,0,1
59687,-65.7345472714504,4,1,0,100,0,1
59787,-66.2632935366356,4,1,0,100,0,1
59887,-66.796292856334,4,1,0,100,0,1
59987,-67.3335794406647,4,1,0,100,0,1
60087,-67.8751877749213,4,1,0,100,0,1
60187,-68.4211526217853,4,1,0,100,0,1
60253,-68.7838929273159,4,1,0,100,0,1
60320,-69.1540963754106,4,1,0,100,0,1
60387,-69.5262923044067,4,1,0,100,0,1
60453,-69.8948915978491,4,1,0,100,0,1
60520,-70.271074578668,4,1,0,100,0,1
60587,-70.6492822229756,4,1,0,100,0,1
60653,-71.0238351388076,4,1,0,100,0,1
60720,-71.3317585192958,4,1,0,100,0,1
60772,-55.7545183432665,4,1,0,100,0,1
60987,-56.7600717282854,4,1,0,100,0,1
61087,-57.2696289381358,4,1,0,100,0,1
61187,-57.783760640974,4,1,0,100,0,1
61237,-58.0425547463385,4,1,0,100,0,1
61287,-58.3025079038004,4,1,0,100,0,1
61387,-58.8259121622896,4,1,0,100,0,1
61453,-59.1739303663071,4,1,0,100,0,1
61520,-59.5293275657548,4,1,0,100,0,1
61587,-59.8868592722158,4,1,0,100,0,1
61687,-60.4244868683107,4,1,0,100,0,1
61787,-60.9669409561535,4,1,0,100,0,1
61887,-61.5142648650351,4,1,0,100,0,1
61987,-62.0665023132307,4,1,0,100,0,1
62037,-62.3444773837536,4,1,0,100,0,1
62087,-62.6236974114909,4,1,0,100,0,1
62187,-63.1858946665661,4,1,0,100,0,1
62253,-63.5597068315255,4,1,0,100,0,1
62320,-63.9414448987082,4,1,0,100,0,1
62387,-64.325475675521,4,1,0,100,0,1
62487,-64.9029504550531,4,1,0,100,0,1
62587,-65.4856094499756,4,1,0,100,0,1
62687,-66.0734992010037,4,1,0,100,0,1
62787,-66.6666666666667,4,1,0,100,0,1
63392,-71.4285714285714,4,1,0,100,0,1
63458,-70.2572218631179,4,1,0,100,0,1
63525,-69.0877705497118,4,1,0,100,0,1
63592,-67.9377850839176,4,1,0,100,0,1
63692,-66.2568971271159,4,1,0,100,0,1
63792,-64.6175969895201,4,1,0,100,0,1
63892,-63.0188557228894,4,1,0,100,0,1
64012,-55.5555555555556,4,1,0,100,0,0
64062,-99.5024875621891,4,1,0,100,0,0
76712,-76.9230769230769,4,1,0,100,0,0
77512,-99.5024875621891,4,1,0,100,0,0
79912,-76.9230769230769,4,1,0,100,0,0
80712,-99.5024875621891,4,1,0,100,0,0
83112,-76.9230769230769,4,1,0,100,0,0
83912,-99.5024875621891,4,1,0,100,0,0
86312,-76.9230769230769,4,1,0,100,0,0
87112,-99.5024875621891,4,1,0,100,0,0
87912,-76.9230769230769,4,1,0,100,0,0
88712,-99.5024875621891,4,1,0,100,0,0
89512,-76.9230769230769,4,1,0,100,0,0
89912,-125,4,1,0,100,0,0
92712,-76.9230769230769,4,1,0,100,0,0
93112,-125,4,1,0,100,0,0
95912,-76.9230769230769,4,1,0,100,0,0
96312,-124.412469929983,4,1,0,100,0,0
96712,-122.089835482647,4,1,0,100,0,0
97112,-119.810561887956,4,1,0,100,0,0
97512,-117.573839649805,4,1,0,100,0,0
97912,-115.378874384427,4,1,0,100,0,0
98312,-113.224886538265,4,1,0,100,0,0
98712,-111.111111111111,4,1,0,100,0,0
99162,-100,4,1,0,100,0,0
99262,-98.7918800388875,4,1,0,100,0,0
99362,-97.5983556161793,4,1,0,100,0,0
99462,-96.4192504002627,4,1,0,100,0,0
99562,-95.2543901898221,4,1,0,100,0,0
99662,-94.1036028881028,4,1,0,100,0,0
99762,-92.9667184774856,4,1,0,100,0,0
99862,-91.8435689943678,4,1,0,100,0,0
99962,-90.7339885043487,4,1,0,100,0,0
100062,-89.6378130777142,4,1,0,100,0,0
100162,-88.5548807652176,4,1,0,100,0,0
100262,-87.4850315741536,4,1,0,100,0,0
100362,-86.4281074447207,4,1,0,100,0,0
100462,-85.3839522266692,4,1,0,100,0,0
100562,-84.3524116562321,4,1,0,100,0,0
100662,-83.3333333333333,4,1,0,100,0,0
100762,-76.9230769230769,4,1,0,100,0,0
100812,-66.6666666666667,4,1,0,100,0,0
100912,-133.333333333333,4,1,0,100,0,0
101162,-111.111111111111,4,1,0,100,0,0
101362,-113.759583948846,4,1,0,100,0,0
101562,-116.47118646193,4,1,0,100,0,0
101762,-119.247423425438,4,1,0,100,0,0
101962,-122.089835482647,4,1,0,100,0,0
102162,-125,4,1,0,100,0,0
102362,-76.9230769230769,4,1,0,100,0,0
102412,-66.6666666666667,4,1,0,100,0,0
102512,-142.857142857143,4,1,0,100,0,0
103152,-136.997049880872,4,1,0,100,0,0
103352,-134.157773679107,4,1,0,100,0,0
103552,-131.377341732434,4,1,0,100,0,0
103952,-125.988157669742,4,1,0,100,0,0
104352,-120.820041444766,4,1,0,100,0,0
104552,-118.316035200335,4,1,0,100,0,0
104752,-115.863924710923,4,1,0,100,0,0
104952,-113.462634432331,4,1,0,100,0,0
105152,-111.111111111111,4,1,0,100,0,0
105612,-58.8235294117647,4,1,0,100,0,1
105772,-71.4285714285714,4,1,0,100,0,1
105822,-71.1978068868722,4,1,0,100,0,1
105872,-70.9677878770048,4,1,0,100,0,1
105922,-70.738511990377,4,1,0,100,0,1
105972,-70.5099768261777,4,1,0,100,0,1
106072,-70.0551191005779,4,1,0,100,0,1
106172,-69.6031956483937,4,1,0,100,0,1
106238,-69.3065243658051,4,1,0,100,0,1
106305,-69.006651428642,4,1,0,100,0,1
106372,-68.7080759707461,4,1,0,100,0,1
106438,-68.4152199771017,4,1,0,100,0,1
106505,-68.1192035031994,4,1,0,100,0,1
106572,-67.8244678225599,4,1,0,100,0,1
106672,-67.3869342342304,4,1,0,100,0,1
106772,-66.9522231618315,4,1,0,100,0,1
106822,-66.7359203745199,4,1,0,100,0,1
106872,-66.5203163973985,4,1,0,100,0,1
106972,-66.0911958504255,4,1,0,100,0,1
107038,-65.8094938443882,4,1,0,100,0,1
107105,-65.5247517311035,4,1,0,100,0,1
107172,-65.2412416295902,4,1,0,100,0,1
107272,-64.8203723552164,4,1,0,100,0,1
107372,-64.4022180957885,4,1,0,100,0,1
107472,-63.9867613368273,4,1,0,100,0,1
107572,-63.5739846768389,4,1,0,100,0,1
107622,-63.3685959767077,4,1,0,100,0,1
107672,-63.163870826586,4,1,0,100,0,1
107722,-62.9598070827405,4,1,0,100,0,1
107772,-62.7564026083636,4,1,0,100,0,1
107872,-62.3515629552797,4,1,0,100,0,1
107972,-61.94933491054,4,1,0,100,0,1
108038,-61.6852868525132,4,1,0,100,0,1
108105,-61.4183892073423,4,1,0,100,0,1
108172,-61.1526463651501,4,1,0,100,0,1
108238,-60.8919940508156,4,1,0,100,0,1
108305,-60.6285287959522,4,1,0,100,0,1
108372,-60.3662034929265,4,1,0,100,0,1
108472,-59.9767829419656,4,1,0,100,0,1
108572,-59.5898745311881,4,1,0,100,0,1
108638,-59.3358832547564,4,1,0,100,0,1
108705,-59.079150923225,4,1,0,100,0,1
108772,-58.8235294117647,4,1,0,100,0,1
108978,-71.4285714285714,4,1,0,100,0,1
109028,-71.1978068868722,4,1,0,100,0,1
109078,-70.9677878770048,4,1,0,100,0,1
109128,-70.738511990377,4,1,0,100,0,1
109178,-70.5099768261777,4,1,0,100,0,1
109278,-70.0551191005779,4,1,0,100,0,1
109378,-69.6031956483937,4,1,0,100,0,1
109444,-69.3065243658051,4,1,0,100,0,1
109511,-69.006651428642,4,1,0,100,0,1
109578,-68.7080759707461,4,1,0,100,0,1
109644,-68.4152199771017,4,1,0,100,0,1
109711,-68.1192035031994,4,1,0,100,0,1
109778,-67.8244678225599,4,1,0,100,0,1
109878,-67.3869342342304,4,1,0,100,0,1
109978,-66.9522231618315,4,1,0,100,0,1
110028,-66.7359203745199,4,1,0,100,0,1
110078,-66.5203163973985,4,1,0,100,0,1
110178,-66.0911958504255,4,1,0,100,0,1
110244,-65.8094938443882,4,1,0,100,0,1
110311,-65.5247517311035,4,1,0,100,0,1
110378,-65.2412416295902,4,1,0,100,0,1
110478,-64.8203723552164,4,1,0,100,0,1
110578,-64.4022180957885,4,1,0,100,0,1
110678,-63.9867613368273,4,1,0,100,0,1
110778,-63.5739846768389,4,1,0,100,0,1
110828,-63.3685959767077,4,1,0,100,0,1
110878,-63.163870826586,4,1,0,100,0,1
110928,-62.9598070827405,4,1,0,100,0,1
110978,-62.7564026083636,4,1,0,100,0,1
111078,-62.3515629552797,4,1,0,100,0,1
111178,-61.94933491054,4,1,0,100,0,1
111244,-61.6852868525132,4,1,0,100,0,1
111311,-61.4183892073423,4,1,0,100,0,1
111378,-61.1526463651501,4,1,0,100,0,1
111444,-60.8919940508156,4,1,0,100,0,1
111511,-60.6285287959522,4,1,0,100,0,1
111578,-60.3662034929265,4,1,0,100,0,1
111678,-59.9767829419656,4,1,0,100,0,1
111778,-59.5898745311881,4,1,0,100,0,1
111844,-59.3358832547564,4,1,0,100,0,1
111911,-59.079150923225,4,1,0,100,0,1
111978,-58.8235294117647,4,1,0,100,0,1
112178,-71.4285714285714,4,1,0,100,0,1
112228,-71.1978068868722,4,1,0,100,0,1
112278,-70.9677878770048,4,1,0,100,0,1
112328,-70.738511990377,4,1,0,100,0,1
112378,-70.5099768261777,4,1,0,100,0,1
112478,-70.0551191005779,4,1,0,100,0,1
112578,-69.6031956483937,4,1,0,100,0,1
112644,-69.3065243658051,4,1,0,100,0,1
112711,-69.006651428642,4,1,0,100,0,1
112778,-68.7080759707461,4,1,0,100,0,1
112844,-68.4152199771017,4,1,0,100,0,1
112911,-68.1192035031994,4,1,0,100,0,1
112978,-67.8244678225599,4,1,0,100,0,1
113078,-67.3869342342304,4,1,0,100,0,1
113178,-66.9522231618315,4,1,0,100,0,1
113228,-66.7359203745199,4,1,0,100,0,1
113278,-66.5203163973985,4,1,0,100,0,1
113378,-66.0911958504255,4,1,0,100,0,1
113444,-65.8094938443882,4,1,0,100,0,1
113511,-65.5247517311035,4,1,0,100,0,1
113578,-65.2412416295902,4,1,0,100,0,1
113678,-64.8203723552164,4,1,0,100,0,1
113778,-64.4022180957885,4,1,0,100,0,1
113878,-63.9867613368273,4,1,0,100,0,1
113978,-63.5739846768389,4,1,0,100,0,1
114028,-63.3685959767077,4,1,0,100,0,1
114078,-63.163870826586,4,1,0,100,0,1
114128,-62.9598070827405,4,1,0,100,0,1
114178,-62.7564026083636,4,1,0,100,0,1
114278,-62.3515629552797,4,1,0,100,0,1
114378,-61.94933491054,4,1,0,100,0,1
114444,-61.6852868525132,4,1,0,100,0,1
114511,-61.4183892073423,4,1,0,100,0,1
114578,-61.1526463651501,4,1,0,100,0,1
114644,-60.8919940508156,4,1,0,100,0,1
114711,-60.6285287959522,4,1,0,100,0,1
114812,-60.3662034929265,4,1,0,100,0,0
114878,-59.9767829419656,4,1,0,100,0,0
114978,-59.5898745311881,4,1,0,100,0,0
115044,-59.3358832547564,4,1,0,100,0,0
115111,-59.079150923225,4,1,0,100,0,0
115212,-58.8235294117647,4,1,0,100,0,1
115378,-71.4285714285714,4,1,0,100,0,1
115428,-71.1978068868722,4,1,0,100,0,1
115478,-70.9677878770048,4,1,0,100,0,1
115528,-70.738511990377,4,1,0,100,0,1
115578,-70.5099768261777,4,1,0,100,0,1
115678,-70.0551191005779,4,1,0,100,0,1
115778,-69.6031956483937,4,1,0,100,0,1
115844,-69.3065243658051,4,1,0,100,0,1
115911,-69.006651428642,4,1,0,100,0,1
115978,-68.7080759707461,4,1,0,100,0,1
116044,-68.4152199771017,4,1,0,100,0,1
116111,-68.1192035031994,4,1,0,100,0,1
116178,-67.8244678225599,4,1,0,100,0,1
116278,-67.3869342342304,4,1,0,100,0,1
116378,-66.9522231618315,4,1,0,100,0,1
116428,-66.7359203745199,4,1,0,100,0,1
116478,-66.5203163973985,4,1,0,100,0,1
116578,-66.0911958504255,4,1,0,100,0,1
116644,-65.8094938443882,4,1,0,100,0,1
116711,-65.5247517311035,4,1,0,100,0,1
116778,-65.2412416295902,4,1,0,100,0,1
116878,-64.8203723552164,4,1,0,100,0,1
116978,-64.4022180957885,4,1,0,100,0,1
117078,-63.9867613368273,4,1,0,100,0,1
117178,-63.5739846768389,4,1,0,100,0,1
117228,-63.3685959767077,4,1,0,100,0,1
117278,-63.163870826586,4,1,0,100,0,1
117378,-62.7564026083636,4,1,0,100,0,1
117478,-62.3515629552797,4,1,0,100,0,1
117578,-61.94933491054,4,1,0,100,0,1
117644,-61.6852868525132,4,1,0,100,0,1
117711,-61.4183892073423,4,1,0,100,0,1
117778,-61.1526463651501,4,1,0,100,0,1
117878,-60.7581524950325,4,1,0,100,0,1
117978,-60.3662034929265,4,1,0,100,0,1
118044,-60.1089032519186,4,1,0,100,0,1
118111,-59.8488262457097,4,1,0,100,0,1
118178,-59.5898745311881,4,1,0,100,0,1
118244,-59.3358832547564,4,1,0,100,0,1
118311,-59.079150923225,4,1,0,100,0,1
118378,-58.8235294117647,4,1,0,100,0,1
118578,-71.4285714285714,4,1,0,100,0,1
118628,-71.1978068868722,4,1,0,100,0,1
118678,-70.9677878770048,4,1,0,100,0,1
118728,-70.738511990377,4,1,0,100,0,1
118778,-70.5099768261777,4,1,0,100,0,1
118878,-70.0551191005779,4,1,0,100,0,1
118978,-69.6031956483937,4,1,0,100,0,1
119044,-69.3065243658051,4,1,0,100,0,1
119111,-69.006651428642,4,1,0,100,0,1
119178,-68.7080759707461,4,1,0,100,0,1
119244,-68.4152199771017,4,1,0,100,0,1
119311,-68.1192035031994,4,1,0,100,0,1
119378,-67.8244678225599,4,1,0,100,0,1
119478,-67.3869342342304,4,1,0,100,0,1
119578,-66.9522231618315,4,1,0,100,0,1
119628,-66.7359203745199,4,1,0,100,0,1
119678,-66.5203163973985,4,1,0,100,0,1
119778,-66.0911958504255,4,1,0,100,0,1
119844,-65.8094938443882,4,1,0,100,0,1
119911,-65.5247517311035,4,1,0,100,0,1
119978,-65.2412416295902,4,1,0,100,0,1
120078,-64.8203723552164,4,1,0,100,0,1
120178,-64.4022180957885,4,1,0,100,0,1
120278,-63.9867613368273,4,1,0,100,0,1
120378,-63.5739846768389,4,1,0,100,0,1
120428,-63.3685959767077,4,1,0,100,0,1
120478,-63.163870826586,4,1,0,100,0,1
120578,-62.7564026083636,4,1,0,100,0,1
120678,-62.3515629552797,4,1,0,100,0,1
120778,-61.94933491054,4,1,0,100,0,1
120844,-61.6852868525132,4,1,0,100,0,1
120911,-61.4183892073423,4,1,0,100,0,1
120978,-61.1526463651501,4,1,0,100,0,1
121078,-60.7581524950325,4,1,0,100,0,1
121178,-60.3662034929265,4,1,0,100,0,1
121244,-60.1089032519186,4,1,0,100,0,1
121311,-59.8488262457097,4,1,0,100,0,1
121378,-59.5898745311881,4,1,0,100,0,1
121444,-59.3358832547564,4,1,0,100,0,1
121511,-59.079150923225,4,1,0,100,0,1
121578,-58.8235294117647,4,1,0,100,0,1
121778,-71.4285714285714,4,1,0,100,0,1
121828,-71.1978068868722,4,1,0,100,0,1
121878,-70.9677878770048,4,1,0,100,0,1
121928,-70.738511990377,4,1,0,100,0,1
121978,-70.5099768261777,4,1,0,100,0,1
122078,-70.0551191005779,4,1,0,100,0,1
122178,-69.6031956483937,4,1,0,100,0,1
122244,-69.3065243658051,4,1,0,100,0,1
122311,-69.006651428642,4,1,0,100,0,1
122378,-68.7080759707461,4,1,0,100,0,1
122444,-68.4152199771017,4,1,0,100,0,1
122511,-68.1192035031994,4,1,0,100,0,1
122578,-67.8244678225599,4,1,0,100,0,1
122678,-67.3869342342304,4,1,0,100,0,1
122778,-66.9522231618315,4,1,0,100,0,1
122828,-66.7359203745199,4,1,0,100,0,1
122878,-66.5203163973985,4,1,0,100,0,1
122978,-66.0911958504255,4,1,0,100,0,1
123044,-65.8094938443882,4,1,0,100,0,1
123111,-65.5247517311035,4,1,0,100,0,1
123178,-65.2412416295902,4,1,0,100,0,1
123278,-64.8203723552164,4,1,0,100,0,1
123378,-64.4022180957885,4,1,0,100,0,1
123478,-63.9867613368273,4,1,0,100,0,1
123578,-63.5739846768389,4,1,0,100,0,1
123628,-63.3685959767077,4,1,0,100,0,1
123678,-63.163870826586,4,1,0,100,0,1
123778,-62.7564026083636,4,1,0,100,0,1
123878,-62.3515629552797,4,1,0,100,0,1
123978,-61.94933491054,4,1,0,100,0,1
124044,-61.6852868525132,4,1,0,100,0,1
124111,-61.4183892073423,4,1,0,100,0,1
124178,-61.1526463651501,4,1,0,100,0,1
124278,-60.7581524950325,4,1,0,100,0,1
124378,-60.3662034929265,4,1,0,100,0,1
124444,-60.1089032519186,4,1,0,100,0,1
124511,-59.8488262457097,4,1,0,100,0,1
124578,-59.5898745311881,4,1,0,100,0,1
124644,-59.3358832547564,4,1,0,100,0,1
124711,-59.079150923225,4,1,0,100,0,1
124778,-58.8235294117647,4,1,0,100,0,1
124978,-71.4285714285714,4,1,0,100,0,1
125028,-71.1978068868722,4,1,0,100,0,1
125078,-70.9677878770048,4,1,0,100,0,1
125128,-70.738511990377,4,1,0,100,0,1
125178,-70.5099768261777,4,1,0,100,0,1
125278,-70.0551191005779,4,1,0,100,0,1
125378,-69.6031956483937,4,1,0,100,0,1
125444,-69.3065243658051,4,1,0,100,0,1
125511,-69.006651428642,4,1,0,100,0,1
125578,-68.7080759707461,4,1,0,100,0,1
125644,-68.4152199771017,4,1,0,100,0,1
125711,-68.1192035031994,4,1,0,100,0,1
125778,-67.8244678225599,4,1,0,100,0,1
125878,-67.3869342342304,4,1,0,100,0,1
125978,-66.9522231618315,4,1,0,100,0,1
126028,-66.7359203745199,4,1,0,100,0,1
126078,-66.5203163973985,4,1,0,100,0,1
126178,-66.0911958504255,4,1,0,100,0,1
126244,-65.8094938443882,4,1,0,100,0,1
126311,-65.5247517311035,4,1,0,100,0,1
126378,-65.2412416295902,4,1,0,100,0,1
126478,-64.8203723552164,4,1,0,100,0,1
126578,-64.4022180957885,4,1,0,100,0,1
126678,-63.9867613368273,4,1,0,100,0,1
126778,-63.5739846768389,4,1,0,100,0,1
126828,-63.3685959767077,4,1,0,100,0,1
126878,-63.163870826586,4,1,0,100,0,1
126978,-62.7564026083636,4,1,0,100,0,1
127078,-62.3515629552797,4,1,0,100,0,1
127178,-61.94933491054,4,1,0,100,0,1
127244,-61.6852868525132,4,1,0,100,0,1
127311,-61.4183892073423,4,1,0,100,0,1
127378,-61.1526463651501,4,1,0,100,0,1
127478,-60.7581524950325,4,1,0,100,0,1
127578,-60.3662034929265,4,1,0,100,0,1
127644,-60.1089032519186,4,1,0,100,0,1
127711,-59.8488262457097,4,1,0,100,0,1
127778,-59.5898745311881,4,1,0,100,0,1
127844,-59.3358832547564,4,1,0,100,0,1
127911,-59.079150923225,4,1,0,100,0,1
128012,-58.8235294117647,4,1,0,100,0,0
128378,-100,4,1,0,100,0,0
128578,-98.6073153305685,4,1,0,100,0,0
128978,-95.8798629883371,4,1,0,100,0,0
129178,-94.5445588354266,4,1,0,100,0,0
129578,-91.9294812666229,4,1,0,100,0,0
129978,-89.3867360538543,4,1,0,100,0,0
130178,-88.1418606843271,4,1,0,100,0,0
130578,-85.7038800581821,4,1,0,100,0,0
130778,-84.5102952595038,4,1,0,100,0,0
130978,-83.3333333333333,4,1,0,100,0,0
131212,-55.5555555555556,4,1,0,100,0,1
131387,-56.4528898839306,4,1,0,100,0,1
131487,-56.9069776646189,4,1,0,100,0,1
131587,-57.3647179724496,4,1,0,100,0,1
131637,-57.5949669959848,4,1,0,100,0,1
131687,-57.8261401871045,4,1,0,100,0,1
131787,-58.2912739245858,4,1,0,100,0,1
131853,-58.6003098543084,4,1,0,100,0,1
131920,-58.9157039944803,4,1,0,100,0,1
131987,-59.2327956250562,4,1,0,100,0,1
132087,-59.7092440188345,4,1,0,100,0,1
132187,-60.189524800896,4,1,0,100,0,1
132237,-60.4311119611277,4,1,0,100,0,1
132287,-60.6736687976641,4,1,0,100,0,1
132337,-60.9171992025669,4,1,0,100,0,1
132387,-61.1617070835197,4,1,0,100,0,1
132487,-61.653670982795,4,1,0,100,0,1
132587,-62.1495920717848,4,1,0,100,0,1
132653,-62.4790831889739,4,1,0,100,0,1
132720,-62.8153533686044,4,1,0,100,0,1
132787,-63.1534333960742,4,1,0,100,0,1
132887,-63.6614180620962,4,1,0,100,0,1
132987,-64.173488783413,4,1,0,100,0,1
133087,-64.689678426859,4,1,0,100,0,1
133187,-65.2100201236381,4,1,0,100,0,1
133287,-65.7345472714504,4,1,0,100,0,1
133337,-65.9983908996724,4,1,0,100,0,1
133387,-66.2632935366356,4,1,0,100,0,1
133487,-66.796292856334,4,1,0,100,0,1
133587,-67.3335794406647,4,1,0,100,0,1
133687,-67.8751877749213,4,1,0,100,0,1
133787,-68.4211526217853,4,1,0,100,0,1
133853,-68.7838929273159,4,1,0,100,0,1
133920,-69.1540963754106,4,1,0,100,0,1
133987,-69.5262923044067,4,1,0,100,0,1
134087,-70.0855380726375,4,1,0,100,0,1
134187,-70.6492822229756,4,1,0,100,0,1
134253,-71.0238351388076,4,1,0,100,0,1
134325,-71.3317585192958,4,1,0,100,0,1
134387,-55.5555555555556,4,1,0,100,0,1
134587,-56.4528898839306,4,1,0,100,0,1
134687,-56.9069776646189,4,1,0,100,0,1
134787,-57.3647179724496,4,1,0,100,0,1
134837,-57.5949669959848,4,1,0,100,0,1
134887,-57.8261401871045,4,1,0,100,0,1
134987,-58.2912739245858,4,1,0,100,0,1
135053,-58.6003098543084,4,1,0,100,0,1
135120,-58.9157039944803,4,1,0,100,0,1
135187,-59.2327956250562,4,1,0,100,0,1
135287,-59.7092440188345,4,1,0,100,0,1
135387,-60.189524800896,4,1,0,100,0,1
135437,-60.4311119611277,4,1,0,100,0,1
135487,-60.6736687976641,4,1,0,100,0,1
135537,-60.9171992025669,4,1,0,100,0,1
135587,-61.1617070835197,4,1,0,100,0,1
135687,-61.653670982795,4,1,0,100,0,1
135787,-62.1495920717848,4,1,0,100,0,1
135853,-62.4790831889739,4,1,0,100,0,1
135920,-62.8153533686044,4,1,0,100,0,1
135987,-63.1534333960742,4,1,0,100,0,1
136087,-63.6614180620962,4,1,0,100,0,1
136187,-64.173488783413,4,1,0,100,0,1
136287,-64.689678426859,4,1,0,100,0,1
136387,-65.2100201236381,4,1,0,100,0,1
136487,-65.7345472714504,4,1,0,100,0,1
136537,-65.9983908996724,4,1,0,100,0,1
136587,-66.2632935366356,4,1,0,100,0,1
136687,-66.796292856334,4,1,0,100,0,1
136787,-67.3335794406647,4,1,0,100,0,1
136887,-67.8751877749213,4,1,0,100,0,1
136987,-68.4211526217853,4,1,0,100,0,1
137053,-68.7838929273159,4,1,0,100,0,1
137120,-69.1540963754106,4,1,0,100,0,1
137187,-69.5262923044067,4,1,0,100,0,1
137287,-70.0855380726375,4,1,0,100,0,1
137387,-70.6492822229756,4,1,0,100,0,1
137453,-71.0238351388076,4,1,0,100,0,1
137520,-71.3317585192958,4,1,0,100,0,1
137562,-55.5555555555556,4,1,0,100,0,1
137787,-56.5777431192791,4,1,0,100,0,1
137887,-57.0958682760429,4,1,0,100,0,1
137987,-57.6187382964805,4,1,0,100,0,1
138037,-57.8819661939201,4,1,0,100,0,1
138087,-58.1463966328947,4,1,0,100,0,1
138187,-58.6788871355144,4,1,0,100,0,1
138253,-59.0329994050069,4,1,0,100,0,1
138320,-59.3946628695588,4,1,0,100,0,1
138387,-59.7585420518095,4,1,0,100,0,1
138487,-60.3057961885341,4,1,0,100,0,1
138587,-60.8580619450185,4,1,0,100,0,1
138687,-61.4153852164527,4,1,0,100,0,1
138787,-61.9778123183238,4,1,0,100,0,1
138837,-62.2609543951342,4,1,0,100,0,1
138887,-62.5453899902646,4,1,0,100,0,1
138987,-63.1181653999383,4,1,0,100,0,1
139053,-63.4990675929938,4,1,0,100,0,1
139120,-63.8880922573844,4,1,0,100,0,1
139187,-64.2795002668418,4,1,0,100,0,1
139287,-64.8681562350065,4,1,0,100,0,1
139387,-65.4622029707942,4,1,0,100,0,1
139487,-66.0616898415384,4,1,0,100,0,1
139587,-66.6666666666667,4,1,0,100,0,1
140187,-66.6666666666667,4,1,0,100,0,1
140253,-65.2618321832092,4,1,0,100,0,1
140320,-63.8659886907779,4,1,0,100,0,1
140412,-62.5,4,1,0,100,0,0
140812,-55.5555555555556,4,1,0,100,0,1
140987,-56.4462861052807,4,1,0,100,0,1
141087,-56.8969926108549,4,1,0,100,0,1
141187,-57.3512978714257,4,1,0,100,0,1
141237,-57.5798090055717,4,1,0,100,0,1
141287,-57.8092306219624,4,1,0,100,0,1
141387,-58.2708198268741,4,1,0,100,0,1
141453,-58.577485879028,4,1,0,100,0,1
141520,-58.8904492090257,4,1,0,100,0,1
141587,-59.205084615666,4,1,0,100,0,1
141687,-59.677819292126,4,1,0,100,0,1
141787,-60.1543286118583,4,1,0,100,0,1
141837,-60.3940081721309,4,1,0,100,0,1
141887,-60.6346427142466,4,1,0,100,0,1
141937,-60.8762360432455,4,1,0,100,0,1
141987,-61.1187919793285,4,1,0,100,0,1
142087,-61.6068070297171,4,1,0,100,0,1
142187,-62.0987187325376,4,1,0,100,0,1
142253,-62.425530144735,4,1,0,100,0,1
142320,-62.7590525125491,4,1,0,100,0,1
142387,-63.0943567982672,4,1,0,100,0,1
142487,-63.5981461356375,4,1,0,100,0,1
142587,-64.1059580783457,4,1,0,100,0,1
142687,-64.6178247456777,4,1,0,100,0,1
142787,-65.1337785133818,4,1,0,100,0,1
142887,-65.6538520157174,4,1,0,100,0,1
142937,-65.915443936772,4,1,0,100,0,1
142987,-66.1780781475181,4,1,0,100,0,1
143087,-66.706490066273,4,1,0,100,0,1
143187,-67.2391211942238,4,1,0,100,0,1
143287,-67.7760052204784,4,1,0,100,0,1
143387,-68.3171761031424,4,1,0,100,0,1
143453,-68.6767138400765,4,1,0,100,0,1
143520,-69.0436345560164,4,1,0,100,0,1
143587,-69.4125156280108,4,1,0,100,0,1
143653,-69.7778178873741,4,1,0,100,0,1
143720,-70.1506214981522,4,1,0,100,0,1
143787,-70.5254168956674,4,1,0,100,0,1
143853,-70.8965761009121,4,1,0,100,0,1
143920,-71.2753569278632,4,1,0,100,0,1
143978,-55.5555555555556,4,1,0,100,0,1
144187,-56.4462861052807,4,1,0,100,0,1
144287,-56.8969926108549,4,1,0,100,0,1
144387,-57.3512978714257,4,1,0,100,0,1
144437,-57.5798090055717,4,1,0,100,0,1
144487,-57.8092306219624,4,1,0,100,0,1
144587,-58.2708198268741,4,1,0,100,0,1
144653,-58.577485879028,4,1,0,100,0,1
144720,-58.8904492090257,4,1,0,100,0,1
144787,-59.205084615666,4,1,0,100,0,1
144887,-59.677819292126,4,1,0,100,0,1
144987,-60.1543286118583,4,1,0,100,0,1
145037,-60.3940081721309,4,1,0,100,0,1
145087,-60.6346427142466,4,1,0,100,0,1
145137,-60.8762360432455,4,1,0,100,0,1
145187,-61.1187919793285,4,1,0,100,0,1
145287,-61.6068070297171,4,1,0,100,0,1
145387,-62.0987187325376,4,1,0,100,0,1
145453,-62.425530144735,4,1,0,100,0,1
145520,-62.7590525125491,4,1,0,100,0,1
145587,-63.0943567982672,4,1,0,100,0,1
145687,-63.5981461356375,4,1,0,100,0,1
145787,-64.1059580783457,4,1,0,100,0,1
145887,-64.6178247456777,4,1,0,100,0,1
145987,-65.1337785133818,4,1,0,100,0,1
146087,-65.6538520157174,4,1,0,100,0,1
146137,-65.915443936772,4,1,0,100,0,1
146187,-66.1780781475181,4,1,0,100,0,1
146287,-66.706490066273,4,1,0,100,0,1
146387,-67.2391211942238,4,1,0,100,0,1
146487,-67.7760052204784,4,1,0,100,0,1
146587,-68.3171761031424,4,1,0,100,0,1
146653,-68.6767138400765,4,1,0,100,0,1
146720,-69.0436345560164,4,1,0,100,0,1
146787,-69.4125156280108,4,1,0,100,0,1
146853,-69.7778178873741,4,1,0,100,0,1
146920,-70.1506214981522,4,1,0,100,0,1
146987,-70.5254168956674,4,1,0,100,0,1
147053,-70.8965761009121,4,1,0,100,0,1
147120,-71.2753569278632,4,1,0,100,0,1
147178,-55.5555555555556,4,1,0,100,0,1
147387,-56.4462861052807,4,1,0,100,0,1
147487,-56.8969926108549,4,1,0,100,0,1
147587,-57.3512978714257,4,1,0,100,0,1
147637,-57.5798090055717,4,1,0,100,0,1
147687,-57.8092306219624,4,1,0,100,0,1
147787,-58.2708198268741,4,1,0,100,0,1
147853,-58.577485879028,4,1,0,100,0,1
147920,-58.8904492090257,4,1,0,100,0,1
147987,-59.205084615666,4,1,0,100,0,1
148087,-59.677819292126,4,1,0,100,0,1
148187,-60.1543286118583,4,1,0,100,0,1
148237,-60.3940081721309,4,1,0,100,0,1
148287,-60.6346427142466,4,1,0,100,0,1
148337,-60.8762360432455,4,1,0,100,0,1
148387,-61.1187919793285,4,1,0,100,0,1
148487,-61.6068070297171,4,1,0,100,0,1
148587,-62.0987187325376,4,1,0,100,0,1
148653,-62.425530144735,4,1,0,100,0,1
148720,-62.7590525125491,4,1,0,100,0,1
148787,-63.0943567982672,4,1,0,100,0,1
148887,-63.5981461356375,4,1,0,100,0,1
148987,-64.1059580783457,4,1,0,100,0,1
149087,-64.6178247456777,4,1,0,100,0,1
149187,-65.1337785133818,4,1,0,100,0,1
149287,-65.6538520157174,4,1,0,100,0,1
149337,-65.915443936772,4,1,0,100,0,1
149387,-66.1780781475181,4,1,0,100,0,1
149487,-66.706490066273,4,1,0,100,0,1
149587,-67.2391211942238,4,1,0,100,0,1
149687,-67.7760052204784,4,1,0,100,0,1
149787,-68.3171761031424,4,1,0,100,0,1
149853,-68.6767138400765,4,1,0,100,0,1
149920,-69.0436345560164,4,1,0,100,0,1
149987,-69.4125156280108,4,1,0,100,0,1
150053,-69.7778178873741,4,1,0,100,0,1
150120,-70.1506214981522,4,1,0,100,0,1
150187,-70.5254168956674,4,1,0,100,0,1
150253,-70.8965761009121,4,1,0,100,0,1
150320,-71.2753569278632,4,1,0,100,0,1
150378,-55.5555555555556,4,1,0,100,0,1
150587,-56.4462861052807,4,1,0,100,0,1
150687,-56.8969926108549,4,1,0,100,0,1
150787,-57.3512978714257,4,1,0,100,0,1
150837,-57.5798090055717,4,1,0,100,0,1
150887,-57.8092306219624,4,1,0,100,0,1
150987,-58.2708198268741,4,1,0,100,0,1
151053,-58.577485879028,4,1,0,100,0,1
151120,-58.8904492090257,4,1,0,100,0,1
151187,-59.205084615666,4,1,0,100,0,1
151287,-59.677819292126,4,1,0,100,0,1
151387,-60.1543286118583,4,1,0,100,0,1
151437,-60.3940081721309,4,1,0,100,0,1
151487,-60.6346427142466,4,1,0,100,0,1
151537,-60.8762360432455,4,1,0,100,0,1
151587,-61.1187919793285,4,1,0,100,0,1
151687,-61.6068070297171,4,1,0,100,0,1
151787,-62.0987187325376,4,1,0,100,0,1
151853,-62.425530144735,4,1,0,100,0,1
151920,-62.7590525125491,4,1,0,100,0,1
151987,-63.0943567982672,4,1,0,100,0,1
152087,-63.5981461356375,4,1,0,100,0,1
152187,-64.1059580783457,4,1,0,100,0,1
152287,-64.6178247456777,4,1,0,100,0,1
152387,-65.1337785133818,4,1,0,100,0,1
152487,-65.6538520157174,4,1,0,100,0,1
152537,-65.915443936772,4,1,0,100,0,1
152587,-66.1780781475181,4,1,0,100,0,1
152687,-66.706490066273,4,1,0,100,0,1
152787,-67.2391211942238,4,1,0,100,0,1
152887,-67.7760052204784,4,1,0,100,0,1
152987,-68.3171761031424,4,1,0,100,0,1
153053,-68.6767138400765,4,1,0,100,0,1
153120,-69.0436345560164,4,1,0,100,0,1
153212,-69.4125156280108,4,1,0,100,0,0
153253,-69.7778178873741,4,1,0,100,0,0
153320,-70.1506214981522,4,1,0,100,0,0
153387,-70.5254168956674,4,1,0,100,0,0
153453,-70.8965761009121,4,1,0,100,0,0
153520,-71.2753569278632,4,1,0,100,0,0
153612,-55.5555555555556,4,1,0,100,0,1
153778,-76.9230769230769,4,1,0,100,0,1
153878,-76.3925065351392,4,1,0,100,0,1
153978,-75.8655957113768,4,1,0,100,0,1
154078,-75.3423192102566,4,1,0,100,0,1
154178,-74.8226519643469,4,1,0,100,0,1
154244,-74.4816366332766,4,1,0,100,0,1
154311,-74.1370440963167,4,1,0,100,0,1
154378,-73.7940458317425,4,1,0,100,0,1
154478,-73.2850576699248,4,1,0,100,0,1
154578,-72.7795802107113,4,1,0,100,0,1
154678,-72.2775892393289,4,1,0,100,0,1
154778,-71.779060708024,4,1,0,100,0,1
154878,-71.2839707349104,4,1,0,100,0,1
154978,-70.7922956028252,4,1,0,100,0,1
155044,-70.4696492184958,4,1,0,100,0,1
155111,-70.1436183161079,4,1,0,100,0,1
155178,-69.8190958098947,4,1,0,100,0,1
155278,-69.3375245281536,4,1,0,100,0,1
155378,-68.8592748434156,4,1,0,100,0,1
155478,-68.3843238452475,4,1,0,100,0,1
155578,-67.9126487812389,4,1,0,100,0,1
155644,-67.6031268142945,4,1,0,100,0,1
155711,-67.2903580027006,4,1,0,100,0,1
155778,-66.9790362296405,4,1,0,100,0,1
155878,-66.5170540175719,4,1,0,100,0,1
155978,-66.0582582885624,4,1,0,100,0,1
156078,-65.6026270641159,4,1,0,100,0,1
156178,-65.1501385173311,4,1,0,100,0,1
156244,-64.853207100541,4,1,0,100,0,1
156311,-64.5531609123135,4,1,0,100,0,1
156378,-64.2545029008485,4,1,0,100,0,1
156478,-63.8113129259475,4,1,0,100,0,1
156578,-63.3711798162464,4,1,0,100,0,1
156678,-62.9340824872771,4,1,0,100,0,1
156778,-62.5,4,1,0,100,0,1
156978,-76.9230769230769,4,1,0,100,0,1
157078,-76.3925065351392,4,1,0,100,0,1
157178,-75.8655957113768,4,1,0,100,0,1
157278,-75.3423192102566,4,1,0,100,0,1
157378,-74.8226519643469,4,1,0,100,0,1
157444,-74.4816366332766,4,1,0,100,0,1
157511,-74.1370440963167,4,1,0,100,0,1
157578,-73.7940458317425,4,1,0,100,0,1
157678,-73.2850576699248,4,1,0,100,0,1
157778,-72.7795802107113,4,1,0,100,0,1
157878,-72.2775892393289,4,1,0,100,0,1
157978,-71.779060708024,4,1,0,100,0,1
158078,-71.2839707349104,4,1,0,100,0,1
158178,-70.7922956028252,4,1,0,100,0,1
158244,-70.4696492184958,4,1,0,100,0,1
158311,-70.1436183161079,4,1,0,100,0,1
158378,-69.8190958098947,4,1,0,100,0,1
158478,-69.3375245281536,4,1,0,100,0,1
158578,-68.8592748434156,4,1,0,100,0,1
158678,-68.3843238452475,4,1,0,100,0,1
158778,-67.9126487812389,4,1,0,100,0,1
158844,-67.6031268142945,4,1,0,100,0,1
158911,-67.2903580027006,4,1,0,100,0,1
158978,-66.9790362296405,4,1,0,100,0,1
159078,-66.5170540175719,4,1,0,100,0,1
159178,-66.0582582885624,4,1,0,100,0,1
159278,-65.6026270641159,4,1,0,100,0,1
159378,-65.1501385173311,4,1,0,100,0,1
159444,-64.853207100541,4,1,0,100,0,1
159511,-64.5531609123135,4,1,0,100,0,1
159578,-64.2545029008485,4,1,0,100,0,1
159678,-63.8113129259475,4,1,0,100,0,1
159778,-63.3711798162464,4,1,0,100,0,1
159878,-62.9340824872771,4,1,0,100,0,1
159978,-62.5,4,1,0,100,0,1
160178,-76.9230769230769,4,1,0,100,0,1
160278,-76.3925065351392,4,1,0,100,0,1
160378,-75.8655957113768,4,1,0,100,0,1
160478,-75.3423192102566,4,1,0,100,0,1
160578,-74.8226519643469,4,1,0,100,0,1
160644,-74.4816366332766,4,1,0,100,0,1
160711,-74.1370440963167,4,1,0,100,0,1
160778,-73.7940458317425,4,1,0,100,0,1
160878,-73.2850576699248,4,1,0,100,0,1
160978,-72.7795802107113,4,1,0,100,0,1
161078,-72.2775892393289,4,1,0,100,0,1
161178,-71.779060708024,4,1,0,100,0,1
161278,-71.2839707349104,4,1,0,100,0,1
161378,-70.7922956028252,4,1,0,100,0,1
161444,-70.4696492184958,4,1,0,100,0,1
161511,-70.1436183161079,4,1,0,100,0,1
161578,-69.8190958098947,4,1,0,100,0,1
161678,-69.3375245281536,4,1,0,100,0,1
161778,-68.8592748434156,4,1,0,100,0,1
161878,-68.3843238452475,4,1,0,100,0,1
161978,-67.9126487812389,4,1,0,100,0,1
162044,-67.6031268142945,4,1,0,100,0,1
162111,-67.2903580027006,4,1,0,100,0,1
162178,-66.9790362296405,4,1,0,100,0,1
162278,-66.5170540175719,4,1,0,100,0,1
162378,-66.0582582885624,4,1,0,100,0,1
162478,-65.6026270641159,4,1,0,100,0,1
162578,-65.1501385173311,4,1,0,100,0,1
162644,-64.853207100541,4,1,0,100,0,1
162711,-64.5531609123135,4,1,0,100,0,1
162778,-64.2545029008485,4,1,0,100,0,1
162878,-63.8113129259475,4,1,0,100,0,1
162978,-63.3711798162464,4,1,0,100,0,1
163078,-62.9340824872771,4,1,0,100,0,1
163178,-62.5,4,1,0,100,0,1
163378,-76.9230769230769,4,1,0,100,0,1
163478,-76.3925065351392,4,1,0,100,0,1
163578,-75.8655957113768,4,1,0,100,0,1
163678,-75.3423192102566,4,1,0,100,0,1
163778,-74.8226519643469,4,1,0,100,0,1
163844,-74.4816366332766,4,1,0,100,0,1
163911,-74.1370440963167,4,1,0,100,0,1
163978,-73.7940458317425,4,1,0,100,0,1
164078,-73.2850576699248,4,1,0,100,0,1
164178,-72.7795802107113,4,1,0,100,0,1
164278,-72.2775892393289,4,1,0,100,0,1
164378,-71.779060708024,4,1,0,100,0,1
164478,-71.2839707349104,4,1,0,100,0,1
164578,-70.7922956028252,4,1,0,100,0,1
164644,-70.4696492184958,4,1,0,100,0,1
164711,-70.1436183161079,4,1,0,100,0,1
164778,-69.8190958098947,4,1,0,100,0,1
164878,-69.3375245281536,4,1,0,100,0,1
164978,-68.8592748434156,4,1,0,100,0,1
165078,-68.3843238452475,4,1,0,100,0,1
165178,-67.9126487812389,4,1,0,100,0,1
165244,-67.6031268142945,4,1,0,100,0,1
165311,-67.2903580027006,4,1,0,100,0,1
165378,-66.9790362296405,4,1,0,100,0,1
165478,-66.5170540175719,4,1,0,100,0,1
165578,-66.0582582885624,4,1,0,100,0,1
165678,-65.6026270641159,4,1,0,100,0,1
165778,-65.1501385173311,4,1,0,100,0,1
165844,-64.853207100541,4,1,0,100,0,1
165911,-64.5531609123135,4,1,0,100,0,1
165978,-64.2545029008485,4,1,0,100,0,1
166078,-63.8113129259475,4,1,0,100,0,1
166178,-63.3711798162464,4,1,0,100,0,1
166278,-62.9340824872771,4,1,0,100,0,1
166412,-62.5,4,1,0,100,0,0
166512,-100,4,1,0,100,0,0

[HitObjects]
304,217,12812,5,4,0:0:0:0:
296,220,13112,1,4,0:0:0:0:
304,217,13412,1,4,0:0:0:0:
336,140,13612,1,8,0:0:0:0:
230,154,13812,1,8,0:0:0:0:
230,154,14012,1,0,0:0:0:0:
197,172,14412,1,8,0:0:0:0:
390,175,14812,1,8,0:0:0:0:
390,175,15012,1,8,0:0:0:0:
390,175,15212,1,0,0:0:0:0:
310,117,15412,1,0,0:0:0:0:
310,117,15612,1,8,0:0:0:0:
361,206,16012,1,4,0:0:0:0:
229,153,16312,1,4,0:0:0:0:
229,153,16612,1,4,0:0:0:0:
198,196,16812,1,8,0:0:0:0:
198,196,17012,1,8,0:0:0:0:
198,196,17212,1,0,0:0:0:0:
351,147,17612,1,8,0:0:0:0:
237,257,18012,1,8,0:0:0:0:
237,257,18212,1,0,0:0:0:0:
237,257,18412,1,8,0:0:0:0:
351,147,18612,1,8,0:0:0:0:
237,257,18812,1,0,0:0:0:0:
434,261,19012,1,8,0:0:0:0:
304,217,19212,5,4,0:0:0:0:
296,220,19512,1,4,0:0:0:0:
304,217,19812,1,4,0:0:0:0:
336,140,20012,1,8,0:0:0:0:
230,154,20212,1,8,0:0:0:0:
230,154,20412,1,0,0:0:0:0:
197,172,20812,1,8,0:0:0:0:
390,175,21212,1,8,0:0:0:0:
390,175,21412,1,8,0:0:0:0:
390,175,21612,1,0,0:0:0:0:
310,117,21812,1,0,0:0:0:0:
310,117,22012,1,8,0:0:0:0:
361,206,22412,1,4,0:0:0:0:
229,153,22712,1,4,0:0:0:0:
229,153,23012,1,4,0:0:0:0:
198,196,23212,1,8,0:0:0:0:
198,196,23412,1,8,0:0:0:0:
198,196,23612,1,0,0:0:0:0:
237,41,24012,1,4,0:0:0:0:
241,79,24312,1,4,0:0:0:0:
183,28,24612,1,4,0:0:0:0:
237,257,24812,1,8,0:0:0:0:
351,147,25012,1,8,0:0:0:0:
237,257,25212,1,0,0:0:0:0:
434,261,25412,1,8,0:0:0:0:
203,107,25612,1,4,0:0:0:0:
261,172,26012,1,8,0:0:0:0:
244,191,26412,1,8,0:0:0:0:
244,191,26612,1,8,0:0:0:0:
244,191,26812,1,0,0:0:0:0:
244,191,27212,1,8,0:0:0:0:
244,191,27612,1,0,0:0:0:0:
244,191,27812,1,0,0:0:0:0:
244,191,28012,1,8,0:0:0:0:
130,128,28812,1,4,0:0:0:0:
232,211,29212,1,8,0:0:0:0:
241,203,29612,1,0,0:0:0:0:
241,203,29812,1,0,0:0:0:0:
241,203,30012,1,8,0:0:0:0:
241,203,30412,1,8,0:0:0:0:
241,203,30812,1,8,0:0:0:0:
241,203,31012,1,8,0:0:0:0:
241,203,31212,1,0,0:0:0:0:
118,119,32012,5,4,0:0:0:0:
249,188,32412,1,8,0:0:0:0:
256,178,32812,1,0,0:0:0:0:
256,178,33212,1,8,0:0:0:0:
256,178,33612,1,0,0:0:0:0:
256,178,34012,1,8,0:0:0:0:
256,178,34412,1,0,0:0:0:0:
256,178,34812,1,8,0:0:0:0:
256,178,35212,1,0,0:0:0:0:
355,95,35312,1,0,0:0:0:0:
276,106,35412,1,8,0:0:0:0:
276,106,35512,1,8,0:0:0:0:
231,62,35612,1,0,0:0:0:0:
231,62,35712,1,0,0:0:0:0:
231,62,35812,1,8,0:0:0:0:
231,62,35912,1,8,0:0:0:0:
231,62,36012,1,0,0:0:0:0:
231,62,36112,1,0,0:0:0:0:
231,62,36212,1,8,0:0:0:0:
231,62,36312,1,8,0:0:0:0:
231,62,36412,1,0,0:0:0:0:
231,62,36512,1,0,0:0:0:0:
231,62,36612,1,8,0:0:0:0:
231,62,36712,1,8,0:0:0:0:
176,70,36812,1,4,0:0:0:0:
446,185,37212,5,8,0:0:0:0:
454,185,37412,1,0,0:0:0:0:
454,185,37612,1,8,0:0:0:0:
456,185,37812,1,8,0:0:0:0:
460,185,38012,1,0,0:0:0:0:
462,186,38212,1,8,0:0:0:0:
502,219,38412,1,4,0:0:0:0:
416,236,38812,1,8,0:0:0:0:
421,252,39012,1,4,0:0:0:0:
313,189,39812,1,8,0:0:0:0:
309,181,40212,1,8,0:0:0:0:
309,181,40412,1,0,0:0:0:0:
309,181,41012,1,0,0:0:0:0:
309,181,41212,1,8,0:0:0:0:
309,181,41612,1,4,0:0:0:0:
492,89,41812,1,0,0:0:0:0:
409,89,41912,1,0,0:0:0:0:
409,89,42012,1,8,0:0:0:0:
353,49,42112,1,0,0:0:0:0:
285,132,42212,1,8,0:0:0:0:
285,132,42278,1,8,0:0:0:0:
285,132,42345,1,8,0:0:0:0:
285,132,42412,1,0,0:0:0:0:
431,148,42512,1,0,0:0:0:0:
431,148,42612,1,8,0:0:0:0:
411,164,42712,1,0,0:0:0:0:
441,75,42812,1,8,0:0:0:0:
477,191,42912,1,8,0:0:0:0:
441,147,43012,1,0,0:0:0:0:
339,123,43078,1,8,0:0:0:0:
367,111,43145,1,8,0:0:0:0:
339,123,43212,1,0,0:0:0:0:
216,136,43312,1,0,0:0:0:0:
216,136,43412,1,8,0:0:0:0:
254,69,43512,1,0,0:0:0:0:
388,67,43612,1,8,0:0:0:0:
388,67,43678,1,8,0:0:0:0:
388,67,43745,1,0,0:0:0:0:
388,67,43812,1,0,0:0:0:0:
396,62,43912,1,8,0:0:0:0:
396,62,44012,1,0,0:0:0:0:
454,160,44112,1,0,0:0:0:0:
454,160,44212,1,8,0:0:0:0:
150,109,44278,1,0,0:0:0:0:
150,109,44345,1,0,0:0:0:0:
164,80,44412,1,8,0:0:0:0:
272,30,44512,1,8,0:0:0:0:
272,30,44612,1,0,0:0:0:0:
272,30,44712,1,8,0:0:0:0:
401,180,44812,1,4,0:0:0:0:
492,89,45012,1,0,0:0:0:0:
409,89,45112,1,0,0:0:0:0:
409,89,45212,1,8,0:0:0:0:
353,49,45312,1,0,0:0:0:0:
285,132,45412,1,8,0:0:0:0:
285,132,45478,1,8,0:0:0:0:
285,132,45545,1,8,0:0:0:0:
285,132,45612,1,0,0:0:0:0:
431,148,45712,1,0,0:0:0:0:
431,148,45812,1,8,0:0:0:0:
411,164,45912,1,0,0:0:0:0:
441,75,46012,1,8,0:0:0:0:
477,191,46112,1,8,0:0:0:0:
441,147,46212,1,0,0:0:0:0:
339,123,46278,1,8,0:0:0:0:
367,111,46345,1,8,0:0:0:0:
339,123,46412,1,0,0:0:0:0:
216,136,46512,1,0,0:0:0:0:
216,136,46612,1,8,0:0:0:0:
254,69,46712,1,0,0:0:0:0:
388,67,46812,1,8,0:0:0:0:
388,67,46878,1,8,0:0:0:0:
388,67,46945,1,0,0:0:0:0:
388,67,47012,1,0,0:0:0:0:
396,62,47112,1,8,0:0:0:0:
396,62,47212,1,0,0:0:0:0:
454,160,47312,1,0,0:0:0:0:
454,160,47412,1,8,0:0:0:0:
150,109,47478,1,0,0:0:0:0:
150,109,47545,1,0,0:0:0:0:
164,80,47612,1,8,0:0:0:0:
272,30,47712,1,8,0:0:0:0:
272,30,47812,1,0,0:0:0:0:
272,30,47912,1,8,0:0:0:0:
401,180,48012,1,4,0:0:0:0:
492,89,48212,1,0,0:0:0:0:
409,89,48312,1,0,0:0:0:0:
409,89,48412,1,8,0:0:0:0:
353,49,48512,1,0,0:0:0:0:
285,132,48612,1,8,0:0:0:0:
285,132,48678,1,8,0:0:0:0:
285,132,48745,1,8,0:0:0:0:
285,132,48812,1,0,0:0:0:0:
431,148,48912,1,0,0:0:0:0:
431,148,49012,1,8,0:0:0:0:
411,164,49112,1,0,0:0:0:0:
441,75,49212,1,8,0:0:0:0:
477,191,49312,1,8,0:0:0:0:
441,147,49412,1,0,0:0:0:0:
339,123,49478,1,8,0:0:0:0:
367,111,49545,1,8,0:0:0:0:
339,123,49612,1,0,0:0:0:0:
216,136,49712,1,0,0:0:0:0:
216,136,49812,1,8,0:0:0:0:
254,69,49912,1,0,0:0:0:0:
388,67,50012,1,8,0:0:0:0:
454,160,50612,1,8,0:0:0:0:
150,109,50678,1,0,0:0:0:0:
150,109,50745,1,0,0:0:0:0:
164,80,50812,1,12,0:0:0:0:
401,180,51212,1,4,0:0:0:0:
436,74,51412,1,0,0:0:0:0:
419,110,51512,1,0,0:0:0:0:
419,110,51612,1,8,0:0:0:0:
262,157,51662,1,8,0:0:0:0:
451,125,51712,1,0,0:0:0:0:
419,110,51812,1,8,0:0:0:0:
421,119,51912,1,8,0:0:0:0:
421,119,52012,1,0,0:0:0:0:
451,134,52112,1,0,0:0:0:0:
419,110,52212,1,8,0:0:0:0:
262,157,52262,1,8,0:0:0:0:
451,125,52312,1,0,0:0:0:0:
419,110,52412,1,8,0:0:0:0:
122,157,52512,1,0,0:0:0:0:
444,143,52612,1,8,0:0:0:0:
444,143,52678,1,8,0:0:0:0:
444,143,52745,1,8,0:0:0:0:
446,148,52812,1,0,0:0:0:0:
421,119,52912,1,0,0:0:0:0:
464,136,53012,1,8,0:0:0:0:
463,135,53112,1,0,0:0:0:0:
445,113,53212,1,8,0:0:0:0:
221,142,53262,1,8,0:0:0:0:
169,182,53312,1,0,0:0:0:0:
450,130,53412,1,8,0:0:0:0:
445,127,53512,1,8,0:0:0:0:
419,110,53612,1,0,0:0:0:0:
421,119,53712,1,0,0:0:0:0:
421,119,53812,1,8,0:0:0:0:
376,222,53878,1,8,0:0:0:0:
451,134,53945,1,0,0:0:0:0:
451,134,54012,1,8,0:0:0:0:
434,264,54078,1,0,0:0:0:0:
272,25,54145,1,0,0:0:0:0:
434,264,54212,1,8,0:0:0:0:
208,122,54278,1,8,0:0:0:0:
208,122,54345,1,8,0:0:0:0:
401,180,54412,1,4,0:0:0:0:
436,74,54612,1,0,0:0:0:0:
419,110,54712,1,0,0:0:0:0:
419,110,54812,1,8,0:0:0:0:
262,157,54862,1,8,0:0:0:0:
451,125,54912,1,0,0:0:0:0:
419,110,55012,1,8,0:0:0:0:
421,119,55112,1,8,0:0:0:0:
421,119,55212,1,0,0:0:0:0:
451,134,55312,1,0,0:0:0:0:
419,110,55412,1,8,0:0:0:0:
262,157,55462,1,8,0:0:0:0:
451,125,55512,1,0,0:0:0:0:
419,110,55612,1,8,0:0:0:0:
122,157,55712,1,0,0:0:0:0:
444,143,55812,1,8,0:0:0:0:
444,143,55878,1,8,0:0:0:0:
444,143,55945,1,8,0:0:0:0:
446,148,56012,1,0,0:0:0:0:
421,119,56112,1,0,0:0:0:0:
464,136,56212,1,8,0:0:0:0:
463,135,56312,1,0,0:0:0:0:
445,113,56412,1,8,0:0:0:0:
221,142,56462,1,8,0:0:0:0:
169,182,56512,1,0,0:0:0:0:
450,130,56612,1,8,0:0:0:0:
445,127,56712,1,8,0:0:0:0:
419,110,56812,1,0,0:0:0:0:
421,119,56912,1,0,0:0:0:0:
421,119,57012,1,8,0:0:0:0:
56,125,57078,1,8,0:0:0:0:
451,134,57145,1,0,0:0:0:0:
451,134,57212,1,8,0:0:0:0:
73,122,57278,1,0,0:0:0:0:
203,17,57345,1,0,0:0:0:0:
208,122,57412,1,0,0:0:0:0:
208,122,57478,1,8,0:0:0:0:
208,122,57545,1,8,0:0:0:0:
401,180,57612,1,4,0:0:0:0:
436,74,57812,1,0,0:0:0:0:
419,110,57912,1,0,0:0:0:0:
419,110,58012,1,8,0:0:0:0:
262,157,58062,1,8,0:0:0:0:
451,125,58112,1,0,0:0:0:0:
419,110,58212,1,8,0:0:0:0:
421,119,58312,1,8,0:0:0:0:
421,119,58412,1,0,0:0:0:0:
451,134,58512,1,0,0:0:0:0:
419,110,58612,1,8,0:0:0:0:
262,157,58662,1,8,0:0:0:0:
451,125,58712,1,0,0:0:0:0:
419,110,58812,1,8,0:0:0:0:
122,157,58912,1,0,0:0:0:0:
444,143,59012,1,8,0:0:0:0:
444,143,59078,1,8,0:0:0:0:
444,143,59145,1,8,0:0:0:0:
446,148,59212,1,0,0:0:0:0:
421,119,59312,1,0,0:0:0:0:
464,136,59412,1,8,0:0:0:0:
463,135,59512,1,0,0:0:0:0:
445,113,59612,1,8,0:0:0:0:
221,142,59662,1,8,0:0:0:0:
169,182,59712,1,0,0:0:0:0:
450,130,59812,1,8,0:0:0:0:
445,127,59912,1,8,0:0:0:0:
419,110,60012,1,0,0:0:0:0:
421,119,60112,1,0,0:0:0:0:
421,119,60212,1,8,0:0:0:0:
376,222,60278,1,8,0:0:0:0:
451,134,60345,1,0,0:0:0:0:
451,134,60412,1,8,0:0:0:0:
434,264,60478,1,0,0:0:0:0:
272,25,60545,1,0,0:0:0:0:
434,264,60612,1,8,0:0:0:0:
208,122,60678,1,8,0:0:0:0:
208,122,60745,1,8,0:0:0:0:
401,180,60812,1,4,0:0:0:0:
436,74,61012,1,0,0:0:0:0:
419,110,61112,1,0,0:0:0:0:
419,110,61212,1,8,0:0:0:0:
329,60,61262,1,8,0:0:0:0:
451,125,61312,1,0,0:0:0:0:
419,110,61412,1,8,0:0:0:0:
421,119,61478,1,8,0:0:0:0:
421,119,61545,1,8,0:0:0:0:
421,119,61612,1,0,0:0:0:0:
451,134,61712,1,0,0:0:0:0:
196,107,61812,1,8,0:0:0:0:
450,130,61912,1,0,0:0:0:0:
450,130,62012,1,8,0:0:0:0:
430,93,62062,1,8,0:0:0:0:
430,93,62112,1,0,0:0:0:0:
444,143,62212,1,8,0:0:0:0:
444,143,62278,1,8,0:0:0:0:
444,143,62345,1,8,0:0:0:0:
446,148,62412,1,0,0:0:0:0:
421,119,62512,1,0,0:0:0:0:
464,136,62612,1,8,0:0:0:0:
463,135,62712,1,0,0:0:0:0:
445,113,62812,1,8,0:0:0:0:
421,119,63412,1,8,0:0:0:0:
56,125,63478,1,8,0:0:0:0:
451,134,63545,1,0,0:0:0:0:
451,134,63612,1,8,0:0:0:0:
204,17,63712,1,0,0:0:0:0:
208,122,63812,1,0,0:0:0:0:
208,122,63912,1,8,0:0:0:0:
320,111,64012,1,4,0:0:0:0:
304,217,76812,5,4,0:0:0:0:
296,220,77112,1,4,0:0:0:0:
304,217,77412,1,4,0:0:0:0:
336,140,77612,1,8,0:0:0:0:
230,154,77812,1,8,0:0:0:0:
230,154,78012,1,0,0:0:0:0:
197,172,78412,1,8,0:0:0:0:
390,175,78812,1,8,0:0:0:0:
390,175,79012,1,8,0:0:0:0:
390,175,79212,1,0,0:0:0:0:
310,117,79412,1,0,0:0:0:0:
310,117,79612,1,8,0:0:0:0:
361,206,80012,1,4,0:0:0:0:
229,153,80312,1,4,0:0:0:0:
229,153,80612,1,4,0:0:0:0:
198,196,80812,1,8,0:0:0:0:
198,196,81012,1,8,0:0:0:0:
198,196,81212,1,0,0:0:0:0:
351,147,81612,1,8,0:0:0:0:
237,257,82012,1,8,0:0:0:0:
237,257,82212,1,0,0:0:0:0:
237,257,82412,1,8,0:0:0:0:
351,147,82612,1,8,0:0:0:0:
237,257,82812,1,0,0:0:0:0:
434,261,83012,1,8,0:0:0:0:
304,217,83212,5,4,0:0:0:0:
296,220,83512,1,4,0:0:0:0:
304,217,83812,1,4,0:0:0:0:
336,140,84012,1,8,0:0:0:0:
230,154,84212,1,8,0:0:0:0:
230,154,84412,1,0,0:0:0:0:
197,172,84812,1,8,0:0:0:0:
390,175,85212,1,8,0:0:0:0:
390,175,85412,1,8,0:0:0:0:
390,175,85612,1,0,0:0:0:0:
310,117,85812,1,0,0:0:0:0:
310,117,86012,1,8,0:0:0:0:
361,206,86412,1,4,0:0:0:0:
229,153,86712,1,4,0:0:0:0:
229,153,87012,1,4,0:0:0:0:
198,196,87212,1,8,0:0:0:0:
198,196,87412,1,8,0:0:0:0:
198,196,87612,1,0,0:0:0:0:
237,41,88012,1,4,0:0:0:0:
241,79,88312,1,4,0:0:0:0:
183,28,88612,1,4,0:0:0:0:
237,257,88812,1,8,0:0:0:0:
351,147,89012,1,8,0:0:0:0:
237,257,89212,1,0,0:0:0:0:
434,261,89412,1,8,0:0:0:0:
203,107,89612,1,4,0:0:0:0:
261,172,90012,1,8,0:0:0:0:
244,191,90412,1,8,0:0:0:0:
244,191,90612,1,8,0:0:0:0:
244,191,90812,1,0,0:0:0:0:
244,191,91212,1,8,0:0:0:0:
244,191,91612,1,0,0:0:0:0:
244,191,91812,1,0,0:0:0:0:
244,191,92012,1,8,0:0:0:0:
130,128,92812,1,4,0:0:0:0:
232,211,93212,1,8,0:0:0:0:
241,203,93612,1,0,0:0:0:0:
241,203,93812,1,0,0:0:0:0:
241,203,94012,1,8,0:0:0:0:
241,203,94412,1,8,0:0:0:0:
241,203,94812,1,8,0:0:0:0:
241,203,95012,1,8,0:0:0:0:
241,203,95212,1,0,0:0:0:0:
118,119,96012,5,4,0:0:0:0:
249,188,96412,1,8,0:0:0:0:
256,178,96812,1,0,0:0:0:0:
256,178,97212,1,8,0:0:0:0:
256,178,97612,1,0,0:0:0:0:
256,178,98012,1,8,0:0:0:0:
256,178,98412,1,0,0:0:0:0:
256,178,98812,1,8,0:0:0:0:
256,178,99212,1,0,0:0:0:0:
355,95,99312,1,0,0:0:0:0:
276,106,99412,1,8,0:0:0:0:
276,106,99512,1,8,0:0:0:0:
231,62,99612,1,0,0:0:0:0:
231,62,99712,1,0,0:0:0:0:
231,62,99812,1,8,0:0:0:0:
231,62,99912,1,8,0:0:0:0:
231,62,100012,1,0,0:0:0:0:
231,62,100112,1,0,0:0:0:0:
231,62,100212,1,8,0:0:0:0:
231,62,100312,1,8,0:0:0:0:
231,62,100412,5,0,0:0:0:0:
231,62,100512,1,0,0:0:0:0:
231,62,100612,1,8,0:0:0:0:
231,62,100712,1,8,0:0:0:0:
176,70,100812,1,4,0:0:0:0:
446,185,101212,5,8,0:0:0:0:
454,185,101412,1,0,0:0:0:0:
454,185,101612,1,8,0:0:0:0:
456,185,101812,1,8,0:0:0:0:
460,185,102012,1,0,0:0:0:0:
462,186,102212,1,8,0:0:0:0:
502,219,102412,1,4,0:0:0:0:
478,216,102812,1,8,0:0:0:0:
289,111,103212,1,0,0:0:0:0:
289,111,103412,1,8,0:0:0:0:
289,111,103612,1,0,0:0:0:0:
293,101,104012,1,8,0:0:0:0:
303,97,104412,1,0,0:0:0:0:
303,97,104612,1,8,0:0:0:0:
303,97,104812,1,0,0:0:0:0:
348,122,105012,1,0,0:0:0:0:
320,111,105212,1,8,0:0:0:0:
320,111,105612,1,4,0:0:0:0:
436,74,105812,1,8,0:0:0:0:
465,131,105862,1,8,0:0:0:0:
419,110,105912,1,0,0:0:0:0:
449,125,105962,1,0,0:0:0:0:
419,110,106012,1,8,0:0:0:0:
451,125,106112,1,8,0:0:0:0:
419,110,106212,1,0,0:0:0:0:
421,119,106278,1,0,0:0:0:0:
421,119,106345,1,8,0:0:0:0:
421,119,106412,1,0,0:0:0:0:
452,134,106478,1,8,0:0:0:0:
451,134,106545,1,8,0:0:0:0:
451,134,106612,1,0,0:0:0:0:
450,130,106712,1,0,0:0:0:0:
450,130,106812,1,8,0:0:0:0:
430,93,106862,1,8,0:0:0:0:
430,93,106912,1,0,0:0:0:0:
444,143,107012,1,8,0:0:0:0:
444,143,107078,1,8,0:0:0:0:
444,143,107145,1,8,0:0:0:0:
446,148,107212,1,0,0:0:0:0:
421,119,107312,1,0,0:0:0:0:
464,136,107412,1,8,0:0:0:0:
463,135,107512,1,0,0:0:0:0:
445,113,107612,1,8,0:0:0:0:
445,113,107662,1,8,0:0:0:0:
445,113,107712,1,0,0:0:0:0:
445,113,107762,1,0,0:0:0:0:
450,130,107812,1,8,0:0:0:0:
445,127,107912,1,8,0:0:0:0:
419,110,108012,1,0,0:0:0:0:
421,119,108078,1,0,0:0:0:0:
421,119,108145,1,8,0:0:0:0:
421,119,108212,1,0,0:0:0:0:
452,134,108278,1,8,0:0:0:0:
451,134,108345,1,8,0:0:0:0:
451,134,108412,1,0,0:0:0:0:
450,130,108512,1,0,0:0:0:0:
208,122,108612,1,8,0:0:0:0:
208,122,108678,1,8,0:0:0:0:
208,122,108745,1,8,0:0:0:0:
320,111,108812,1,4,0:0:0:0:
436,74,109012,1,8,0:0:0:0:
465,131,109062,1,8,0:0:0:0:
419,110,109112,1,0,0:0:0:0:
449,125,109162,1,0,0:0:0:0:
419,110,109212,1,8,0:0:0:0:
451,125,109312,1,8,0:0:0:0:
419,110,109412,1,0,0:0:0:0:
421,119,109478,1,0,0:0:0:0:
421,119,109545,1,8,0:0:0:0:
421,119,109612,1,0,0:0:0:0:
452,134,109678,1,8,0:0:0:0:
451,134,109745,1,8,0:0:0:0:
451,134,109812,1,0,0:0:0:0:
450,130,109912,1,0,0:0:0:0:
450,130,110012,1,8,0:0:0:0:
430,93,110062,1,8,0:0:0:0:
430,93,110112,1,0,0:0:0:0:
444,143,110212,1,8,0:0:0:0:
444,143,110278,1,8,0:0:0:0:
444,143,110345,1,8,0:0:0:0:
446,148,110412,1,0,0:0:0:0:
421,119,110512,1,0,0:0:0:0:
464,136,110612,1,8,0:0:0:0:
463,135,110712,1,0,0:0:0:0:
445,113,110812,1,8,0:0:0:0:
445,113,110862,1,8,0:0:0:0:
445,113,110912,1,0,0:0:0:0:
450,130,111012,1,8,0:0:0:0:
445,127,111112,1,8,0:0:0:0:
419,110,111212,1,0,0:0:0:0:
421,119,111278,1,0,0:0:0:0:
421,119,111345,1,0,0:0:0:0:
421,119,111412,1,8,0:0:0:0:
186,50,111512,1,0,0:0:0:0:
451,134,111612,1,0,0:0:0:0:
486,233,111678,1,8,0:0:0:0:
486,233,111745,1,8,0:0:0:0:
486,233,111812,1,0,0:0:0:0:
208,122,111878,1,0,0:0:0:0:
208,122,111945,1,8,0:0:0:0:
320,111,112012,1,4,0:0:0:0:
436,74,112212,1,8,0:0:0:0:
465,131,112262,1,8,0:0:0:0:
419,110,112312,1,0,0:0:0:0:
449,125,112362,1,0,0:0:0:0:
419,110,112412,1,8,0:0:0:0:
451,125,112512,1,8,0:0:0:0:
419,110,112612,1,0,0:0:0:0:
421,119,112678,1,0,0:0:0:0:
421,119,112745,1,8,0:0:0:0:
421,119,112812,1,0,0:0:0:0:
452,134,112878,1,8,0:0:0:0:
451,134,112945,1,8,0:0:0:0:
451,134,113012,1,0,0:0:0:0:
450,130,113112,1,0,0:0:0:0:
450,130,113212,1,8,0:0:0:0:
430,93,113262,1,8,0:0:0:0:
430,93,113312,1,0,0:0:0:0:
444,143,113412,1,8,0:0:0:0:
444,143,113478,1,8,0:0:0:0:
444,143,113545,1,8,0:0:0:0:
446,148,113612,1,0,0:0:0:0:
421,119,113712,1,0,0:0:0:0:
464,136,113812,1,8,0:0:0:0:
463,135,113912,1,0,0:0:0:0:
445,113,114012,1,8,0:0:0:0:
445,113,114062,1,8,0:0:0:0:
445,113,114112,1,0,0:0:0:0:
445,113,114162,1,0,0:0:0:0:
450,130,114212,1,8,0:0:0:0:
445,127,114312,1,8,0:0:0:0:
419,110,114412,1,0,0:0:0:0:
421,119,114478,1,0,0:0:0:0:
421,119,114545,1,8,0:0:0:0:
421,119,114612,1,0,0:0:0:0:
452,134,114678,1,8,0:0:0:0:
451,134,114745,1,8,0:0:0:0:
451,134,114812,1,0,0:0:0:0:
450,130,114912,1,0,0:0:0:0:
208,122,115012,1,8,0:0:0:0:
208,122,115078,1,8,0:0:0:0:
208,122,115145,1,8,0:0:0:0:
320,111,115212,1,4,0:0:0:0:
436,74,115412,1,8,0:0:0:0:
465,131,115462,1,8,0:0:0:0:
419,110,115512,1,0,0:0:0:0:
449,125,115562,1,0,0:0:0:0:
419,110,115612,1,8,0:0:0:0:
451,125,115712,1,8,0:0:0:0:
419,110,115812,1,0,0:0:0:0:
421,119,115878,1,0,0:0:0:0:
421,119,115945,1,8,0:0:0:0:
421,119,116012,1,0,0:0:0:0:
452,134,116078,1,8,0:0:0:0:
451,134,116145,1,8,0:0:0:0:
451,134,116212,1,0,0:0:0:0:
450,130,116312,1,0,0:0:0:0:
450,130,116412,1,8,0:0:0:0:
430,93,116462,1,8,0:0:0:0:
430,93,116512,1,0,0:0:0:0:
444,143,116612,1,8,0:0:0:0:
444,143,116678,1,8,0:0:0:0:
444,143,116745,1,8,0:0:0:0:
446,148,116812,1,0,0:0:0:0:
421,119,116912,1,0,0:0:0:0:
464,136,117012,1,8,0:0:0:0:
463,135,117112,1,0,0:0:0:0:
445,113,117212,1,8,0:0:0:0:
445,113,117262,1,8,0:0:0:0:
445,113,117312,1,0,0:0:0:0:
450,130,117412,1,8,0:0:0:0:
445,127,117512,1,8,0:0:0:0:
419,110,117612,1,0,0:0:0:0:
421,119,117678,1,0,0:0:0:0:
421,119,117745,1,0,0:0:0:0:
421,119,117812,1,8,0:0:0:0:
186,50,117912,1,0,0:0:0:0:
451,134,118012,1,0,0:0:0:0:
486,233,118078,1,8,0:0:0:0:
486,233,118145,1,8,0:0:0:0:
486,233,118212,1,0,0:0:0:0:
208,122,118278,1,0,0:0:0:0:
208,122,118345,1,8,0:0:0:0:
320,111,118412,1,4,0:0:0:0:
436,74,118612,1,8,0:0:0:0:
465,131,118662,1,8,0:0:0:0:
419,110,118712,1,0,0:0:0:0:
449,125,118762,1,0,0:0:0:0:
419,110,118812,1,8,0:0:0:0:
451,125,118912,1,8,0:0:0:0:
419,110,119012,1,0,0:0:0:0:
421,119,119078,1,0,0:0:0:0:
421,119,119145,1,8,0:0:0:0:
421,119,119212,1,0,0:0:0:0:
452,134,119278,1,8,0:0:0:0:
451,134,119345,1,8,0:0:0:0:
451,134,119412,1,0,0:0:0:0:
450,130,119512,1,0,0:0:0:0:
450,130,119612,1,8,0:0:0:0:
430,93,119662,1,8,0:0:0:0:
430,93,119712,1,0,0:0:0:0:
444,143,119812,1,8,0:0:0:0:
444,143,119878,1,8,0:0:0:0:
444,143,119945,1,8,0:0:0:0:
446,148,120012,1,0,0:0:0:0:
421,119,120112,1,0,0:0:0:0:
464,136,120212,1,8,0:0:0:0:
463,135,120312,1,0,0:0:0:0:
445,113,120412,1,8,0:0:0:0:
445,113,120462,1,8,0:0:0:0:
445,113,120512,1,0,0:0:0:0:
445,113,120562,1,0,0:0:0:0:
450,130,120612,1,8,0:0:0:0:
445,127,120712,1,8,0:0:0:0:
419,110,120812,1,0,0:0:0:0:
421,119,120878,1,0,0:0:0:0:
421,119,120945,1,8,0:0:0:0:
421,119,121012,1,0,0:0:0:0:
452,134,121078,1,8,0:0:0:0:
451,134,121145,1,8,0:0:0:0:
451,134,121212,1,0,0:0:0:0:
450,130,121312,1,0,0:0:0:0:
208,122,121412,1,8,0:0:0:0:
208,122,121478,1,8,0:0:0:0:
208,122,121545,1,8,0:0:0:0:
320,111,121612,1,4,0:0:0:0:
436,74,121812,1,8,0:0:0:0:
465,131,121862,1,8,0:0:0:0:
419,110,121912,1,0,0:0:0:0:
449,125,121962,1,0,0:0:0:0:
419,110,122012,1,8,0:0:0:0:
451,125,122112,1,8,0:0:0:0:
419,110,122212,1,0,0:0:0:0:
421,119,122278,1,0,0:0:0:0:
421,119,122345,1,8,0:0:0:0:
421,119,122412,1,0,0:0:0:0:
452,134,122478,1,8,0:0:0:0:
451,134,122545,1,8,0:0:0:0:
451,134,122612,1,0,0:0:0:0:
450,130,122712,1,0,0:0:0:0:
450,130,122812,1,8,0:0:0:0:
430,93,122862,1,8,0:0:0:0:
430,93,122912,1,0,0:0:0:0:
444,143,123012,1,8,0:0:0:0:
444,143,123078,1,8,0:0:0:0:
444,143,123145,1,8,0:0:0:0:
446,148,123212,1,0,0:0:0:0:
421,119,123312,1,0,0:0:0:0:
464,136,123412,1,8,0:0:0:0:
463,135,123512,1,0,0:0:0:0:
445,113,123612,1,8,0:0:0:0:
445,113,123662,1,8,0:0:0:0:
445,113,123712,1,0,0:0:0:0:
450,130,123812,1,8,0:0:0:0:
445,127,123912,1,8,0:0:0:0:
419,110,124012,1,0,0:0:0:0:
421,119,124078,1,0,0:0:0:0:
421,119,124145,1,0,0:0:0:0:
421,119,124212,1,8,0:0:0:0:
186,50,124312,1,0,0:0:0:0:
451,134,124412,1,0,0:0:0:0:
486,233,124478,1,8,0:0:0:0:
486,233,124545,1,8,0:0:0:0:
486,233,124612,1,0,0:0:0:0:
208,122,124678,1,0,0:0:0:0:
208,122,124745,1,8,0:0:0:0:
320,111,124812,1,4,0:0:0:0:
436,74,125012,1,8,0:0:0:0:
465,131,125062,1,8,0:0:0:0:
419,110,125112,1,0,0:0:0:0:
449,125,125162,1,0,0:0:0:0:
419,110,125212,1,8,0:0:0:0:
451,125,125312,1,8,0:0:0:0:
419,110,125412,1,0,0:0:0:0:
421,119,125478,1,0,0:0:0:0:
421,119,125545,1,8,0:0:0:0:
421,119,125612,1,0,0:0:0:0:
452,134,125678,1,8,0:0:0:0:
451,134,125745,1,8,0:0:0:0:
451,134,125812,1,0,0:0:0:0:
450,130,125912,1,0,0:0:0:0:
450,130,126012,1,8,0:0:0:0:
430,93,126062,1,8,0:0:0:0:
430,93,126112,1,0,0:0:0:0:
444,143,126212,1,8,0:0:0:0:
444,143,126278,1,8,0:0:0:0:
444,143,126345,1,8,0:0:0:0:
446,148,126412,1,0,0:0:0:0:
421,119,126512,1,0,0:0:0:0:
464,136,126612,1,8,0:0:0:0:
463,135,126712,1,0,0:0:0:0:
445,113,126812,1,8,0:0:0:0:
445,113,126862,1,8,0:0:0:0:
445,113,126912,1,0,0:0:0:0:
445,113,126962,1,0,0:0:0:0:
450,130,127012,1,8,0:0:0:0:
445,127,127112,1,8,0:0:0:0:
419,110,127212,1,0,0:0:0:0:
421,119,127278,1,0,0:0:0:0:
421,119,127345,1,8,0:0:0:0:
421,119,127412,1,0,0:0:0:0:
452,134,127478,1,8,0:0:0:0:
451,134,127545,1,8,0:0:0:0:
451,134,127612,1,0,0:0:0:0:
450,130,127712,1,0,0:0:0:0:
208,122,127812,1,8,0:0:0:0:
208,122,127878,1,8,0:0:0:0:
208,122,127945,1,8,0:0:0:0:
320,111,128012,1,4,0:0:0:0:
400,203,128412,5,8,0:0:0:0:
422,197,128612,1,0,0:0:0:0:
402,182,129012,1,8,0:0:0:0:
402,182,129212,1,8,0:0:0:0:
422,161,130012,1,0,0:0:0:0:
423,155,130212,1,8,0:0:0:0:
408,178,130612,1,0,0:0:0:0:
408,178,130812,1,8,0:0:0:0:
408,178,131012,1,8,0:0:0:0:
320,111,131212,1,4,0:0:0:0:
436,74,131412,1,0,0:0:0:0:
419,110,131512,1,0,0:0:0:0:
419,110,131612,1,8,0:0:0:0:
262,157,131662,1,8,0:0:0:0:
451,125,131712,1,0,0:0:0:0:
419,110,131812,1,8,0:0:0:0:
421,119,131878,1,8,0:0:0:0:
421,119,131945,1,8,0:0:0:0:
421,119,132012,1,0,0:0:0:0:
451,134,132112,1,0,0:0:0:0:
196,107,132212,1,8,0:0:0:0:
169,111,132262,1,8,0:0:0:0:
450,130,132312,1,0,0:0:0:0:
334,194,132362,1,0,0:0:0:0:
450,130,132412,1,8,0:0:0:0:
430,93,132512,1,0,0:0:0:0:
444,143,132612,1,8,0:0:0:0:
444,143,132678,1,8,0:0:0:0:
444,143,132745,1,8,0:0:0:0:
446,148,132812,1,0,0:0:0:0:
421,119,132912,1,0,0:0:0:0:
464,136,133012,1,8,0:0:0:0:
463,135,133112,1,0,0:0:0:0:
445,113,133212,1,8,0:0:0:0:
169,182,133312,1,0,0:0:0:0:
445,113,133362,1,0,0:0:0:0:
450,130,133412,1,8,0:0:0:0:
445,127,133512,1,8,0:0:0:0:
419,110,133612,1,0,0:0:0:0:
421,119,133712,1,0,0:0:0:0:
421,119,133812,1,8,0:0:0:0:
452,134,133878,1,0,0:0:0:0:
451,134,133945,1,0,0:0:0:0:
451,134,134012,1,8,0:0:0:0:
296,265,134112,1,0,0:0:0:0:
208,122,134212,1,0,0:0:0:0:
208,122,134278,1,8,0:0:0:0:
208,122,134345,1,8,0:0:0:0:
320,111,134412,1,4,0:0:0:0:
436,74,134612,1,0,0:0:0:0:
419,110,134712,1,0,0:0:0:0:
419,110,134812,1,8,0:0:0:0:
262,157,134862,1,8,0:0:0:0:
451,125,134912,1,0,0:0:0:0:
419,110,135012,1,8,0:0:0:0:
421,119,135078,1,8,0:0:0:0:
421,119,135145,1,8,0:0:0:0:
421,119,135212,1,0,0:0:0:0:
451,134,135312,1,0,0:0:0:0:
196,107,135412,1,8,0:0:0:0:
169,111,135462,1,8,0:0:0:0:
450,130,135512,1,0,0:0:0:0:
334,194,135562,1,0,0:0:0:0:
450,130,135612,1,8,0:0:0:0:
430,93,135712,1,0,0:0:0:0:
444,143,135812,1,8,0:0:0:0:
444,143,135878,1,8,0:0:0:0:
444,143,135945,1,8,0:0:0:0:
446,148,136012,1,0,0:0:0:0:
421,119,136112,1,0,0:0:0:0:
464,136,136212,1,8,0:0:0:0:
463,135,136312,1,0,0:0:0:0:
445,113,136412,1,8,0:0:0:0:
169,182,136512,1,0,0:0:0:0:
445,113,136562,1,0,0:0:0:0:
450,130,136612,1,8,0:0:0:0:
445,127,136712,1,8,0:0:0:0:
419,110,136812,1,0,0:0:0:0:
421,119,136912,1,0,0:0:0:0:
421,119,137012,1,8,0:0:0:0:
452,134,137078,1,0,0:0:0:0:
451,134,137145,1,0,0:0:0:0:
451,134,137212,1,8,0:0:0:0:
296,265,137312,1,0,0:0:0:0:
208,122,137412,1,0,0:0:0:0:
208,122,137478,1,8,0:0:0:0:
208,122,137545,1,8,0:0:0:0:
320,111,137612,1,4,0:0:0:0:
436,74,137812,1,0,0:0:0:0:
419,110,137912,1,0,0:0:0:0:
419,110,138012,1,8,0:0:0:0:
262,157,138062,1,8,0:0:0:0:
451,125,138112,1,0,0:0:0:0:
419,110,138212,1,8,0:0:0:0:
421,119,138278,1,8,0:0:0:0:
421,119,138345,1,8,0:0:0:0:
421,119,138412,1,0,0:0:0:0:
451,134,138512,1,0,0:0:0:0:
196,107,138612,1,8,0:0:0:0:
450,130,138712,1,0,0:0:0:0:
450,130,138812,1,8,0:0:0:0:
430,93,138862,1,8,0:0:0:0:
430,93,138912,1,0,0:0:0:0:
444,143,139012,1,8,0:0:0:0:
444,143,139078,1,8,0:0:0:0:
444,143,139145,1,8,0:0:0:0:
446,148,139212,1,0,0:0:0:0:
421,119,139312,1,0,0:0:0:0:
464,136,139412,1,8,0:0:0:0:
463,135,139512,1,0,0:0:0:0:
445,113,139612,1,8,0:0:0:0:
421,119,140212,1,8,0:0:0:0:
452,134,140278,1,0,0:0:0:0:
451,134,140345,1,0,0:0:0:0:
451,134,140412,1,12,0:0:0:0:
320,111,140812,1,4,0:0:0:0:
436,74,141012,1,0,0:0:0:0:
419,110,141112,1,0,0:0:0:0:
419,110,141212,1,8,0:0:0:0:
262,157,141262,1,8,0:0:0:0:
451,125,141312,1,0,0:0:0:0:
419,110,141412,1,8,0:0:0:0:
421,119,141478,1,8,0:0:0:0:
421,119,141545,1,8,0:0:0:0:
421,119,141612,1,0,0:0:0:0:
451,134,141712,1,0,0:0:0:0:
196,107,141812,1,8,0:0:0:0:
245,113,141862,1,8,0:0:0:0:
450,130,141912,1,0,0:0:0:0:
245,113,141962,1,0,0:0:0:0:
450,130,142012,1,8,0:0:0:0:
430,93,142112,1,0,0:0:0:0:
444,143,142212,1,8,0:0:0:0:
444,143,142278,1,8,0:0:0:0:
444,143,142345,1,8,0:0:0:0:
446,148,142412,1,0,0:0:0:0:
421,119,142512,1,0,0:0:0:0:
464,136,142612,1,8,0:0:0:0:
463,135,142712,1,0,0:0:0:0:
445,113,142812,1,8,0:0:0:0:
169,182,142912,1,0,0:0:0:0:
445,113,142962,1,0,0:0:0:0:
450,130,143012,1,8,0:0:0:0:
445,127,143112,1,8,0:0:0:0:
419,110,143212,1,0,0:0:0:0:
421,119,143312,1,0,0:0:0:0:
421,119,143412,1,8,0:0:0:0:
376,222,143478,1,8,0:0:0:0:
451,134,143545,1,0,0:0:0:0:
451,134,143612,1,8,0:0:0:0:
434,264,143678,1,0,0:0:0:0:
272,25,143745,1,0,0:0:0:0:
434,264,143812,1,8,0:0:0:0:
208,122,143878,1,8,0:0:0:0:
208,122,143945,1,8,0:0:0:0:
320,111,144012,1,4,0:0:0:0:
436,74,144212,1,0,0:0:0:0:
419,110,144312,1,0,0:0:0:0:
419,110,144412,1,8,0:0:0:0:
262,157,144462,1,8,0:0:0:0:
451,125,144512,1,0,0:0:0:0:
419,110,144612,1,8,0:0:0:0:
421,119,144678,1,8,0:0:0:0:
421,119,144745,1,8,0:0:0:0:
421,119,144812,1,0,0:0:0:0:
451,134,144912,1,0,0:0:0:0:
196,107,145012,1,8,0:0:0:0:
245,113,145062,1,8,0:0:0:0:
450,130,145112,1,0,0:0:0:0:
245,113,145162,1,0,0:0:0:0:
450,130,145212,1,8,0:0:0:0:
430,93,145312,1,0,0:0:0:0:
444,143,145412,1,8,0:0:0:0:
444,143,145478,1,8,0:0:0:0:
444,143,145545,1,8,0:0:0:0:
446,148,145612,1,0,0:0:0:0:
421,119,145712,1,0,0:0:0:0:
464,136,145812,1,8,0:0:0:0:
463,135,145912,1,0,0:0:0:0:
445,113,146012,1,8,0:0:0:0:
169,182,146112,1,0,0:0:0:0:
445,113,146162,1,0,0:0:0:0:
450,130,146212,1,8,0:0:0:0:
445,127,146312,1,8,0:0:0:0:
419,110,146412,1,0,0:0:0:0:
421,119,146512,1,0,0:0:0:0:
421,119,146612,1,8,0:0:0:0:
376,222,146678,1,8,0:0:0:0:
451,134,146745,1,0,0:0:0:0:
451,134,146812,1,8,0:0:0:0:
434,264,146878,1,0,0:0:0:0:
272,25,146945,1,0,0:0:0:0:
434,264,147012,1,8,0:0:0:0:
208,122,147078,1,8,0:0:0:0:
208,122,147145,1,8,0:0:0:0:
320,111,147212,1,4,0:0:0:0:
436,74,147412,1,0,0:0:0:0:
419,110,147512,1,0,0:0:0:0:
419,110,147612,1,8,0:0:0:0:
262,157,147662,1,8,0:0:0:0:
451,125,147712,1,0,0:0:0:0:
419,110,147812,1,8,0:0:0:0:
421,119,147878,1,8,0:0:0:0:
421,119,147945,1,8,0:0:0:0:
421,119,148012,1,0,0:0:0:0:
451,134,148112,1,0,0:0:0:0:
196,107,148212,1,8,0:0:0:0:
245,113,148262,1,8,0:0:0:0:
450,130,148312,1,0,0:0:0:0:
245,113,148362,1,0,0:0:0:0:
450,130,148412,1,8,0:0:0:0:
430,93,148512,1,0,0:0:0:0:
444,143,148612,1,8,0:0:0:0:
444,143,148678,1,8,0:0:0:0:
444,143,148745,1,8,0:0:0:0:
446,148,148812,1,0,0:0:0:0:
421,119,148912,1,0,0:0:0:0:
464,136,149012,1,8,0:0:0:0:
463,135,149112,1,0,0:0:0:0:
445,113,149212,1,8,0:0:0:0:
169,182,149312,1,0,0:0:0:0:
445,113,149362,1,0,0:0:0:0:
450,130,149412,1,8,0:0:0:0:
445,127,149512,1,8,0:0:0:0:
419,110,149612,1,0,0:0:0:0:
421,119,149712,1,0,0:0:0:0:
421,119,149812,1,8,0:0:0:0:
376,222,149878,1,8,0:0:0:0:
451,134,149945,1,0,0:0:0:0:
451,134,150012,1,8,0:0:0:0:
434,264,150078,1,0,0:0:0:0:
272,25,150145,1,0,0:0:0:0:
434,264,150212,1,8,0:0:0:0:
208,122,150278,1,8,0:0:0:0:
208,122,150345,1,8,0:0:0:0:
320,111,150412,1,4,0:0:0:0:
436,74,150612,1,0,0:0:0:0:
419,110,150712,1,0,0:0:0:0:
419,110,150812,1,8,0:0:0:0:
262,157,150862,1,8,0:0:0:0:
451,125,150912,1,0,0:0:0:0:
419,110,151012,1,8,0:0:0:0:
421,119,151078,1,8,0:0:0:0:
421,119,151145,1,8,0:0:0:0:
421,119,151212,1,0,0:0:0:0:
451,134,151312,1,0,0:0:0:0:
196,107,151412,1,8,0:0:0:0:
245,113,151462,1,8,0:0:0:0:
450,130,151512,1,0,0:0:0:0:
245,113,151562,1,0,0:0:0:0:
450,130,151612,1,8,0:0:0:0:
430,93,151712,1,0,0:0:0:0:
444,143,151812,1,8,0:0:0:0:
444,143,151878,1,8,0:0:0:0:
444,143,151945,1,8,0:0:0:0:
446,148,152012,1,0,0:0:0:0:
421,119,152112,1,0,0:0:0:0:
464,136,152212,1,8,0:0:0:0:
463,135,152312,1,0,0:0:0:0:
445,113,152412,1,8,0:0:0:0:
169,182,152512,1,0,0:0:0:0:
445,113,152562,1,0,0:0:0:0:
450,130,152612,1,8,0:0:0:0:
445,127,152712,1,8,0:0:0:0:
419,110,152812,1,0,0:0:0:0:
421,119,152912,1,0,0:0:0:0:
421,119,153012,1,8,0:0:0:0:
376,222,153078,1,8,0:0:0:0:
451,134,153145,1,0,0:0:0:0:
451,134,153212,1,8,0:0:0:0:
434,264,153278,1,0,0:0:0:0:
272,25,153345,1,0,0:0:0:0:
434,264,153412,1,8,0:0:0:0:
208,122,153478,1,8,0:0:0:0:
208,122,153545,1,8,0:0:0:0:
320,111,153612,1,4,0:0:0:0:
492,89,153812,5,0,0:0:0:0:
409,89,153912,1,0,0:0:0:0:
409,89,154012,1,8,0:0:0:0:
353,49,154112,1,0,0:0:0:0:
285,132,154212,1,8,0:0:0:0:
285,132,154278,1,8,0:0:0:0:
285,132,154345,1,8,0:0:0:0:
285,132,154412,1,0,0:0:0:0:
431,148,154512,1,0,0:0:0:0:
431,148,154612,1,8,0:0:0:0:
411,164,154712,1,0,0:0:0:0:
441,75,154812,1,8,0:0:0:0:
477,191,154912,1,8,0:0:0:0:
441,147,155012,1,0,0:0:0:0:
339,123,155078,1,8,0:0:0:0:
367,111,155145,1,8,0:0:0:0:
339,123,155212,1,0,0:0:0:0:
216,136,155312,1,0,0:0:0:0:
216,136,155412,1,8,0:0:0:0:
254,69,155512,1,0,0:0:0:0:
388,67,155612,1,8,0:0:0:0:
388,67,155678,1,8,0:0:0:0:
388,67,155745,1,0,0:0:0:0:
388,67,155812,1,0,0:0:0:0:
396,62,155912,1,8,0:0:0:0:
396,62,156012,1,0,0:0:0:0:
454,160,156112,1,0,0:0:0:0:
454,160,156212,1,8,0:0:0:0:
150,109,156278,1,0,0:0:0:0:
150,109,156345,1,0,0:0:0:0:
164,80,156412,1,8,0:0:0:0:
272,30,156512,1,8,0:0:0:0:
272,30,156612,1,0,0:0:0:0:
272,30,156712,1,8,0:0:0:0:
401,180,156812,1,4,0:0:0:0:
492,89,157012,1,0,0:0:0:0:
409,89,157112,1,0,0:0:0:0:
409,89,157212,1,8,0:0:0:0:
353,49,157312,1,0,0:0:0:0:
285,132,157412,1,8,0:0:0:0:
285,132,157478,1,8,0:0:0:0:
285,132,157545,1,8,0:0:0:0:
285,132,157612,1,0,0:0:0:0:
431,148,157712,1,0,0:0:0:0:
431,148,157812,1,8,0:0:0:0:
411,164,157912,1,0,0:0:0:0:
441,75,158012,1,8,0:0:0:0:
477,191,158112,1,8,0:0:0:0:
441,147,158212,1,0,0:0:0:0:
339,123,158278,1,8,0:0:0:0:
367,111,158345,1,8,0:0:0:0:
339,123,158412,1,0,0:0:0:0:
216,136,158512,1,0,0:0:0:0:
216,136,158612,1,8,0:0:0:0:
254,69,158712,1,0,0:0:0:0:
388,67,158812,1,8,0:0:0:0:
388,67,158878,1,8,0:0:0:0:
388,67,158945,1,0,0:0:0:0:
388,67,159012,1,0,0:0:0:0:
396,62,159112,1,8,0:0:0:0:
396,62,159212,1,0,0:0:0:0:
454,160,159312,1,0,0:0:0:0:
454,160,159412,1,8,0:0:0:0:
150,109,159478,1,0,0:0:0:0:
150,109,159545,1,0,0:0:0:0:
164,80,159612,1,8,0:0:0:0:
272,30,159712,1,8,0:0:0:0:
272,30,159812,1,0,0:0:0:0:
272,30,159912,1,8,0:0:0:0:
401,180,160012,1,4,0:0:0:0:
492,89,160212,1,0,0:0:0:0:
409,89,160312,1,0,0:0:0:0:
409,89,160412,1,8,0:0:0:0:
353,49,160512,1,0,0:0:0:0:
285,132,160612,1,8,0:0:0:0:
285,132,160678,1,8,0:0:0:0:
285,132,160745,1,8,0:0:0:0:
285,132,160812,1,0,0:0:0:0:
431,148,160912,1,0,0:0:0:0:
431,148,161012,1,8,0:0:0:0:
411,164,161112,1,0,0:0:0:0:
441,75,161212,1,8,0:0:0:0:
477,191,161312,1,8,0:0:0:0:
441,147,161412,1,0,0:0:0:0:
339,123,161478,1,8,0:0:0:0:
367,111,161545,1,8,0:0:0:0:
339,123,161612,1,0,0:0:0:0:
216,136,161712,1,0,0:0:0:0:
216,136,161812,1,8,0:0:0:0:
254,69,161912,1,0,0:0:0:0:
388,67,162012,1,8,0:0:0:0:
388,67,162078,1,8,0:0:0:0:
388,67,162145,1,0,0:0:0:0:
388,67,162212,1,0,0:0:0:0:
396,62,162312,1,8,0:0:0:0:
396,62,162412,1,0,0:0:0:0:
454,160,162512,1,0,0:0:0:0:
454,160,162612,1,8,0:0:0:0:
150,109,162678,1,0,0:0:0:0:
150,109,162745,1,0,0:0:0:0:
297,207,162812,1,8,0:0:0:0:
342,120,162912,1,0,0:0:0:0:
253,237,163012,1,8,0:0:0:0:
253,237,163112,1,8,0:0:0:0:
309,181,163212,1,4,0:0:0:0:
492,89,163412,1,0,0:0:0:0:
409,89,163512,1,0,0:0:0:0:
409,89,163612,1,8,0:0:0:0:
353,49,163712,1,0,0:0:0:0:
285,132,163812,1,8,0:0:0:0:
285,132,163878,1,8,0:0:0:0:
285,132,163945,1,8,0:0:0:0:
285,132,164012,1,0,0:0:0:0:
431,148,164112,1,0,0:0:0:0:
431,148,164212,1,8,0:0:0:0:
411,164,164312,1,0,0:0:0:0:
441,75,164412,1,8,0:0:0:0:
477,191,164512,1,8,0:0:0:0:
441,147,164612,1,0,0:0:0:0:
339,123,164678,1,8,0:0:0:0:
367,111,164745,1,8,0:0:0:0:
339,123,164812,1,0,0:0:0:0:
216,136,164912,1,0,0:0:0:0:
216,136,165012,1,8,0:0:0:0:
254,69,165112,1,0,0:0:0:0:
388,67,165212,1,8,0:0:0:0:
388,67,165278,1,8,0:0:0:0:
388,67,165345,1,0,0:0:0:0:
388,67,165412,1,0,0:0:0:0:
396,62,165512,1,8,0:0:0:0:
396,62,165612,1,0,0:0:0:0:
454,160,165712,1,0,0:0:0:0:
454,160,165812,1,8,0:0:0:0:
150,109,165878,1,0,0:0:0:0:
150,109,165945,1,0,0:0:0:0:
164,80,166012,1,8,0:0:0:0:
272,30,166112,1,8,0:0:0:0:
272,30,166212,1,0,0:0:0:0:
272,30,166312,1,8,0:0:0:0:
401,180,166412,1,4,0:0:0:0:
