osu file format v14

[General]
AudioFilename: audio.mp3
AudioLeadIn: 0
PreviewTime: 102412
Countdown: 0
SampleSet: Normal
StackLeniency: 0
Mode: 1
LetterboxInBreaks: 0
WidescreenStoryboard: 1

[Editor]
DistanceSpacing: 1
BeatDivisor: 4
GridSize: 16
TimelineZoom: 2.999999

[Metadata]
Title:Shiawase (VIP)
TitleUnicode:Shiawase (VIP)
Artist:Dion Timmer
ArtistUnicode:Dion Timmer
Creator:koul
Version:Oni
Source:Rocket League
Tags:instrumental electronic dance monstercat 2018 legacy uncaged instinct future house ulqui ulko sobakaa
BeatmapID:4343377
BeatmapSetID:2074958

[Difficulty]
HPDrainRate:5.5
CircleSize:2
OverallDifficulty:5
ApproachRate:10
SliderMultiplier:1.4
SliderTickRate:1

[Events]
//Background and Video events
0,0,"bg.jpg",0,0
//Break Periods
2,64212,76362
//Storyboard Layer 0 (Background)
//Storyboard Layer 1 (Fail)
//Storyboard Layer 2 (Pass)
//Storyboard Layer 3 (Foreground)
//Storyboard Layer 4 (Overlay)
//Storyboard Sound Samples

[TimingPoints]
12,400,4,1,0,100,1,0
41612,-66.6666666666667,4,1,0,100,0,1
50812,-66.6666666666667,4,1,0,100,0,0
51212,-66.6666666666667,4,1,0,100,0,1
64012,-66.6666666666667,4,1,0,100,0,0
64112,-100,4,1,0,100,0,0
100812,-66.6666666666667,4,1,0,100,0,0
100912,-133.333333333333,4,1,0,100,0,0
102412,-66.6666666666667,4,1,0,100,0,0
102512,-100,4,1,0,100,0,0
105612,-66.6666666666667,4,1,0,100,0,1
114812,-66.6666666666667,4,1,0,100,0,0
115212,-66.6666666666667,4,1,0,100,0,1
128012,-66.6666666666667,4,1,0,100,0,0
128112,-100,4,1,0,100,0,0
131212,-66.6666666666667,4,1,0,100,0,1
140412,-66.6666666666667,4,1,0,100,0,0
140812,-66.6666666666667,4,1,0,100,0,1
153212,-66.6666666666667,4,1,0,100,0,0
153612,-66.6666666666667,4,1,0,100,0,1
166412,-66.6666666666667,4,1,0,100,0,0
166512,-100,4,1,0,100,0,0

[HitObjects]
304,217,12812,5,4,0:0:0:0:
296,220,13112,1,4,0:0:0:0:
304,217,13412,1,4,0:0:0:0:
336,140,13612,1,8,0:0:0:0:
230,154,13812,1,8,0:0:0:0:
230,154,14012,1,0,0:0:0:0:
197,172,14412,1,8,0:0:0:0:
390,175,14812,1,8,0:0:0:0:
390,175,15012,1,8,0:0:0:0:
390,175,15212,1,0,0:0:0:0:
310,117,15612,1,8,0:0:0:0:
361,206,16012,1,4,0:0:0:0:
229,153,16312,1,4,0:0:0:0:
229,153,16612,1,4,0:0:0:0:
198,196,16812,1,8,0:0:0:0:
198,196,17012,1,8,0:0:0:0:
198,196,17212,1,0,0:0:0:0:
351,147,17612,1,8,0:0:0:0:
237,257,18012,1,8,0:0:0:0:
237,257,18212,1,0,0:0:0:0:
237,257,18412,1,8,0:0:0:0:
351,147,18612,1,8,0:0:0:0:
237,257,18812,1,0,0:0:0:0:
434,261,19012,1,8,0:0:0:0:
304,217,19212,1,4,0:0:0:0:
296,220,19512,1,4,0:0:0:0:
304,217,19812,1,4,0:0:0:0:
336,140,20012,1,8,0:0:0:0:
230,154,20212,1,8,0:0:0:0:
230,154,20412,1,0,0:0:0:0:
197,172,20812,1,8,0:0:0:0:
390,175,21212,1,8,0:0:0:0:
390,175,21412,1,8,0:0:0:0:
390,175,21612,1,0,0:0:0:0:
310,117,22012,1,8,0:0:0:0:
361,206,22412,1,4,0:0:0:0:
229,153,22712,1,4,0:0:0:0:
229,153,23012,1,4,0:0:0:0:
198,196,23212,1,8,0:0:0:0:
198,196,23412,1,8,0:0:0:0:
198,196,23612,1,0,0:0:0:0:
237,41,24012,1,4,0:0:0:0:
241,79,24312,1,4,0:0:0:0:
183,28,24612,1,4,0:0:0:0:
237,257,24812,1,8,0:0:0:0:
237,257,25212,1,0,0:0:0:0:
434,261,25412,1,8,0:0:0:0:
203,107,25612,1,4,0:0:0:0:
261,172,26012,1,8,0:0:0:0:
244,191,26412,1,8,0:0:0:0:
244,191,26612,1,8,0:0:0:0:
244,191,26812,1,0,0:0:0:0:
244,191,27212,1,8,0:0:0:0:
244,191,27612,1,0,0:0:0:0:
244,191,27812,1,0,0:0:0:0:
244,191,28012,1,8,0:0:0:0:
130,128,28812,1,4,0:0:0:0:
232,211,29212,1,8,0:0:0:0:
241,203,29612,1,0,0:0:0:0:
241,203,29812,1,0,0:0:0:0:
241,203,30012,1,8,0:0:0:0:
241,203,30412,1,8,0:0:0:0:
241,203,30812,1,8,0:0:0:0:
241,203,31012,1,8,0:0:0:0:
241,203,31212,1,0,0:0:0:0:
118,119,32012,1,4,0:0:0:0:
249,188,32412,1,8,0:0:0:0:
256,178,32812,1,0,0:0:0:0:
256,178,33212,1,8,0:0:0:0:
256,178,33612,1,0,0:0:0:0:
256,178,34012,1,8,0:0:0:0:
256,178,34412,1,0,0:0:0:0:
256,178,34812,1,8,0:0:0:0:
256,178,35212,1,0,0:0:0:0:
355,95,35312,1,0,0:0:0:0:
276,106,35412,1,8,0:0:0:0:
276,106,35512,1,8,0:0:0:0:
231,62,35612,1,0,0:0:0:0:
231,62,35812,1,8,0:0:0:0:
231,62,35912,1,8,0:0:0:0:
231,62,36012,1,0,0:0:0:0:
231,62,36112,1,0,0:0:0:0:
231,62,36212,1,8,0:0:0:0:
231,62,36312,1,8,0:0:0:0:
231,62,36412,1,0,0:0:0:0:
231,62,36612,1,8,0:0:0:0:
231,62,36712,1,8,0:0:0:0:
176,70,36812,1,4,0:0:0:0:
446,185,37212,1,8,0:0:0:0:
454,185,37412,1,0,0:0:0:0:
454,185,37612,1,8,0:0:0:0:
456,185,37812,1,8,0:0:0:0:
460,185,38012,1,0,0:0:0:0:
462,186,38212,1,8,0:0:0:0:
502,219,38412,1,4,0:0:0:0:
416,236,38812,1,8,0:0:0:0:
421,252,39012,1,4,0:0:0:0:
313,189,39812,1,8,0:0:0:0:
309,181,40212,1,8,0:0:0:0:
309,181,40412,1,0,0:0:0:0:
309,181,41012,1,0,0:0:0:0:
309,181,41212,1,8,0:0:0:0:
179,163,41612,1,4,0:0:0:0:
414,157,41812,1,0,0:0:0:0:
414,157,41912,1,0,0:0:0:0:
414,157,42012,1,8,0:0:0:0:
333,101,42212,1,8,0:0:0:0:
333,101,42312,1,8,0:0:0:0:
333,101,42412,1,0,0:0:0:0:
385,145,42512,1,8,0:0:0:0:
385,145,42612,1,0,0:0:0:0:
309,176,42812,1,8,0:0:0:0:
259,98,43012,1,8,0:0:0:0:
213,94,43112,1,8,0:0:0:0:
213,94,43212,1,0,0:0:0:0:
93,177,43312,1,8,0:0:0:0:
313,55,43412,1,0,0:0:0:0:
398,131,43612,1,8,0:0:0:0:
164,216,44012,1,0,0:0:0:0:
228,114,44212,1,8,0:0:0:0:
106,145,44312,1,0,0:0:0:0:
92,101,44412,1,8,0:0:0:0:
92,101,44612,1,8,0:0:0:0:
179,163,44812,1,4,0:0:0:0:
414,157,45012,1,0,0:0:0:0:
414,157,45112,1,0,0:0:0:0:
414,157,45212,1,8,0:0:0:0:
333,101,45412,1,8,0:0:0:0:
333,101,45512,1,8,0:0:0:0:
333,101,45612,1,0,0:0:0:0:
385,145,45712,1,8,0:0:0:0:
385,145,45812,1,0,0:0:0:0:
309,176,46012,1,8,0:0:0:0:
259,98,46212,1,8,0:0:0:0:
213,94,46312,1,8,0:0:0:0:
213,94,46412,1,0,0:0:0:0:
93,177,46512,1,8,0:0:0:0:
313,55,46612,1,0,0:0:0:0:
398,131,46812,1,8,0:0:0:0:
176,33,47212,1,0,0:0:0:0:
228,114,47412,1,8,0:0:0:0:
191,30,47512,1,8,0:0:0:0:
191,30,47612,1,0,0:0:0:0:
92,101,47812,1,8,0:0:0:0:
179,163,48012,1,4,0:0:0:0:
414,157,48212,1,0,0:0:0:0:
414,157,48312,1,0,0:0:0:0:
414,157,48412,1,8,0:0:0:0:
424,136,48512,1,0,0:0:0:0:
333,101,48612,1,8,0:0:0:0:
333,101,48812,1,0,0:0:0:0:
385,145,48912,1,8,0:0:0:0:
385,145,49012,1,0,0:0:0:0:
309,176,49212,1,8,0:0:0:0:
259,98,49412,1,8,0:0:0:0:
259,98,49512,1,8,0:0:0:0:
213,94,49612,1,0,0:0:0:0:
358,83,49712,1,0,0:0:0:0:
357,83,49812,1,8,0:0:0:0:
398,131,50012,1,8,0:0:0:0:
228,114,50612,1,8,0:0:0:0:
228,114,50712,1,0,0:0:0:0:
206,109,50812,1,12,0:0:0:0:
496,269,51212,1,4,0:0:0:0:
428,157,51612,1,8,0:0:0:0:
394,92,51712,1,0,0:0:0:0:
394,92,51812,1,8,0:0:0:0:
107,141,51912,1,8,0:0:0:0:
325,197,52012,1,0,0:0:0:0:
325,197,52212,1,8,0:0:0:0:
325,197,52312,1,0,0:0:0:0:
325,197,52412,1,8,0:0:0:0:
474,115,52612,1,8,0:0:0:0:
474,115,52712,1,8,0:0:0:0:
318,117,52812,1,0,0:0:0:0:
318,117,53012,1,8,0:0:0:0:
220,208,53212,1,8,0:0:0:0:
220,208,53312,1,0,0:0:0:0:
219,129,53412,1,8,0:0:0:0:
219,129,53512,1,8,0:0:0:0:
219,129,53612,1,0,0:0:0:0:
145,155,53812,1,8,0:0:0:0:
338,120,53912,1,0,0:0:0:0:
361,119,54012,1,8,0:0:0:0:
361,119,54212,1,8,0:0:0:0:
496,269,54412,1,4,0:0:0:0:
428,157,54812,1,8,0:0:0:0:
394,92,54912,1,0,0:0:0:0:
394,92,55012,1,8,0:0:0:0:
107,141,55112,1,8,0:0:0:0:
325,197,55212,1,0,0:0:0:0:
325,197,55412,1,8,0:0:0:0:
325,197,55512,1,0,0:0:0:0:
325,197,55612,1,8,0:0:0:0:
474,115,55812,1,8,0:0:0:0:
474,115,55912,1,8,0:0:0:0:
318,117,56012,1,0,0:0:0:0:
318,117,56212,1,8,0:0:0:0:
220,208,56412,1,8,0:0:0:0:
220,208,56512,1,0,0:0:0:0:
219,129,56612,1,8,0:0:0:0:
219,129,56712,1,8,0:0:0:0:
219,129,56812,1,0,0:0:0:0:
200,68,57012,1,0,0:0:0:0:
200,68,57112,1,0,0:0:0:0:
200,68,57212,1,8,0:0:0:0:
164,159,57412,1,8,0:0:0:0:
496,269,57612,1,4,0:0:0:0:
428,157,58012,1,8,0:0:0:0:
394,92,58112,1,0,0:0:0:0:
394,92,58212,1,8,0:0:0:0:
107,141,58312,1,8,0:0:0:0:
325,197,58412,1,0,0:0:0:0:
325,197,58612,1,8,0:0:0:0:
325,197,58712,1,0,0:0:0:0:
325,197,58812,1,8,0:0:0:0:
474,115,59012,1,8,0:0:0:0:
474,115,59112,1,8,0:0:0:0:
318,117,59212,1,0,0:0:0:0:
318,117,59412,1,8,0:0:0:0:
220,208,59612,1,8,0:0:0:0:
220,208,59712,1,0,0:0:0:0:
219,129,59812,1,8,0:0:0:0:
219,129,59912,1,8,0:0:0:0:
219,129,60012,1,0,0:0:0:0:
145,155,60212,1,8,0:0:0:0:
338,120,60312,1,0,0:0:0:0:
361,119,60412,1,8,0:0:0:0:
361,119,60612,1,8,0:0:0:0:
496,269,60812,1,4,0:0:0:0:
428,157,61212,1,8,0:0:0:0:
394,92,61312,1,0,0:0:0:0:
394,92,61412,1,8,0:0:0:0:
107,141,61512,1,8,0:0:0:0:
325,197,61612,1,0,0:0:0:0:
325,197,61812,1,8,0:0:0:0:
325,197,61912,1,0,0:0:0:0:
325,197,62012,1,8,0:0:0:0:
474,115,62212,1,8,0:0:0:0:
474,115,62312,1,8,0:0:0:0:
318,117,62412,1,0,0:0:0:0:
318,117,62612,1,8,0:0:0:0:
220,208,62812,1,8,0:0:0:0:
220,208,62912,1,0,0:0:0:0:
219,129,63012,1,8,0:0:0:0:
219,129,63112,1,8,0:0:0:0:
219,129,63212,1,0,0:0:0:0:
342,149,63412,1,0,0:0:0:0:
342,149,63512,1,0,0:0:0:0:
342,149,63612,1,8,0:0:0:0:
164,159,63812,1,8,0:0:0:0:
496,269,64012,1,4,0:0:0:0:
304,217,76812,5,4,0:0:0:0:
296,220,77112,1,4,0:0:0:0:
304,217,77412,1,4,0:0:0:0:
336,140,77612,1,8,0:0:0:0:
230,154,77812,1,8,0:0:0:0:
230,154,78012,1,0,0:0:0:0:
197,172,78412,1,8,0:0:0:0:
390,175,78812,1,8,0:0:0:0:
390,175,79012,1,8,0:0:0:0:
390,175,79212,1,0,0:0:0:0:
310,117,79612,1,8,0:0:0:0:
361,206,80012,1,4,0:0:0:0:
229,153,80312,1,4,0:0:0:0:
229,153,80612,1,4,0:0:0:0:
198,196,80812,1,8,0:0:0:0:
198,196,81012,1,8,0:0:0:0:
198,196,81212,1,0,0:0:0:0:
351,147,81612,1,8,0:0:0:0:
237,257,82012,1,8,0:0:0:0:
237,257,82212,1,0,0:0:0:0:
237,257,82412,1,8,0:0:0:0:
351,147,82612,1,8,0:0:0:0:
237,257,82812,1,0,0:0:0:0:
434,261,83012,1,8,0:0:0:0:
304,217,83212,1,4,0:0:0:0:
296,220,83512,1,4,0:0:0:0:
304,217,83812,1,4,0:0:0:0:
336,140,84012,1,8,0:0:0:0:
230,154,84212,1,8,0:0:0:0:
230,154,84412,1,0,0:0:0:0:
197,172,84812,1,8,0:0:0:0:
390,175,85212,1,8,0:0:0:0:
390,175,85412,1,8,0:0:0:0:
390,175,85612,1,0,0:0:0:0:
310,117,86012,1,8,0:0:0:0:
361,206,86412,1,4,0:0:0:0:
229,153,86712,1,4,0:0:0:0:
229,153,87012,1,4,0:0:0:0:
198,196,87212,1,8,0:0:0:0:
198,196,87412,1,8,0:0:0:0:
198,196,87612,1,0,0:0:0:0:
237,41,88012,1,4,0:0:0:0:
241,79,88312,1,4,0:0:0:0:
183,28,88612,1,4,0:0:0:0:
237,257,88812,1,8,0:0:0:0:
237,257,89212,1,0,0:0:0:0:
434,261,89412,1,8,0:0:0:0:
203,107,89612,1,4,0:0:0:0:
261,172,90012,1,8,0:0:0:0:
244,191,90412,1,8,0:0:0:0:
244,191,90612,1,8,0:0:0:0:
244,191,90812,1,0,0:0:0:0:
244,191,91212,1,8,0:0:0:0:
244,191,91612,1,0,0:0:0:0:
244,191,91812,1,0,0:0:0:0:
244,191,92012,1,8,0:0:0:0:
130,128,92812,1,4,0:0:0:0:
232,211,93212,1,8,0:0:0:0:
241,203,93612,1,0,0:0:0:0:
241,203,93812,1,0,0:0:0:0:
241,203,94012,1,8,0:0:0:0:
241,203,94412,1,8,0:0:0:0:
241,203,94812,1,8,0:0:0:0:
241,203,95012,1,8,0:0:0:0:
241,203,95212,1,0,0:0:0:0:
118,119,96012,1,4,0:0:0:0:
249,188,96412,1,8,0:0:0:0:
256,178,96812,1,0,0:0:0:0:
256,178,97212,1,8,0:0:0:0:
256,178,97612,1,0,0:0:0:0:
256,178,98012,1,8,0:0:0:0:
256,178,98412,1,0,0:0:0:0:
256,178,98812,1,8,0:0:0:0:
256,178,99212,1,0,0:0:0:0:
355,95,99312,1,0,0:0:0:0:
276,106,99412,1,8,0:0:0:0:
276,106,99512,1,8,0:0:0:0:
231,62,99612,1,0,0:0:0:0:
231,62,99812,1,8,0:0:0:0:
231,62,99912,1,8,0:0:0:0:
231,62,100012,1,0,0:0:0:0:
231,62,100112,1,0,0:0:0:0:
231,62,100212,1,8,0:0:0:0:
231,62,100312,1,8,0:0:0:0:
231,62,100412,1,0,0:0:0:0:
231,62,100612,1,8,0:0:0:0:
231,62,100712,1,8,0:0:0:0:
176,70,100812,1,4,0:0:0:0:
446,185,101212,1,8,0:0:0:0:
454,185,101612,1,8,0:0:0:0:
206,201,101812,1,0,0:0:0:0:
462,186,102212,1,8,0:0:0:0:
502,219,102412,1,4,0:0:0:0:
416,236,102812,1,8,0:0:0:0:
421,252,103012,1,4,0:0:0:0:
313,189,103812,1,8,0:0:0:0:
309,181,104212,1,8,0:0:0:0:
309,181,104412,1,0,0:0:0:0:
309,181,105012,1,0,0:0:0:0:
309,181,105212,1,8,0:0:0:0:
266,155,105612,1,4,0:0:0:0:
325,179,106012,1,8,0:0:0:0:
386,141,106212,1,8,0:0:0:0:
386,141,106412,1,0,0:0:0:0:
386,141,106512,1,8,0:0:0:0:
386,141,106612,1,0,0:0:0:0:
386,141,106712,1,0,0:0:0:0:
386,141,106812,1,8,0:0:0:0:
359,121,107012,1,8,0:0:0:0:
359,121,107112,1,8,0:0:0:0:
359,121,107212,1,0,0:0:0:0:
396,120,107412,1,0,0:0:0:0:
426,204,107612,1,8,0:0:0:0:
426,204,107712,1,8,0:0:0:0:
426,204,107812,1,0,0:0:0:0:
251,83,108012,1,0,0:0:0:0:
251,83,108112,1,0,0:0:0:0:
263,137,108212,1,8,0:0:0:0:
424,187,108312,1,0,0:0:0:0:
424,187,108412,1,8,0:0:0:0:
237,147,108612,1,8,0:0:0:0:
449,189,108812,1,4,0:0:0:0:
325,179,109212,1,8,0:0:0:0:
386,141,109412,1,8,0:0:0:0:
386,141,109612,1,0,0:0:0:0:
386,141,109712,1,8,0:0:0:0:
386,141,109812,1,0,0:0:0:0:
386,141,109912,1,0,0:0:0:0:
386,141,110012,1,8,0:0:0:0:
359,121,110212,1,8,0:0:0:0:
359,121,110312,1,8,0:0:0:0:
359,121,110412,1,0,0:0:0:0:
396,120,110612,1,0,0:0:0:0:
426,204,110812,1,8,0:0:0:0:
426,204,110912,1,8,0:0:0:0:
426,204,111012,1,0,0:0:0:0:
188,127,111112,1,8,0:0:0:0:
424,187,111212,1,0,0:0:0:0:
263,137,111412,1,8,0:0:0:0:
424,187,111512,1,0,0:0:0:0:
424,187,111612,1,8,0:0:0:0:
237,147,111812,1,8,0:0:0:0:
449,189,112012,1,4,0:0:0:0:
325,179,112412,1,8,0:0:0:0:
386,141,112612,1,8,0:0:0:0:
386,141,112812,1,0,0:0:0:0:
386,141,112912,1,8,0:0:0:0:
386,141,113012,1,0,0:0:0:0:
386,141,113112,1,0,0:0:0:0:
386,141,113212,1,8,0:0:0:0:
359,121,113412,1,8,0:0:0:0:
359,121,113512,1,8,0:0:0:0:
359,121,113612,1,0,0:0:0:0:
396,120,113812,1,0,0:0:0:0:
426,204,114012,1,8,0:0:0:0:
426,204,114112,1,8,0:0:0:0:
426,204,114212,1,0,0:0:0:0:
424,187,114412,1,0,0:0:0:0:
263,137,114612,1,8,0:0:0:0:
237,147,115012,1,8,0:0:0:0:
449,189,115212,1,4,0:0:0:0:
325,179,115612,1,8,0:0:0:0:
386,141,115812,1,8,0:0:0:0:
386,141,116012,1,0,0:0:0:0:
386,141,116112,1,8,0:0:0:0:
386,141,116212,1,0,0:0:0:0:
386,141,116312,1,0,0:0:0:0:
386,141,116412,1,8,0:0:0:0:
359,121,116612,1,8,0:0:0:0:
359,121,116712,1,8,0:0:0:0:
359,121,116812,1,0,0:0:0:0:
396,120,117012,1,0,0:0:0:0:
426,204,117212,1,8,0:0:0:0:
426,204,117312,1,8,0:0:0:0:
426,204,117412,1,0,0:0:0:0:
188,127,117512,1,8,0:0:0:0:
424,187,117612,1,0,0:0:0:0:
263,137,117812,1,8,0:0:0:0:
424,187,117912,1,0,0:0:0:0:
424,187,118012,1,8,0:0:0:0:
237,147,118212,1,8,0:0:0:0:
266,155,118412,1,4,0:0:0:0:
325,179,118812,1,8,0:0:0:0:
386,141,119012,1,8,0:0:0:0:
386,141,119212,1,0,0:0:0:0:
386,141,119312,1,8,0:0:0:0:
386,141,119412,1,0,0:0:0:0:
386,141,119512,1,0,0:0:0:0:
386,141,119612,1,8,0:0:0:0:
359,121,119812,1,8,0:0:0:0:
359,121,119912,1,8,0:0:0:0:
359,121,120012,1,0,0:0:0:0:
396,120,120212,1,0,0:0:0:0:
426,204,120412,1,8,0:0:0:0:
426,204,120512,1,8,0:0:0:0:
426,204,120612,1,0,0:0:0:0:
424,187,120812,1,0,0:0:0:0:
331,237,120912,1,0,0:0:0:0:
263,137,121012,1,8,0:0:0:0:
424,187,121112,1,0,0:0:0:0:
424,187,121212,1,8,0:0:0:0:
237,147,121412,1,8,0:0:0:0:
449,189,121612,1,4,0:0:0:0:
325,179,122012,1,8,0:0:0:0:
386,141,122212,1,8,0:0:0:0:
386,141,122412,1,0,0:0:0:0:
386,141,122512,1,8,0:0:0:0:
386,141,122612,1,0,0:0:0:0:
386,141,122712,1,0,0:0:0:0:
386,141,122812,1,8,0:0:0:0:
359,121,123012,1,8,0:0:0:0:
359,121,123112,1,8,0:0:0:0:
359,121,123212,1,0,0:0:0:0:
396,120,123412,1,0,0:0:0:0:
426,204,123612,1,8,0:0:0:0:
426,204,123712,1,8,0:0:0:0:
426,204,123812,1,0,0:0:0:0:
188,127,123912,1,8,0:0:0:0:
424,187,124012,1,0,0:0:0:0:
207,179,124212,1,0,0:0:0:0:
207,179,124412,1,8,0:0:0:0:
128,116,124612,1,8,0:0:0:0:
266,155,124812,1,4,0:0:0:0:
325,179,125212,1,8,0:0:0:0:
386,141,125412,1,8,0:0:0:0:
386,141,125612,1,0,0:0:0:0:
386,141,125712,1,8,0:0:0:0:
386,141,125812,1,0,0:0:0:0:
386,141,125912,1,0,0:0:0:0:
386,141,126012,1,8,0:0:0:0:
359,121,126212,1,8,0:0:0:0:
359,121,126312,1,8,0:0:0:0:
359,121,126412,1,0,0:0:0:0:
396,120,126612,1,0,0:0:0:0:
426,204,126812,1,8,0:0:0:0:
426,204,126912,1,8,0:0:0:0:
426,204,127012,1,0,0:0:0:0:
424,187,127212,1,0,0:0:0:0:
330,243,127312,1,0,0:0:0:0:
263,137,127412,1,8,0:0:0:0:
424,187,127512,1,0,0:0:0:0:
424,187,127612,1,8,0:0:0:0:
237,147,127812,1,8,0:0:0:0:
55,97,128012,1,4,0:0:0:0:
227,67,128412,1,8,0:0:0:0:
227,67,128612,1,0,0:0:0:0:
220,62,129012,1,0,0:0:0:0:
220,63,129212,1,8,0:0:0:0:
220,62,130012,1,8,0:0:0:0:
220,63,130212,1,8,0:0:0:0:
220,62,130612,1,0,0:0:0:0:
230,51,130812,1,8,0:0:0:0:
230,51,131012,1,8,0:0:0:0:
496,269,131212,1,4,0:0:0:0:
428,157,131612,1,8,0:0:0:0:
394,92,131712,1,0,0:0:0:0:
394,92,131812,1,8,0:0:0:0:
107,141,131912,1,8,0:0:0:0:
325,197,132012,1,0,0:0:0:0:
325,197,132212,1,8,0:0:0:0:
325,197,132312,1,0,0:0:0:0:
325,197,132412,1,8,0:0:0:0:
474,115,132612,1,8,0:0:0:0:
474,115,132712,1,8,0:0:0:0:
318,117,132812,1,0,0:0:0:0:
318,117,133012,1,8,0:0:0:0:
220,208,133212,1,8,0:0:0:0:
220,208,133312,1,0,0:0:0:0:
219,129,133412,1,8,0:0:0:0:
219,129,133512,1,8,0:0:0:0:
219,129,133612,1,0,0:0:0:0:
145,155,133812,1,8,0:0:0:0:
338,120,133912,1,0,0:0:0:0:
361,119,134012,1,8,0:0:0:0:
361,119,134212,1,8,0:0:0:0:
496,269,134412,1,4,0:0:0:0:
428,157,134812,1,8,0:0:0:0:
394,92,134912,1,0,0:0:0:0:
394,92,135012,1,8,0:0:0:0:
107,141,135112,1,8,0:0:0:0:
325,197,135212,1,0,0:0:0:0:
325,197,135412,1,8,0:0:0:0:
325,197,135512,1,0,0:0:0:0:
325,197,135612,1,8,0:0:0:0:
474,115,135812,1,8,0:0:0:0:
474,115,135912,1,8,0:0:0:0:
318,117,136012,1,0,0:0:0:0:
318,117,136212,1,8,0:0:0:0:
220,208,136412,1,8,0:0:0:0:
220,208,136512,1,0,0:0:0:0:
219,129,136612,1,8,0:0:0:0:
219,129,136712,1,8,0:0:0:0:
219,129,136812,1,0,0:0:0:0:
200,68,137012,1,0,0:0:0:0:
200,68,137112,1,0,0:0:0:0:
200,68,137212,1,8,0:0:0:0:
164,159,137412,1,8,0:0:0:0:
496,269,137612,1,4,0:0:0:0:
428,157,138012,1,8,0:0:0:0:
394,92,138112,1,0,0:0:0:0:
394,92,138212,1,8,0:0:0:0:
107,141,138312,1,8,0:0:0:0:
325,197,138412,1,0,0:0:0:0:
325,197,138612,1,8,0:0:0:0:
325,197,138712,1,0,0:0:0:0:
325,197,138812,1,8,0:0:0:0:
474,115,139012,1,8,0:0:0:0:
474,115,139112,1,8,0:0:0:0:
318,117,139212,1,0,0:0:0:0:
318,117,139412,1,8,0:0:0:0:
220,208,139612,1,8,0:0:0:0:
220,208,139712,1,0,0:0:0:0:
219,129,139812,1,8,0:0:0:0:
219,129,139912,1,8,0:0:0:0:
219,129,140012,1,0,0:0:0:0:
145,155,140212,1,8,0:0:0:0:
338,120,140312,1,0,0:0:0:0:
361,119,140412,1,8,0:0:0:0:
496,269,140812,1,4,0:0:0:0:
428,157,141212,1,8,0:0:0:0:
394,92,141312,1,0,0:0:0:0:
394,92,141412,1,8,0:0:0:0:
107,141,141512,1,8,0:0:0:0:
325,197,141612,1,0,0:0:0:0:
325,197,141812,1,8,0:0:0:0:
325,197,141912,1,0,0:0:0:0:
325,197,142012,1,8,0:0:0:0:
474,115,142212,1,8,0:0:0:0:
474,115,142312,1,8,0:0:0:0:
318,117,142412,1,0,0:0:0:0:
318,117,142612,1,8,0:0:0:0:
220,208,142812,1,8,0:0:0:0:
220,208,142912,1,0,0:0:0:0:
219,129,143012,1,8,0:0:0:0:
219,129,143112,1,8,0:0:0:0:
219,129,143212,1,0,0:0:0:0:
342,149,143412,1,0,0:0:0:0:
342,149,143512,1,0,0:0:0:0:
342,149,143612,1,8,0:0:0:0:
164,159,143812,1,8,0:0:0:0:
496,269,144012,1,4,0:0:0:0:
428,157,144412,1,8,0:0:0:0:
394,92,144512,1,0,0:0:0:0:
394,92,144612,1,8,0:0:0:0:
107,141,144712,1,8,0:0:0:0:
325,197,144812,1,0,0:0:0:0:
325,197,145012,1,8,0:0:0:0:
325,197,145112,1,0,0:0:0:0:
325,197,145212,1,8,0:0:0:0:
474,115,145412,1,8,0:0:0:0:
474,115,145512,1,8,0:0:0:0:
318,117,145612,1,0,0:0:0:0:
318,117,145812,1,8,0:0:0:0:
220,208,146012,1,8,0:0:0:0:
220,208,146112,1,0,0:0:0:0:
219,129,146212,1,8,0:0:0:0:
219,129,146312,1,8,0:0:0:0:
219,129,146412,1,0,0:0:0:0:
145,155,146612,1,8,0:0:0:0:
338,120,146712,1,0,0:0:0:0:
361,119,146812,1,8,0:0:0:0:
361,119,147012,1,8,0:0:0:0:
496,269,147212,1,4,0:0:0:0:
428,157,147612,1,8,0:0:0:0:
394,92,147712,1,0,0:0:0:0:
394,92,147812,1,8,0:0:0:0:
107,141,147912,1,8,0:0:0:0:
325,197,148012,1,0,0:0:0:0:
325,197,148212,1,8,0:0:0:0:
325,197,148312,1,0,0:0:0:0:
325,197,148412,1,8,0:0:0:0:
474,115,148612,1,8,0:0:0:0:
474,115,148712,1,8,0:0:0:0:
318,117,148812,1,0,0:0:0:0:
318,117,149012,1,8,0:0:0:0:
220,208,149212,1,8,0:0:0:0:
220,208,149312,1,0,0:0:0:0:
219,129,149412,1,8,0:0:0:0:
219,129,149512,1,8,0:0:0:0:
219,129,149612,1,0,0:0:0:0:
200,68,149812,1,0,0:0:0:0:
200,68,149912,1,0,0:0:0:0:
200,68,150012,1,8,0:0:0:0:
164,159,150212,1,8,0:0:0:0:
496,269,150412,1,4,0:0:0:0:
428,157,150812,1,8,0:0:0:0:
394,92,150912,1,0,0:0:0:0:
394,92,151012,1,8,0:0:0:0:
107,141,151112,1,8,0:0:0:0:
325,197,151212,1,0,0:0:0:0:
325,197,151412,1,8,0:0:0:0:
325,197,151512,1,0,0:0:0:0:
325,197,151612,1,8,0:0:0:0:
474,115,151812,1,8,0:0:0:0:
474,115,151912,1,8,0:0:0:0:
318,117,152012,1,0,0:0:0:0:
318,117,152212,1,8,0:0:0:0:
220,208,152412,1,8,0:0:0:0:
220,208,152512,1,0,0:0:0:0:
219,129,152612,1,8,0:0:0:0:
219,129,152712,1,8,0:0:0:0:
219,129,152812,1,0,0:0:0:0:
145,155,153012,1,8,0:0:0:0:
338,120,153112,1,0,0:0:0:0:
361,119,153212,1,8,0:0:0:0:
361,119,153412,1,8,0:0:0:0:
179,163,153612,1,4,0:0:0:0:
414,157,154012,1,8,0:0:0:0:
333,101,154212,1,8,0:0:0:0:
333,101,154312,1,8,0:0:0:0:
333,101,154412,1,0,0:0:0:0:
385,145,154512,1,8,0:0:0:0:
385,145,154612,1,0,0:0:0:0:
309,176,154812,1,8,0:0:0:0:
259,98,155012,1,8,0:0:0:0:
213,94,155112,1,8,0:0:0:0:
213,94,155212,1,0,0:0:0:0:
93,177,155312,1,8,0:0:0:0:
313,55,155412,1,0,0:0:0:0:
398,131,155612,1,8,0:0:0:0:
116,124,155712,1,0,0:0:0:0:
204,205,155812,1,0,0:0:0:0:
352,231,156012,1,8,0:0:0:0:
228,114,156212,1,8,0:0:0:0:
106,145,156312,1,0,0:0:0:0:
92,101,156412,1,8,0:0:0:0:
92,101,156612,1,8,0:0:0:0:
179,163,156812,1,4,0:0:0:0:
414,157,157212,1,8,0:0:0:0:
333,101,157412,1,8,0:0:0:0:
333,101,157512,1,8,0:0:0:0:
333,101,157612,1,0,0:0:0:0:
385,145,157712,1,8,0:0:0:0:
385,145,157812,1,0,0:0:0:0:
309,176,158012,1,8,0:0:0:0:
259,98,158212,1,8,0:0:0:0:
213,94,158312,1,8,0:0:0:0:
213,94,158412,1,0,0:0:0:0:
93,177,158512,1,8,0:0:0:0:
313,55,158612,1,0,0:0:0:0:
398,131,158812,1,8,0:0:0:0:
116,124,158912,1,0,0:0:0:0:
204,205,159012,1,0,0:0:0:0:
352,231,159212,1,8,0:0:0:0:
228,114,159412,1,8,0:0:0:0:
191,30,159512,1,8,0:0:0:0:
191,30,159612,1,0,0:0:0:0:
92,101,159812,1,8,0:0:0:0:
179,163,160012,1,4,0:0:0:0:
414,157,160412,1,8,0:0:0:0:
424,136,160512,1,0,0:0:0:0:
333,101,160612,1,8,0:0:0:0:
333,101,160812,1,0,0:0:0:0:
385,145,160912,1,8,0:0:0:0:
385,145,161012,1,0,0:0:0:0:
309,176,161212,1,8,0:0:0:0:
259,98,161412,1,8,0:0:0:0:
259,98,161512,1,8,0:0:0:0:
213,94,161612,1,0,0:0:0:0:
255,236,161712,1,8,0:0:0:0:
255,236,161812,1,0,0:0:0:0:
398,131,162012,1,8,0:0:0:0:
346,249,162212,1,8,0:0:0:0:
250,222,162412,1,0,0:0:0:0:
228,114,162612,1,8,0:0:0:0:
228,114,162712,1,0,0:0:0:0:
206,109,162812,1,8,0:0:0:0:
221,205,163012,1,8,0:0:0:0:
179,163,163212,1,4,0:0:0:0:
414,157,163612,1,8,0:0:0:0:
333,101,163812,1,8,0:0:0:0:
333,101,163912,1,8,0:0:0:0:
333,101,164012,1,0,0:0:0:0:
385,145,164112,1,8,0:0:0:0:
385,145,164212,1,0,0:0:0:0:
309,176,164412,1,8,0:0:0:0:
259,98,164612,1,8,0:0:0:0:
213,94,164712,1,8,0:0:0:0:
213,94,164812,1,0,0:0:0:0:
93,177,164912,1,8,0:0:0:0:
313,55,165012,1,0,0:0:0:0:
398,131,165212,1,8,0:0:0:0:
204,205,165412,1,0,0:0:0:0:
228,114,165812,1,8,0:0:0:0:
106,145,165912,1,0,0:0:0:0:
92,101,166012,1,8,0:0:0:0:
92,101,166212,1,8,0:0:0:0:
179,163,166412,1,4,0:0:0:0:
