osu file format v14

[General]
AudioFilename: audio.mp3
AudioLeadIn: 0
PreviewTime: 102412
Countdown: 0
SampleSet: Normal
StackLeniency: 0
Mode: 1
LetterboxInBreaks: 0
WidescreenStoryboard: 0

[Editor]
DistanceSpacing: 1
BeatDivisor: 4
GridSize: 16
TimelineZoom: 2.799999

[Metadata]
Title:Shiawase (VIP)
TitleUnicode:Shiawase (VIP)
Artist:Dion Timmer
ArtistUnicode:Dion Timmer
Creator:koul
Version:Futsuu
Source:Rocket League
Tags:instrumental electronic dance monstercat 2018 legacy uncaged instinct future house ulqui ulko sobakaa
BeatmapID:4343375
BeatmapSetID:2074958

[Difficulty]
HPDrainRate:7
CircleSize:2
OverallDifficulty:3.5
ApproachRate:10
SliderMultiplier:1.4
SliderTickRate:1

[Events]
//Background and Video events
0,0,"bg.jpg",0,0
//Break Periods
2,64212,76362
//Storyboard Layer 0 (Background)
//Storyboard Layer 1 (Fail)
//Storyboard Layer 2 (Pass)
//Storyboard Layer 3 (Foreground)
//Storyboard Layer 4 (Overlay)
//Storyboard Sound Samples

[TimingPoints]
12,400,4,1,0,100,1,0
41612,-100,4,1,0,100,0,1
50812,-100,4,1,0,100,0,0
51212,-100,4,1,0,100,0,1
64012,-100,4,1,0,100,0,0
105612,-100,4,1,0,100,0,1
114812,-100,4,1,0,100,0,0
115212,-100,4,1,0,100,0,1
128012,-100,4,1,0,100,0,0
131212,-100,4,1,0,100,0,1
140412,-100,4,1,0,100,0,0
140812,-100,4,1,0,100,0,1
153212,-100,4,1,0,100,0,0
153612,-100,4,1,0,100,0,1
166412,-100,4,1,0,100,0,0

[HitObjects]
200,157,12812,5,4,0:0:0:0:
267,121,13112,1,4,0:0:0:0:
247,128,13412,1,4,0:0:0:0:
291,96,14412,1,8,0:0:0:0:
291,96,14812,1,0,0:0:0:0:
291,96,15212,1,0,0:0:0:0:
200,157,16012,1,4,0:0:0:0:
267,121,16312,1,4,0:0:0:0:
247,128,16612,1,4,0:0:0:0:
291,96,17612,1,8,0:0:0:0:
291,96,18012,1,0,0:0:0:0:
213,63,18412,1,8,0:0:0:0:
394,119,18612,1,0,0:0:0:0:
418,105,19012,1,8,0:0:0:0:
200,157,19212,1,4,0:0:0:0:
267,121,19512,1,4,0:0:0:0:
247,128,19812,1,4,0:0:0:0:
291,96,20812,1,8,0:0:0:0:
291,96,21212,1,0,0:0:0:0:
291,96,21612,1,0,0:0:0:0:
200,157,22412,1,4,0:0:0:0:
267,121,22712,1,4,0:0:0:0:
247,128,23012,1,4,0:0:0:0:
472,114,24012,1,4,0:0:0:0:
472,114,24312,1,4,0:0:0:0:
472,114,24612,1,4,0:0:0:0:
311,103,25212,1,0,0:0:0:0:
386,78,25412,1,8,0:0:0:0:
386,78,25612,1,4,0:0:0:0:
267,83,26412,1,0,0:0:0:0:
259,147,27212,1,8,0:0:0:0:
259,147,28012,1,8,0:0:0:0:
205,135,28812,1,4,0:0:0:0:
205,135,29612,1,8,0:0:0:0:
205,135,30412,1,0,0:0:0:0:
205,135,31212,1,8,0:0:0:0:
256,65,32012,1,4,0:0:0:0:
256,65,32412,1,8,0:0:0:0:
256,65,33212,1,0,0:0:0:0:
256,65,33612,1,8,0:0:0:0:
243,78,34412,1,8,0:0:0:0:
243,78,34812,1,8,0:0:0:0:
243,78,35212,1,0,0:0:0:0:
241,85,35412,1,0,0:0:0:0:
241,85,35612,1,8,0:0:0:0:
245,46,36012,1,0,0:0:0:0:
245,46,36212,1,0,0:0:0:0:
245,46,36412,1,8,0:0:0:0:
245,46,36812,1,4,0:0:0:0:
349,66,38412,1,4,0:0:0:0:
126,149,39012,1,8,0:0:0:0:
301,152,39812,1,0,0:0:0:0:
364,105,40412,1,0,0:0:0:0:
417,124,41012,1,0,0:0:0:0:
364,105,41212,1,12,0:0:0:0:
301,147,41612,5,4,0:0:0:0:
412,139,42212,1,8,0:0:0:0:
363,129,43012,1,8,0:0:0:0:
363,129,43212,1,0,0:0:0:0:
349,99,43612,1,8,0:0:0:0:
336,97,44212,1,0,0:0:0:0:
336,97,44412,1,8,0:0:0:0:
336,97,44612,1,8,0:0:0:0:
301,147,44812,1,4,0:0:0:0:
412,139,45412,1,8,0:0:0:0:
363,129,46212,1,8,0:0:0:0:
363,129,46412,1,0,0:0:0:0:
349,99,46812,1,8,0:0:0:0:
336,97,47412,1,0,0:0:0:0:
336,97,47612,1,8,0:0:0:0:
336,97,47812,1,8,0:0:0:0:
301,147,48012,1,4,0:0:0:0:
412,139,48612,1,8,0:0:0:0:
363,129,49412,1,8,0:0:0:0:
363,129,49612,1,0,0:0:0:0:
349,99,50012,1,8,0:0:0:0:
336,97,50612,1,0,0:0:0:0:
336,97,50812,1,12,0:0:0:0:
307,100,51212,1,4,0:0:0:0:
244,155,51612,1,8,0:0:0:0:
244,155,51812,1,0,0:0:0:0:
252,153,52212,1,0,0:0:0:0:
296,132,52412,1,8,0:0:0:0:
359,98,53212,1,8,0:0:0:0:
359,98,53412,1,0,0:0:0:0:
310,54,53812,1,0,0:0:0:0:
359,98,54012,1,8,0:0:0:0:
310,54,54212,1,8,0:0:0:0:
307,100,54412,1,4,0:0:0:0:
244,155,54812,1,8,0:0:0:0:
244,155,55012,1,0,0:0:0:0:
252,153,55412,1,0,0:0:0:0:
296,132,55612,1,8,0:0:0:0:
359,98,56412,1,8,0:0:0:0:
359,98,56612,1,0,0:0:0:0:
310,54,57012,1,0,0:0:0:0:
359,98,57212,1,8,0:0:0:0:
310,54,57412,1,8,0:0:0:0:
307,100,57612,1,4,0:0:0:0:
244,155,58012,1,8,0:0:0:0:
244,155,58212,1,0,0:0:0:0:
252,153,58612,1,0,0:0:0:0:
296,132,58812,1,8,0:0:0:0:
359,98,59612,1,8,0:0:0:0:
359,98,59812,1,0,0:0:0:0:
310,54,60212,1,0,0:0:0:0:
359,98,60412,1,8,0:0:0:0:
310,54,60612,1,8,0:0:0:0:
307,100,60812,1,4,0:0:0:0:
244,155,61212,1,8,0:0:0:0:
244,155,61412,1,0,0:0:0:0:
252,153,61812,1,0,0:0:0:0:
296,132,62012,1,8,0:0:0:0:
359,98,62812,1,8,0:0:0:0:
359,98,63012,1,0,0:0:0:0:
310,54,63412,1,0,0:0:0:0:
359,98,63612,1,8,0:0:0:0:
310,54,63812,1,8,0:0:0:0:
307,100,64012,1,4,0:0:0:0:
200,157,76812,5,4,0:0:0:0:
267,121,77112,1,4,0:0:0:0:
247,128,77412,1,4,0:0:0:0:
291,96,78412,1,8,0:0:0:0:
291,96,78812,1,0,0:0:0:0:
291,96,79212,1,0,0:0:0:0:
200,157,80012,1,4,0:0:0:0:
267,121,80312,1,4,0:0:0:0:
247,128,80612,1,4,0:0:0:0:
291,96,81612,1,8,0:0:0:0:
291,96,82012,1,0,0:0:0:0:
213,63,82412,1,8,0:0:0:0:
394,119,82612,1,0,0:0:0:0:
418,105,83012,1,8,0:0:0:0:
200,157,83212,1,4,0:0:0:0:
267,121,83512,1,4,0:0:0:0:
247,128,83812,1,4,0:0:0:0:
291,96,84812,1,8,0:0:0:0:
291,96,85212,1,0,0:0:0:0:
291,96,85612,1,0,0:0:0:0:
200,157,86412,1,4,0:0:0:0:
267,121,86712,1,4,0:0:0:0:
247,128,87012,1,4,0:0:0:0:
472,114,88012,1,4,0:0:0:0:
472,114,88312,1,4,0:0:0:0:
472,114,88612,1,4,0:0:0:0:
311,103,89212,1,0,0:0:0:0:
386,78,89412,1,8,0:0:0:0:
386,78,89612,1,4,0:0:0:0:
267,83,90412,1,0,0:0:0:0:
259,147,91212,1,8,0:0:0:0:
259,147,92012,1,8,0:0:0:0:
205,135,92812,1,4,0:0:0:0:
205,135,93612,1,8,0:0:0:0:
205,135,94412,1,0,0:0:0:0:
205,135,95212,1,8,0:0:0:0:
256,65,96012,1,4,0:0:0:0:
256,65,96412,1,8,0:0:0:0:
256,65,97212,1,0,0:0:0:0:
256,65,97612,1,8,0:0:0:0:
243,78,98412,1,8,0:0:0:0:
243,78,98812,1,8,0:0:0:0:
243,78,99212,1,0,0:0:0:0:
241,85,99412,1,0,0:0:0:0:
241,85,99612,1,8,0:0:0:0:
245,46,100012,1,0,0:0:0:0:
245,46,100212,1,0,0:0:0:0:
245,46,100412,1,8,0:0:0:0:
245,46,100812,1,4,0:0:0:0:
272,180,102412,1,4,0:0:0:0:
405,137,102812,1,8,0:0:0:0:
284,118,104012,1,8,0:0:0:0:
284,118,104412,1,0,0:0:0:0:
198,69,105212,5,8,0:0:0:0:
397,69,105612,1,4,0:0:0:0:
297,128,106012,1,8,0:0:0:0:
431,198,106412,1,0,0:0:0:0:
364,185,106612,1,0,0:0:0:0:
336,180,106812,1,8,0:0:0:0:
336,180,107212,1,0,0:0:0:0:
475,143,108012,1,0,0:0:0:0:
314,167,108212,1,8,0:0:0:0:
369,94,108612,1,8,0:0:0:0:
397,69,108812,1,4,0:0:0:0:
297,128,109212,1,8,0:0:0:0:
431,198,109612,1,0,0:0:0:0:
364,185,109812,1,0,0:0:0:0:
336,180,110012,1,8,0:0:0:0:
336,180,110412,1,0,0:0:0:0:
475,143,111212,1,0,0:0:0:0:
314,167,111612,1,8,0:0:0:0:
397,69,112012,1,4,0:0:0:0:
297,128,112412,1,8,0:0:0:0:
431,198,112812,1,0,0:0:0:0:
364,185,113012,1,0,0:0:0:0:
336,180,113212,1,8,0:0:0:0:
336,180,113612,1,0,0:0:0:0:
146,138,114012,1,8,0:0:0:0:
314,167,114612,1,8,0:0:0:0:
369,94,115012,1,8,0:0:0:0:
397,69,115212,1,4,0:0:0:0:
297,128,115612,1,8,0:0:0:0:
431,198,116012,1,0,0:0:0:0:
364,185,116212,1,0,0:0:0:0:
336,180,116412,1,8,0:0:0:0:
336,180,116812,1,0,0:0:0:0:
475,143,117612,1,0,0:0:0:0:
314,167,118012,1,8,0:0:0:0:
397,69,118412,1,4,0:0:0:0:
297,128,118812,1,8,0:0:0:0:
431,198,119212,1,0,0:0:0:0:
364,185,119412,1,0,0:0:0:0:
336,180,119612,1,8,0:0:0:0:
336,180,120012,1,0,0:0:0:0:
146,138,120412,1,8,0:0:0:0:
136,78,121012,1,8,0:0:0:0:
261,152,121412,1,8,0:0:0:0:
397,69,121612,1,4,0:0:0:0:
297,128,122012,1,8,0:0:0:0:
431,198,122412,1,0,0:0:0:0:
364,185,122612,1,0,0:0:0:0:
336,180,122812,1,8,0:0:0:0:
336,180,123212,1,0,0:0:0:0:
475,143,124012,1,0,0:0:0:0:
314,167,124412,1,8,0:0:0:0:
397,69,124812,1,4,0:0:0:0:
297,128,125212,1,8,0:0:0:0:
431,198,125612,1,0,0:0:0:0:
364,185,125812,1,0,0:0:0:0:
336,180,126012,1,8,0:0:0:0:
336,180,126412,1,0,0:0:0:0:
146,138,126812,1,8,0:0:0:0:
238,136,127412,1,8,0:0:0:0:
219,128,127812,1,8,0:0:0:0:
218,128,128012,1,4,0:0:0:0:
232,122,128612,1,0,0:0:0:0:
277,113,129412,1,8,0:0:0:0:
255,101,130012,1,0,0:0:0:0:
255,101,130812,1,8,0:0:0:0:
307,100,131212,1,4,0:0:0:0:
244,155,131612,1,8,0:0:0:0:
244,155,131812,1,0,0:0:0:0:
252,153,132212,1,0,0:0:0:0:
296,132,132412,1,8,0:0:0:0:
359,98,133212,1,8,0:0:0:0:
359,98,133412,1,0,0:0:0:0:
310,54,133812,1,0,0:0:0:0:
359,98,134012,1,8,0:0:0:0:
310,54,134212,1,8,0:0:0:0:
307,100,134412,1,4,0:0:0:0:
244,155,134812,1,8,0:0:0:0:
244,155,135012,1,0,0:0:0:0:
252,153,135412,1,0,0:0:0:0:
296,132,135612,1,8,0:0:0:0:
359,98,136412,1,8,0:0:0:0:
359,98,136612,1,0,0:0:0:0:
310,54,137012,1,0,0:0:0:0:
359,98,137212,1,8,0:0:0:0:
310,54,137412,1,8,0:0:0:0:
307,100,137612,1,4,0:0:0:0:
244,155,138012,1,8,0:0:0:0:
244,155,138212,1,0,0:0:0:0:
252,153,138612,1,0,0:0:0:0:
296,132,138812,1,8,0:0:0:0:
359,98,139612,1,8,0:0:0:0:
359,98,139812,1,0,0:0:0:0:
310,54,140212,1,0,0:0:0:0:
359,98,140412,1,8,0:0:0:0:
310,54,140612,1,8,0:0:0:0:
307,100,140812,1,4,0:0:0:0:
244,155,141212,1,8,0:0:0:0:
244,155,141412,1,0,0:0:0:0:
252,153,141812,1,0,0:0:0:0:
296,132,142012,1,8,0:0:0:0:
359,98,142812,1,8,0:0:0:0:
359,98,143012,1,0,0:0:0:0:
310,54,143412,1,0,0:0:0:0:
359,98,143612,1,8,0:0:0:0:
310,54,143812,1,8,0:0:0:0:
307,100,144012,1,4,0:0:0:0:
244,155,144412,1,8,0:0:0:0:
244,155,144612,1,0,0:0:0:0:
252,153,145012,1,0,0:0:0:0:
296,132,145212,1,8,0:0:0:0:
359,98,146012,1,8,0:0:0:0:
359,98,146212,1,0,0:0:0:0:
310,54,146612,1,0,0:0:0:0:
359,98,146812,1,8,0:0:0:0:
310,54,147012,1,8,0:0:0:0:
307,100,147212,1,4,0:0:0:0:
244,155,147612,1,8,0:0:0:0:
244,155,147812,1,0,0:0:0:0:
252,153,148212,1,0,0:0:0:0:
296,132,148412,1,8,0:0:0:0:
359,98,149212,1,8,0:0:0:0:
359,98,149412,1,0,0:0:0:0:
310,54,149812,1,0,0:0:0:0:
359,98,150012,1,8,0:0:0:0:
310,54,150212,1,8,0:0:0:0:
307,100,150412,1,4,0:0:0:0:
244,155,150812,1,8,0:0:0:0:
244,155,151012,1,0,0:0:0:0:
252,153,151412,1,0,0:0:0:0:
296,132,151612,1,8,0:0:0:0:
359,98,152412,1,8,0:0:0:0:
359,98,152612,1,0,0:0:0:0:
310,54,153012,1,0,0:0:0:0:
359,98,153212,1,8,0:0:0:0:
310,54,153412,1,8,0:0:0:0:
301,147,153612,5,4,0:0:0:0:
412,139,154212,1,8,0:0:0:0:
363,129,155012,1,8,0:0:0:0:
363,129,155212,1,0,0:0:0:0:
349,99,155612,1,8,0:0:0:0:
336,97,156212,1,0,0:0:0:0:
336,97,156412,1,8,0:0:0:0:
336,97,156612,1,8,0:0:0:0:
301,147,156812,1,4,0:0:0:0:
412,139,157412,1,8,0:0:0:0:
363,129,158212,1,8,0:0:0:0:
363,129,158412,1,0,0:0:0:0:
349,99,158812,1,8,0:0:0:0:
336,97,159412,1,0,0:0:0:0:
336,97,159612,1,8,0:0:0:0:
336,97,159812,1,8,0:0:0:0:
301,147,160012,1,4,0:0:0:0:
412,139,160612,1,8,0:0:0:0:
363,129,161412,1,8,0:0:0:0:
363,129,161612,1,0,0:0:0:0:
223,65,162012,1,8,0:0:0:0:
238,47,162612,1,0,0:0:0:0:
238,47,162812,1,8,0:0:0:0:
238,47,163012,1,8,0:0:0:0:
238,47,163212,1,4,0:0:0:0:
224,57,163812,1,8,0:0:0:0:
368,75,164612,1,8,0:0:0:0:
368,75,165012,1,0,0:0:0:0:
368,75,165212,1,8,0:0:0:0:
367,67,165812,1,0,0:0:0:0:
367,67,166012,1,8,0:0:0:0:
367,67,166212,1,8,0:0:0:0:
361,74,166412,1,4,0:0:0:0:
