osu file format v14

[General]
AudioFilename: audio.mp3
AudioLeadIn: 0
PreviewTime: 68118
Countdown: 0
SampleSet: Soft
StackLeniency: 0.7
Mode: 0
LetterboxInBreaks: 0
WidescreenStoryboard: 0

[Editor]
Bookmarks: 6539,19171,31803,44434,57066,69697,94961,101276,113908,126539,136013,137592,139171,151803,177066
DistanceSpacing: 0.7
BeatDivisor: 4
GridSize: 8
TimelineZoom: 1

[Metadata]
Title:Diu & Zaf
TitleUnicode:Diu & Zaf
Artist:Dio feat. Sef
ArtistUnicode:Dio feat. Sef
Creator:Gordon
Version:Story of Two Brothers
Source:Benjamin Braafs Festival
Tags:hip hop rap dutch explicit Lazarus StarCastler porgDEITY a bat a_bat Ent entsetzen Macuilxochitl and
BeatmapID:3459283
BeatmapSetID:1692868

[Difficulty]
HPDrainRate:5
CircleSize:4
OverallDifficulty:8
ApproachRate:8.5
SliderMultiplier:1.8
SliderTickRate:1

[Events]
//Background and Video events
0,0,"fsdfsfsd.png",0,0
//Break Periods
2,95161,100487
//Storyboard Layer 0 (Background)
//Storyboard Layer 1 (Fail)
//Storyboard Layer 2 (Pass)
//Storyboard Layer 3 (Foreground)
//Storyboard Layer 4 (Overlay)
//Storyboard Sound Samples

[TimingPoints]
6540,394.736842105263,4,2,0,60,1,0
6836,-100,4,2,0,5,0,0
6934,-100,4,2,0,60,0,0
28941,-100,4,2,0,5,0,0
29039,-100,4,2,0,60,0,0
40388,-100,4,2,0,5,0,0
40487,-100,4,2,0,60,0,0
69303,-100,4,1,0,60,0,0
69697,-100,4,2,0,80,0,1
94961,-100,4,2,0,60,0,0
95553,-100,4,1,0,60,0,0
95651,-100,4,2,0,60,0,0
98711,-100,4,1,0,60,0,0
98809,-100,4,2,0,60,0,0
151408,-250,4,1,0,60,0,0
151704,-250,4,1,0,5,0,0
151803,-100,4,2,0,80,0,1
177066,-100,4,2,0,60,0,0

[Colours]
Combo1 : 255,255,0
Combo2 : 128,255,0
Combo3 : 255,0,0
Combo4 : 0,128,192

[HitObjects]
512,104,6539,6,0,B|537:173|491:252,1,135,4|0,1:0|0:0,0:0:0:0:
488,248,6934,1,8,0:0:0:0:
392,360,7132,2,0,B|397:310|360:274,1,90,4|0,1:0|0:0,0:0:0:0:
400,160,7526,1,8,0:0:0:0:
500,234,7724,2,0,B|526:190|508:140,1,90,4|2,1:0|0:0,0:0:0:0:
448,40,8118,5,0,1:0:0:0:
328,48,8316,1,4,0:0:0:0:
296,160,8513,1,8,0:0:0:0:
408,232,8711,1,0,1:0:0:0:
408,240,9105,1,8,0:0:0:0:
312,232,9303,1,0,1:0:0:0:
240,280,9500,1,2,0:0:0:0:
216,368,9697,38,0,B|176:400|120:368,1,90,4|0,1:0|0:0,0:0:0:0:
120,368,9993,1,0,0:0:0:0:
114,357,10092,1,8,0:0:0:0:
224,208,10289,2,0,B|218:258|156:275,1,90,4|0,1:0|0:0,0:0:0:0:
156,275,10585,1,0,0:0:0:0:
145,272,10684,1,8,0:0:0:0:
115,89,10882,2,0,B|146:129|114:185,1,90,4|2,1:0|0:0,0:0:0:0:
114,184,11178,1,0,0:0:0:0:
104,190,11277,5,4,1:0:0:0:
8,144,11474,1,2,0:0:0:0:
8,48,11671,1,8,0:0:0:0:
96,8,11868,1,0,1:0:0:0:
88,96,12066,1,2,0:0:0:0:
200,176,12263,1,8,0:0:0:0:
296,72,12461,1,0,1:0:0:0:
400,160,12658,1,8,0:0:0:0:
408,144,12757,1,8,0:0:0:0:
416,128,12855,37,4,1:0:0:0:
413,324,13053,1,0,0:0:0:0:
297,164,13250,1,8,0:0:0:0:
485,225,13447,2,0,B|440:216|386:241,1,90,4|0,1:0|0:0,0:0:0:0:
208,216,13842,1,8,0:0:0:0:
336,296,14039,1,0,1:0:0:0:
336,296,14237,1,2,0:0:0:0:
376,168,14434,5,0,1:0:0:0:
285,88,14632,1,4,0:0:0:0:
183,145,14829,1,8,0:0:0:0:
211,275,15027,1,0,1:0:0:0:
206,281,15421,1,8,0:0:0:0:
272,239,15619,1,0,1:0:0:0:
262,162,15816,1,2,0:0:0:0:
189,133,16013,38,0,L|93:125,1,90,4|0,1:0|0:0,0:0:0:0:
189,133,16408,1,8,0:0:0:0:
281,318,16605,2,0,L|377:326,1,90,4|0,1:0|0:0,0:0:0:0:
281,318,17000,1,8,0:0:0:0:
235,227,17197,1,0,1:0:0:0:
235,227,17395,1,2,0:0:0:0:
168,296,17592,37,8,0:0:0:0:
128,176,17789,1,8,0:0:0:0:
128,176,17888,1,8,0:0:0:0:
128,176,17987,1,8,0:0:0:0:
232,96,18184,1,8,0:0:0:0:
232,96,18283,1,8,0:0:0:0:
232,96,18382,1,8,0:0:0:0:
250,84,18480,1,8,0:0:0:0:
272,80,18579,1,0,0:0:0:0:
294,84,18678,1,8,0:0:0:0:
313,96,18776,1,0,0:0:0:0:
331,107,18874,1,8,0:0:0:0:
353,111,18973,1,2,0:0:0:0:
472,88,19171,22,0,B|480:40|504:0,2,90,4|2|0,1:0|0:0|1:0,0:0:0:0:
464,272,19763,2,0,B|456:224|434:187,1,90,8|2,0:0|0:0,0:0:0:0:
434,187,20158,1,0,1:0:0:0:
382,26,20355,2,0,B|360:63|352:111,1,90,8|4,0:0|0:0,0:0:0:0:
240,216,20750,2,0,B|280:200|280:200|328:224,1,90,8|0,0:0|0:0,0:0:0:0:
296,320,21145,2,0,B|255:336|255:336|207:312,1,90,0|8,1:0|0:0,0:0:0:0:
144,160,21539,1,0,0:0:0:0:
112,320,21737,1,0,1:0:0:0:
64,232,21934,1,8,0:0:0:0:
152,240,22132,1,4,0:0:0:0:
224,136,22329,38,0,B|224:88|248:48,1,90,8|0,0:0|0:0,0:0:0:0:
224,136,22724,1,0,1:0:0:0:
152,72,22921,1,8,0:0:0:0:
312,112,23118,1,0,0:0:0:0:
232,144,23316,1,0,1:0:0:0:
312,216,23513,1,8,0:0:0:0:
232,328,23711,1,8,0:0:0:0:
376,384,23908,2,0,L|472:368,1,90,8|2,0:0|0:0,0:0:0:0:
320,224,24303,2,0,L|223:239,1,90,8|0,0:0|1:0,0:0:0:0:
159,124,24697,1,8,0:0:0:0:
37,149,24895,1,2,0:0:0:0:
162,108,25092,1,8,0:0:0:0:
232,232,25289,1,4,0:0:0:0:
136,312,25487,6,0,B|99:290|51:282,2,90,8|2|0,0:0|0:0|1:0,0:0:0:0:
312,304,26079,2,0,B|275:325|227:333,1,90,8|0,0:0|0:0,0:0:0:0:
227,333,26474,1,0,1:0:0:0:
112,208,26671,2,0,B|160:216|196:237,1,90,8|4,0:0|0:0,0:0:0:0:
296,184,27066,2,0,B|280:144|280:144|304:96,1,90,8|0,0:0|0:0,0:0:0:0:
400,232,27461,2,0,B|416:273|416:273|392:321,1,90,0|8,1:0|0:0,0:0:0:0:
328,264,27855,1,2,0:0:0:0:
328,264,28053,1,0,1:0:0:0:
496,280,28250,1,8,0:0:0:0:
320,344,28447,1,4,0:0:0:0:
184,224,28645,38,0,B|176:152|128:88,1,135,8|0,0:0|0:0,0:0:0:0:
120,104,29039,2,0,P|152:144|208:144,1,90,0|8,1:0|0:0,0:0:0:0:
304,80,29434,1,2,0:0:0:0:
416,144,29632,1,0,1:0:0:0:
416,272,29829,1,8,0:0:0:0:
304,336,30026,1,8,0:0:0:0:
208,256,30224,2,0,P|248:224|304:208,1,90,8|0,0:0|0:0,0:0:0:0:
392,136,30618,2,0,P|350:119|315:90,1,90,0|8,1:0|0:0,0:0:0:0:
315,90,31013,21,2,0:0:0:0:
179,21,31211,1,8,0:0:0:0:
47,87,31408,1,8,0:0:0:0:
37,239,31605,1,8,0:0:0:0:
176,304,31803,38,0,B|200:208|160:112,1,180,4|8,1:0|0:0,0:0:0:0:
85,0,32395,2,0,B|67:40|79:88,1,90,0|2,1:0|0:0,0:0:0:0:
79,88,32789,1,8,0:0:0:0:
176,40,32987,1,0,1:0:0:0:
88,176,33184,1,2,0:0:0:0:
184,312,33382,2,0,L|288:304,1,90,0|0,1:0|0:0,0:0:0:0:
376,216,33776,2,0,L|272:224,1,90,8|0,0:0|1:0,0:0:0:0:
176,168,34171,1,0,0:0:0:0:
152,40,34368,1,8,0:0:0:0:
304,88,34566,1,0,1:0:0:0:
280,216,34763,1,4,0:0:0:0:
152,240,34961,6,0,B|62:210|10:112,1,180,0|8,1:0|0:0,0:0:0:0:
24,8,35553,2,0,B|68:22|94:71,1,90,0|2,1:0|0:0,0:0:0:0:
90,65,35947,1,8,0:0:0:0:
8,104,36145,1,0,1:0:0:0:
144,8,36342,1,2,0:0:0:0:
264,96,36539,2,0,L|243:183,1,90,0|0,1:0|0:0,0:0:0:0:
376,288,36934,2,0,L|355:200,1,90,8|0,0:0|1:0,0:0:0:0:
398,110,37329,1,2,0:0:0:0:
327,43,37526,1,8,0:0:0:0:
241,86,37724,1,0,1:0:0:0:
257,183,37921,1,4,0:0:0:0:
354,200,38118,38,0,B|402:188|450:208,1,90,0|2,1:0|0:0,0:0:0:0:
443,205,38513,1,8,0:0:0:0:
296,280,38711,2,0,B|247:292|199:271,1,90,0|2,1:0|0:0,0:0:0:0:
207,274,39106,1,8,0:0:0:0:
256,192,39303,1,0,1:0:0:0:
256,376,39500,1,2,0:0:0:0:
160,192,39697,2,0,P|136:144|112:112,1,90,0|0,1:0|0:0,0:0:0:0:
320,64,40092,2,0,P|277:122|259:189,1,135,8|0,0:0|0:0,0:0:0:0:
273,197,40487,2,0,B|361:189|337:277|434:273,1,180,4|0,0:0|1:0,0:0:0:0:
426,273,41079,1,2,0:0:0:0:
193,277,41276,6,2,P|234:292|275:276,1,90,0|0,1:0|0:0,0:0:0:0:
425,189,41671,2,0,P|383:173|342:189,1,90,8|0,0:0|1:0,0:0:0:0:
383,259,42066,1,2,0:0:0:0:
337,109,42263,1,8,0:0:0:0:
177,109,42461,1,0,1:0:0:0:
127,259,42658,1,2,0:0:0:0:
255,353,42855,2,0,B|213:257|296:257|255:139,1,180,0|8,1:0|0:0,0:0:0:0:
257,165,43349,1,8,0:0:0:0:
248,156,43447,1,0,1:0:0:0:
106,183,43645,21,8,0:0:0:0:
405,183,43842,1,2,0:0:0:0:
367,314,44039,1,0,1:0:0:0:
144,314,44237,1,2,0:0:0:0:
256,248,44434,5,4,1:0:0:0:
256,248,44632,1,2,0:0:0:0:
256,352,44829,1,0,1:0:0:0:
167,301,45026,2,0,L|151:205,1,90,8|2,0:0|0:0,0:0:0:0:
152,212,45421,1,0,1:0:0:0:
72,80,45618,2,0,L|56:176,1,90,8|2,0:0|0:0,0:0:0:0:
0,40,46013,2,0,B|32:-16|120:-16|152:56,1,180,8|0,0:0|1:0,0:0:0:0:
147,47,46605,1,8,0:0:0:0:
72,80,46803,1,2,0:0:0:0:
144,144,47000,1,0,1:0:0:0:
72,232,47197,1,8,0:0:0:0:
160,328,47395,1,4,0:0:0:0:
104,384,47592,37,8,0:0:0:0:
104,384,47789,1,0,0:0:0:0:
152,248,47987,1,0,1:0:0:0:
232,368,48184,2,0,L|344:352,1,90,8|0,0:0|0:0,0:0:0:0:
321,355,48579,1,0,1:0:0:0:
440,384,48776,1,8,0:0:0:0:
496,280,48974,1,8,0:0:0:0:
416,200,49171,1,8,0:0:0:0:
320,264,49368,1,0,0:0:0:0:
320,264,49467,1,0,0:0:0:0:
320,264,49566,2,0,B|280:284|232:260,1,90,8|0,0:0|1:0,0:0:0:0:
194,163,49961,1,8,0:0:0:0:
92,149,50158,1,2,0:0:0:0:
29,229,50356,1,8,0:0:0:0:
67,324,50553,1,4,0:0:0:0:
169,339,50750,5,8,0:0:0:0:
169,339,50947,1,2,0:0:0:0:
125,252,51145,1,0,1:0:0:0:
192,176,51342,2,0,L|288:192,1,90,8|0,0:0|0:0,0:0:0:0:
280,190,51737,1,0,1:0:0:0:
421,100,51934,2,0,L|325:116,1,90,8|2,0:0|0:0,0:0:0:0:
208,87,52329,1,8,0:0:0:0:
301,0,52526,1,2,0:0:0:0:
328,124,52724,1,0,1:0:0:0:
208,0,52921,1,8,0:0:0:0:
278,68,53118,1,2,0:0:0:0:
208,160,53316,1,0,1:0:0:0:
296,232,53513,1,8,0:0:0:0:
192,320,53711,1,4,0:0:0:0:
264,360,53908,37,8,0:0:0:0:
264,360,54105,1,0,0:0:0:0:
216,248,54303,1,0,1:0:0:0:
120,320,54500,2,0,L|8:336,1,90,8|0,0:0|0:0,0:0:0:0:
120,320,54895,1,0,1:0:0:0:
269,366,55092,1,8,0:0:0:0:
400,264,55289,1,8,0:0:0:0:
376,104,55487,2,0,B|287:96|310:176|200:155,1,180,10|0,0:1|1:0,0:0:0:0:
212,156,56079,1,8,0:0:0:0:
159,69,56276,21,0,0:0:0:0:
298,49,56474,1,8,0:0:0:0:
355,180,56671,1,8,0:0:0:0:
243,270,56868,1,8,0:0:0:0:
121,187,57066,38,0,P|82:167|29:165,1,90,4|0,1:0|0:0,0:0:0:0:
27,168,57362,1,0,0:0:0:0:
21,176,57461,1,8,0:0:0:0:
171,244,57658,2,0,P|215:240|255:220,1,90,0|0,1:0|0:0,0:0:0:0:
455,157,58053,1,8,0:0:0:0:
459,166,58151,1,0,0:0:0:0:
464,176,58250,2,0,B|448:248|400:272|328:248,1,180,0|4,1:0|1:0,0:0:0:0:
256,144,58842,1,2,0:0:0:0:
144,200,59039,1,8,0:0:0:0:
144,200,59138,1,0,0:0:0:0:
144,200,59237,1,0,1:0:0:0:
224,288,59434,2,0,B|192:328|136:320,1,90,2|8,0:0|0:0,0:0:0:0:
40,352,59829,2,0,B|71:358|95:374,2,60,0|0|0,1:0|0:0|0:0,0:0:0:0:
16,336,60224,6,0,L|8:384,2,45,4|2|0,1:0|0:0|0:0,0:0:0:0:
72,256,60618,1,0,0:0:0:0:
24,144,60816,1,0,1:0:0:0:
24,144,60914,1,0,0:0:0:0:
24,144,61013,2,0,B|64:112|120:128,1,90,2|8,0:0|0:0,0:0:0:0:
272,104,61408,2,0,B|227:117|187:85,1,90,0|2,0:0|0:0,0:0:0:0:
248,16,61803,1,4,1:0:0:0:
336,40,62000,1,2,0:0:0:0:
424,8,62197,1,8,0:0:0:0:
512,64,62395,1,0,1:0:0:0:
512,64,62493,1,0,0:0:0:0:
512,64,62592,2,0,L|496:160,1,90,2|8,0:0|0:0,0:0:0:0:
416,256,62987,2,0,B|408:224|384:184,2,60
416,280,63382,37,4,1:0:0:0:
328,256,63579,1,2,0:0:0:0:
176,216,63776,1,8,0:0:0:0:
264,192,63973,1,0,1:0:0:0:
152,296,64171,2,0,B|112:280|64:280,1,90,2|8,0:0|0:0,0:0:0:0:
168,384,64566,2,0,B|248:368|264:280|208:216,1,180,0|4,1:0|1:0,0:0:0:0:
136,144,65158,1,2,0:0:0:0:
224,32,65355,1,8,0:0:0:0:
296,88,65553,1,0,0:0:0:0:
296,88,65651,1,0,0:0:0:0:
296,88,65750,2,0,P|260:118|202:112,1,90,2|8,0:0|0:0,0:0:0:0:
56,40,66145,2,0,P|102:39|143:81,1,90,0|4,0:0|0:0,0:0:0:0:
151,256,66539,6,0,L|129:352,1,90,4|0,1:0|0:0,0:0:0:0:
232,384,66934,1,0,0:0:0:0:
166,246,67132,1,2,0:0:0:0:
333,168,67329,1,0,1:0:0:0:
276,313,67527,1,8,0:0:0:0:
412,384,67724,1,0,1:0:0:0:
341,256,67922,1,2,0:0:0:0:
488,240,68118,2,0,P|437:234|397:206,1,90,2|0,1:2|0:0,0:0:0:0:
328,72,68513,1,8,0:2:0:0:
328,72,68612,1,8,0:2:0:0:
328,72,68711,1,8,0:2:0:0:
408,128,68908,1,2,1:2:0:0:
283,268,69105,1,2,0:2:0:0:
163,45,69303,1,0,0:0:0:0:
48,168,69500,1,0,0:0:0:0:
88,24,69697,6,0,B|72:120|144:88|128:208,1,180,4|8,1:0|0:0,0:0:0:0:
213,240,70289,2,0,B|189:296|141:296,1,90,4|2,1:0|0:0,0:0:0:0:
48,256,70684,1,8,0:0:0:0:
208,152,70882,2,0,L|304:168,1,90,4|2,1:0|0:0,0:0:0:0:
456,112,71276,1,4,1:0:0:0:
384,56,71474,1,4,0:0:0:0:
296,88,71671,1,8,0:0:0:0:
304,176,71868,2,0,L|288:272,1,90,0|4,1:0|0:0,0:0:0:0:
289,264,72263,1,0,0:0:0:0:
424,376,72461,2,0,L|409:287,1,90,0|2,0:0|0:0,0:0:0:0:
448,202,72855,21,4,1:0:0:0:
316,271,73053,1,2,0:0:0:0:
316,271,73151,1,0,0:0:0:0:
316,271,73250,1,8,0:0:0:0:
384,137,73447,1,4,1:0:0:0:
384,137,73546,1,0,0:0:0:0:
384,137,73644,1,2,0:0:0:0:
409,287,73842,1,8,0:0:0:0:
301,180,74039,1,4,1:0:0:0:
301,180,74138,1,0,0:0:0:0:
301,180,74237,1,2,0:0:0:0:
456,208,74434,2,0,L|360:216,1,90,4|4,1:0|0:0,0:0:0:0:
224,144,74829,1,8,0:0:0:0:
296,80,75026,1,0,1:0:0:0:
376,128,75224,2,0,L|368:184,2,45,2|2|8,0:0|0:0|0:0,0:0:0:0:
440,56,75618,1,0,1:0:0:0:
504,128,75816,1,8,0:0:0:0:
507,145,75915,1,8,0:0:0:0:
511,163,76013,21,4,1:0:0:0:
432,296,76211,1,0,0:0:0:0:
280,264,76408,1,8,0:0:0:0:
248,120,76605,2,0,B|239:75|264:21,1,90,0|4,1:0|0:0,0:0:0:0:
336,88,77000,1,8,0:0:0:0:
152,56,77197,1,0,1:0:0:0:
152,56,77395,1,2,0:0:0:0:
64,128,77592,1,4,1:0:0:0:
101,240,77789,1,4,0:0:0:0:
216,228,77987,1,8,0:0:0:0:
248,136,78184,2,0,P|207:131|161:151,1,90,0|4,1:0|0:0,0:0:0:0:
162,150,78579,1,0,0:0:0:0:
312,208,78776,2,0,P|352:226|397:222,1,90,0|2,1:0|0:0,0:0:0:0:
512,152,79171,22,2,B|472:96|400:88|360:152,1,180,4|8,1:0|0:0,0:0:0:0:
362,148,79763,1,0,1:0:0:0:
480,272,79961,1,2,0:0:0:0:
448,368,80158,1,8,0:0:0:0:
352,368,80355,1,0,1:0:0:0:
320,280,80553,1,2,0:0:0:0:
397,222,80750,1,8,0:0:0:0:
376,128,80947,1,8,0:0:0:0:
376,128,81046,1,8,0:0:0:0:
376,128,81145,1,8,0:0:0:0:
296,88,81342,1,8,0:0:0:0:
296,88,81441,1,8,0:0:0:0:
296,88,81539,1,8,0:0:0:0:
300,65,81637,1,8,0:0:0:0:
313,47,81736,1,0,0:0:0:0:
331,33,81835,1,8,0:0:0:0:
355,28,81934,2,0,P|379:23|411:15,3,45,0|8|2|0,0:0|0:0|0:0|0:0,0:0:0:0:
480,0,82329,22,0,B|487:97|417:66|424:179,1,180,4|8,1:0|0:0,0:0:0:0:
480,240,82921,2,0,B|522:211|503:153,1,90,4|2,1:0|0:0,0:0:0:0:
505,160,83316,1,8,0:0:0:0:
392,248,83513,2,0,L|288:240,1,90,4|2,1:0|0:0,0:0:0:0:
136,312,83908,1,4,1:0:0:0:
208,368,84106,1,4,0:0:0:0:
296,336,84303,1,8,0:0:0:0:
296,248,84500,2,0,L|312:152,1,90,0|4,1:0|0:0,0:0:0:0:
314,146,84796,1,0,0:0:0:0:
318,132,84895,1,0,0:0:0:0:
176,48,85092,2,0,L|191:137,1,90,0|2,0:0|0:0,0:0:0:0:
195,151,85387,1,0,0:0:0:0:
199,165,85486,21,4,1:0:0:0:
154,315,85684,1,2,0:0:0:0:
154,315,85783,1,0,0:0:0:0:
154,315,85882,1,8,0:0:0:0:
125,224,86079,1,4,1:0:0:0:
125,224,86178,1,0,0:0:0:0:
125,224,86276,1,2,0:0:0:0:
244,307,86474,1,8,0:0:0:0:
271,221,86671,1,4,1:0:0:0:
271,221,86770,1,0,0:0:0:0:
271,221,86868,1,2,0:0:0:0:
195,241,87066,1,4,1:0:0:0:
252,323,87263,1,4,0:0:0:0:
346,310,87461,1,8,0:0:0:0:
381,214,87658,1,0,1:0:0:0:
307,139,87855,2,0,P|296:172|286:233,1,90,4|8,0:0|0:0,0:0:0:0:
307,139,88250,1,0,1:0:0:0:
252,55,88448,1,8,0:0:0:0:
235,52,88547,1,8,0:0:0:0:
217,48,88645,21,4,1:0:0:0:
108,26,88842,1,0,0:0:0:0:
0,152,89039,1,8,0:0:0:0:
160,120,89237,2,0,L|150:216,1,90,0|4,1:0|0:0,0:0:0:0:
150,209,89632,1,8,0:0:0:0:
64,336,89829,2,0,L|54:246,1,90,0|2,1:0|0:0,0:0:0:0:
80,136,90224,1,4,1:0:0:0:
80,136,90421,1,4,0:0:0:0:
150,209,90618,1,8,0:0:0:0:
56,352,90816,2,0,B|96:328|152:336,1,90,0|4,1:0|0:0,0:0:0:0:
142,334,91211,1,0,0:0:0:0:
296,296,91408,2,0,B|249:302|209:278,1,90,0|2,1:0|0:0,0:0:0:0:
192,152,91803,22,2,B|240:112|328:136|352:184,1,180,4|8,1:0|0:0,0:0:0:0:
350,181,92395,1,0,1:0:0:0:
312,336,92592,1,4,0:0:0:0:
226,374,92789,1,8,0:0:0:0:
162,301,92987,1,0,1:0:0:0:
210,222,93184,1,2,0:0:0:0:
304,226,93382,1,8,0:0:0:0:
360,142,93579,1,8,0:0:0:0:
360,142,93678,1,8,0:0:0:0:
360,142,93776,1,8,0:0:0:0:
281,85,93974,1,8,0:0:0:0:
281,85,94072,1,8,0:0:0:0:
281,85,94171,1,8,0:0:0:0:
276,61,94269,1,8,0:0:0:0:
281,39,94368,1,0,0:0:0:0:
288,18,94467,1,8,0:0:0:0:
304,0,94566,2,0,L|357:4,2,45,0|8|2,0:0|0:0|0:0,0:0:0:0:
184,0,94961,1,4,1:0:0:0:
24,368,101276,5,4,1:0:0:0:
59,339,101375,1,0,0:0:0:0:
74,356,101474,1,2,0:0:0:0:
88,373,101572,1,0,0:0:0:0:
130,347,101671,1,0,1:0:0:0:
208,248,101868,2,0,P|216:200|240:152,1,90,8|0,0:0|0:0,0:0:0:0:
233,162,102263,1,0,1:0:0:0:
368,56,102461,2,0,P|344:64|304:64,3,45,8|0|2|0,0:0|0:0|0:0|0:0,0:0:0:0:
305,62,102855,1,8,0:0:0:0:
224,24,103053,1,2,0:0:0:0:
224,24,103151,1,0,0:0:0:0:
224,24,103250,1,0,1:0:0:0:
161,147,103447,2,0,B|196:186|269:152,1,90,8|2,0:0|0:0,0:0:0:0:
244,161,103842,1,0,1:0:0:0:
438,154,104039,2,0,B|389:129|354:168,1,90,0|4,0:0|0:0,0:0:0:0:
296,288,104434,37,8,0:0:0:0:
261,259,104533,1,0,0:0:0:0:
246,276,104632,1,2,0:0:0:0:
232,293,104730,1,0,0:0:0:0:
190,267,104829,1,0,1:0:0:0:
149,290,104928,1,0,0:0:0:0:
135,273,105026,1,8,0:0:0:0:
120,256,105125,1,0,0:0:0:0:
88,280,105224,2,0,L|-8:264,1,90,2|0,0:0|1:0,0:0:0:0:
88,136,105618,1,0,0:0:0:0:
208,184,105816,1,2,0:0:0:0:
208,184,105914,1,2,0:0:0:0:
208,184,106013,2,0,P|216:136|240:88,1,90,8|2,0:0|0:0,0:0:0:0:
128,0,106408,2,0,P|146:41|153:85,1,90,8|0,0:0|1:0,0:0:0:0:
64,72,106803,1,8,0:0:0:0:
240,16,107000,1,0,0:0:0:0:
304,168,107197,2,0,P|318:210|321:255,1,90,0|4,0:0|0:0,0:0:0:0:
224,368,107592,6,0,B|128:368|178:275|72:272,1,180,8|0,0:0|0:0,0:0:0:0:
0,344,108184,2,0,B|32:384|88:352,1,90,0|2,0:0|0:0,0:0:0:0:
81,355,108579,1,0,1:0:0:0:
224,280,108776,1,0,0:0:0:0:
312,336,108974,1,2,0:0:0:0:
312,336,109072,1,0,0:0:0:0:
312,336,109171,2,0,B|360:248|312:160,1,180,8|0,0:0|1:0,0:0:0:0:
224,24,109763,2,0,B|201:66|225:110,1,90,8|2,0:0|0:0,0:0:0:0:
304,64,110158,1,0,1:0:0:0:
152,152,110355,2,0,B|169:196|218:206,1,90,0|2,0:0|0:0,0:0:0:0:
456,116,110750,37,8,0:0:0:0:
448,166,110848,1,0,0:0:0:0:
442,217,110947,1,2,0:0:0:0:
435,267,111046,1,0,0:0:0:0:
476,283,111145,1,2,0:0:0:0:
428,301,111243,1,0,0:0:0:0:
381,321,111342,1,8,0:0:0:0:
333,341,111441,1,0,0:0:0:0:
344,384,111540,1,2,0:0:0:0:
305,351,111638,1,0,0:0:0:0:
264,321,111737,1,2,0:0:0:0:
223,289,111836,1,0,0:0:0:0:
187,315,111935,1,8,0:0:0:0:
195,265,112033,1,0,0:0:0:0:
200,214,112132,1,8,0:0:0:0:
208,162,112231,1,0,0:0:0:0:
161,145,112330,1,8,0:0:0:0:
210,128,112428,1,0,0:0:0:0:
257,108,112527,1,2,0:0:0:0:
305,88,112626,1,0,0:0:0:0:
299,44,112724,1,2,0:0:0:0:
339,77,112822,1,0,0:0:0:0:
380,108,112921,1,2,0:0:0:0:
421,139,113020,1,0,0:0:0:0:
436,130,113118,37,2,0:0:0:0:
383,283,113316,1,8,0:0:0:0:
224,39,113513,1,0,0:0:0:0:
135,346,113711,1,8,0:0:0:0:
40,168,113908,6,0,L|104:176,3,45,4|0|2|0,1:0|0:0|0:0|0:0,0:0:0:0:
104,176,114303,1,8,0:0:0:0:
208,160,114500,1,0,1:0:0:0:
208,160,114599,1,0,0:0:0:0:
208,160,114697,2,0,B|195:182|192:202,2,45,0|0|8,0:0|0:0|0:0,0:0:0:0:
184,48,115092,1,0,1:0:0:0:
154,31,115190,1,0,0:0:0:0:
121,28,115289,1,2,0:0:0:0:
90,40,115388,1,0,0:0:0:0:
65,62,115487,2,0,L|72:152,1,90,0|2,1:0|0:0,0:0:0:0:
0,256,115882,1,8,0:0:0:0:
104,328,116079,1,0,1:0:0:0:
176,216,116276,1,2,0:0:0:0:
200,191,116374,1,0,0:0:0:0:
231,180,116473,1,8,0:0:0:0:
264,183,116572,1,0,0:0:0:0:
294,198,116671,1,0,1:0:0:0:
368,296,116868,1,4,0:0:0:0:
368,296,116967,1,0,0:0:0:0:
368,296,117066,38,2,L|384:192,1,90,0|0,1:0|0:0,0:0:0:0:
387,190,117362,1,0,0:0:0:0:
392,173,117461,1,8,0:0:0:0:
464,104,117658,1,0,1:0:0:0:
400,32,117855,1,2,0:0:0:0:
370,15,117953,1,0,0:0:0:0:
337,12,118052,1,8,0:0:0:0:
306,24,118151,1,0,0:0:0:0:
281,46,118250,2,0,P|262:57|232:57,3,45,0|0|2|0,1:0|0:0|0:0|0:0,0:0:0:0:
216,49,118645,1,0,1:0:0:0:
125,10,118842,1,2,0:0:0:0:
125,10,118941,1,0,0:0:0:0:
125,10,119039,1,8,0:0:0:0:
56,85,119237,1,0,1:0:0:0:
56,85,119336,1,0,0:0:0:0:
56,85,119434,1,2,0:0:0:0:
96,170,119632,1,8,0:0:0:0:
191,147,119829,1,0,1:0:0:0:
282,202,120026,1,0,0:0:0:0:
282,202,120125,1,0,0:0:0:0:
282,202,120224,6,2,L|274:298,1,90,0|0,1:0|0:0,0:0:0:0:
339,368,120618,1,8,0:0:0:0:
339,368,120717,1,0,0:0:0:0:
358,373,120815,1,0,1:0:0:0:
358,373,120914,1,0,0:0:0:0:
377,377,121013,1,2,0:0:0:0:
377,377,121112,1,0,0:0:0:0:
394,377,121211,1,8,0:0:0:0:
480,335,121408,1,0,1:0:0:0:
429,258,121605,1,2,0:0:0:0:
429,258,121704,1,0,0:0:0:0:
429,258,121803,2,0,B|395:263|358:283,2,60,0|0|2,1:0|0:0|0:0,0:0:0:0:
450,260,122197,2,0,L|457:170,1,90,8|0,0:0|1:0,0:0:0:0:
507,76,122592,2,0,P|491:83|450:86,3,45,2|0|8|0,0:0|0:0|0:0|0:0,0:0:0:0:
441,78,122987,1,0,1:0:0:0:
358,129,123184,1,0,0:0:0:0:
283,71,123382,38,0,B|284:27|284:27|266:2|248:-7|227:4|212:25|212:25|212:71,1,180,6|8,0:1|0:0,0:0:0:0:
120,96,123974,1,0,0:0:0:0:
120,96,124072,1,0,0:0:0:0:
120,96,124171,1,2,0:0:0:0:
72,184,124368,1,8,0:0:0:0:
120,272,124566,1,0,1:0:0:0:
208,320,124763,1,0,0:0:0:0:
208,320,124862,1,0,0:0:0:0:
208,320,124961,2,0,B|208:366|208:366|223:387|244:398|262:389|280:364|280:364|279:320,1,180,6|8,0:1|0:0,0:0:0:0:
279,304,125454,1,8,0:0:0:0:
279,288,125553,1,0,1:0:0:0:
279,271,125651,1,0,0:0:0:0:
279,254,125750,1,8,0:0:0:0:
448,160,125947,1,0,1:0:0:0:
512,352,126145,1,0,1:0:0:0:
512,352,126539,6,0,B|424:376|432:272|330:297,1,180,4|0,1:0|1:0,0:0:0:0:
320,384,127132,2,0,P|280:365|264:320,1,90,8|2,0:0|0:0,0:0:0:0:
264,324,127526,1,0,1:0:0:0:
352,200,127724,2,0,L|248:184,1,90,8|2,0:0|0:0,0:0:0:0:
200,104,128118,1,8,0:0:0:0:
128,248,128316,1,2,0:0:0:0:
128,248,128414,1,0,0:0:0:0:
128,248,128513,1,0,1:0:0:0:
256,192,128711,1,8,0:0:0:0:
104,168,128908,1,2,0:0:0:0:
32,208,129105,1,0,1:0:0:0:
32,296,129303,1,8,0:0:0:0:
104,336,129500,1,4,0:0:0:0:
184,288,129697,6,0,P|232:280|288:272,1,90,8|0,0:0|0:0,0:0:0:0:
272,274,130092,1,0,1:0:0:0:
456,360,130289,2,0,P|411:353|367:346,1,90,8|0,0:0|0:0,0:0:0:0:
367,346,130684,1,0,1:0:0:0:
264,376,130882,1,8,0:0:0:0:
433,269,131079,1,0,0:0:0:0:
314,83,131276,2,0,P|266:75|210:67,1,90,8|0,0:0|0:0,0:0:0:0:
95,114,131671,1,8,0:0:0:0:
95,114,131868,1,0,1:0:0:0:
136,184,132066,1,8,0:0:0:0:
184,3,132263,1,2,0:0:0:0:
0,3,132461,1,8,0:0:0:0:
48,184,132658,1,4,0:0:0:0:
88,24,132855,38,0,L|95:117,1,90,8|2,0:0|0:0,0:0:0:0:
94,113,133250,1,0,1:0:0:0:
136,280,133447,2,2,L|142:190,1,90,8|0,0:0|0:0,0:0:0:0:
142,190,133842,1,0,1:0:0:0:
264,88,134039,2,2,P|232:112|176:112,1,90,8|0,0:0|0:0,0:0:0:0:
336,24,134434,2,0,B|264:96|288:200,1,180,8|0,0:0|1:0,0:0:0:0:
285,188,135026,1,8,0:0:0:0:
416,352,135224,1,0,0:0:0:0:
456,232,135421,1,0,1:0:0:0:
384,160,135618,1,8,2:0:0:0:
296,184,135816,1,4,0:0:0:0:
304,272,136013,37,8,0:0:0:0:
304,272,136211,1,2,0:0:0:0:
411,254,136408,1,0,1:0:0:0:
218,123,136605,1,8,0:0:0:0:
344,48,136803,1,2,0:0:0:0:
411,94,137000,1,0,1:0:0:0:
312,272,137197,1,8,0:0:0:0:
222,210,137394,1,8,0:0:0:0:
312,168,137592,21,8,0:0:0:0:
312,168,137789,1,0,0:0:0:0:
197,332,137987,1,0,1:0:0:0:
68,104,138184,1,8,0:0:0:0:
266,62,138382,1,0,0:0:0:0:
73,308,138579,1,8,0:0:0:0:
8,20,138776,1,8,0:0:0:0:
236,155,138974,1,8,0:0:0:0:
56,208,139171,22,0,P|104:192|160:192,1,90,4|0,1:0|0:0,0:0:0:0:
154,194,139467,1,0,0:0:0:0:
164,201,139566,1,8,0:0:0:0:
141,354,139763,2,0,P|96:350|53:335,1,90,0|0,1:0|0:0,0:0:0:0:
248,280,140158,1,8,0:0:0:0:
248,280,140355,2,0,L|238:372,1,90,0|2,1:0|0:0,0:0:0:0:
328,256,140750,1,0,1:0:0:0:
303,219,140848,1,0,0:0:0:0:
263,198,140947,1,0,0:0:0:0:
218,199,141046,1,0,0:0:0:0:
179,220,141144,1,8,0:0:0:0:
96,376,141342,2,0,L|86:286,1,90,0|2,1:0|0:0,0:0:0:0:
86,286,141737,1,8,0:0:0:0:
64,160,141934,2,0,P|40:168|0:168,2,60,0|0|0,1:0|0:0|0:0,0:0:0:0:
104,136,142329,6,2,B|200:112|176:208|280:192,1,180,0|8,1:0|0:0,0:0:0:0:
376,128,142921,1,0,1:0:0:0:
376,128,143020,1,0,0:0:0:0:
376,128,143118,1,0,0:0:0:0:
480,208,143316,1,8,0:0:0:0:
432,328,143513,1,0,1:0:0:0:
312,312,143711,1,2,0:0:0:0:
312,312,143809,1,0,0:0:0:0:
312,312,143908,2,0,P|328:264|344:224,1,90,0|2,1:0|0:0,0:0:0:0:
240,104,144303,2,0,P|256:145|270:188,1,90,8|0,0:0|1:0,0:0:0:0:
192,296,144697,1,2,0:0:0:0:
72,248,144895,1,8,0:0:0:0:
48,128,145092,1,0,1:0:0:0:
136,32,145289,1,4,0:0:0:0:
232,112,145487,38,2,L|136:128,1,90,0|0,1:0|0:0,0:0:0:0:
272,200,145882,2,0,L|360:214,1,90,8|0,0:0|1:0,0:0:0:0:
480,152,146276,1,2,0:0:0:0:
480,152,146474,1,8,0:0:0:0:
368,96,146671,1,0,1:0:0:0:
464,256,146868,1,2,0:0:0:0:
464,256,146967,1,0,0:0:0:0:
464,256,147066,2,0,P|440:280|376:296,1,90,0|2,1:0|0:0,0:0:0:0:
224,224,147461,2,0,P|267:234|300:264,1,90,8|0,0:0|1:0,0:0:0:0:
224,320,147855,1,2,0:0:0:0:
320,128,148053,1,8,0:0:0:0:
304,272,148250,1,0,1:0:0:0:
112,184,148447,1,4,0:0:0:0:
225,28,148645,6,0,L|203:124,1,90,4|0,1:0|0:0,0:0:0:0:
324,257,149039,1,0,1:0:0:0:
288,128,149236,1,2,0:0:0:0:
408,16,149434,1,0,1:0:0:0:
376,144,149631,1,0,0:0:0:0:
488,208,149828,1,0,1:0:0:0:
464,120,150025,1,2,0:0:0:0:
408,16,150224,2,0,L|360:216,1,180
362,202,150717,1,0,0:0:0:0:
359,213,150816,1,0,0:0:0:0:
324,384,151013,1,0,0:0:0:0:
432,253,151211,1,0,0:0:0:0:
432,253,151408,2,0,P|408:273|384:301,1,54
424,360,151803,22,0,B|440:264|368:296|384:176,1,180,4|8,1:0|0:0,0:0:0:0:
299,144,152395,2,0,B|317:91|371:88,1,90,4|2,1:0|0:0,0:0:0:0:
452,128,152790,1,8,0:0:0:0:
304,232,152988,2,0,L|208:216,1,90,4|2,1:0|0:0,0:0:0:0:
103,148,153382,1,4,1:0:0:0:
37,243,153580,1,4,0:0:0:0:
141,311,153777,1,8,0:0:0:0:
208,208,153974,2,0,L|224:112,1,90,0|4,1:0|0:0,0:0:0:0:
223,120,154369,1,0,0:0:0:0:
304,243,154567,2,0,L|319:332,1,90,0|2,0:0|0:0,0:0:0:0:
420,377,154961,21,4,1:0:0:0:
491,289,155159,1,2,0:0:0:0:
491,289,155257,1,0,0:0:0:0:
491,289,155356,1,8,0:0:0:0:
327,339,155553,1,4,1:0:0:0:
327,339,155652,1,0,0:0:0:0:
327,339,155750,1,2,0:0:0:0:
394,238,155947,1,8,0:0:0:0:
226,281,156145,1,4,1:0:0:0:
226,281,156244,1,0,0:0:0:0:
226,281,156343,1,2,0:0:0:0:
289,184,156539,1,4,1:0:0:0:
344,99,156737,1,4,0:0:0:0:
281,28,156935,1,8,0:0:0:0:
190,63,157132,1,0,1:0:0:0:
197,156,157330,2,2,L|190:200,2,45,4|0|0,0:0|0:0|0:0,0:0:0:0:
190,63,157724,1,0,1:0:0:0:
100,33,157922,1,8,0:0:0:0:
82,36,158021,1,8,0:0:0:0:
64,40,158119,21,4,1:0:0:0:
32,196,158317,1,0,0:0:0:0:
102,137,158514,1,8,0:0:0:0:
59,295,158711,2,0,B|158:311,1,90,0|4,1:0|0:0,0:0:0:0:
147,309,159106,1,8,0:0:0:0:
282,339,159303,1,0,1:0:0:0:
282,339,159501,1,2,0:0:0:0:
388,135,159698,1,4,1:0:0:0:
181,225,159895,1,4,0:0:0:0:
410,288,160093,1,8,0:0:0:0:
259,120,160290,2,0,P|265:79|296:40,1,90,0|4,1:0|0:0,0:0:0:0:
293,42,160685,1,0,0:0:0:0:
296,201,160882,2,0,P|324:235|331:279,1,90,0|2,1:0|0:0,0:0:0:0:
174,374,161277,22,2,B|105:375|65:314|88:249,1,180,4|8,1:0|0:0,0:0:0:0:
167,284,161869,1,0,1:0:0:0:
271,371,162067,1,2,0:0:0:0:
271,371,162264,1,8,0:0:0:0:
351,322,162461,1,0,1:0:0:0:
324,227,162659,1,2,0:0:0:0:
271,290,162855,1,8,0:0:0:0:
441,353,163053,1,8,0:0:0:0:
441,353,163152,1,8,0:0:0:0:
441,353,163251,1,8,0:0:0:0:
512,212,163448,1,8,0:0:0:0:
512,212,163547,1,8,0:0:0:0:
512,212,163645,1,8,0:0:0:0:
508,189,163743,1,8,0:0:0:0:
495,171,163842,1,0,0:0:0:0:
477,157,163941,1,8,0:0:0:0:
453,152,164040,2,0,P|429:147|397:139,3,45,0|8|2|0,0:0|0:0|0:0|0:0,0:0:0:0:
344,208,164435,22,0,B|301:152|313:87|378:57,1,180,4|8,1:0|0:0,0:0:0:0:
419,246,165027,2,0,B|404:294|343:294,1,90,4|2,1:0|0:0,0:0:0:0:
350,294,165422,1,8,0:0:0:0:
187,249,165619,2,0,L|291:257,1,90,4|2,1:0|0:0,0:0:0:0:
419,246,166014,1,4,1:0:0:0:
454,151,166212,1,4,0:0:0:0:
384,80,166409,1,8,0:0:0:0:
289,96,166606,2,0,L|193:112,1,90,0|4,1:0|0:0,0:0:0:0:
182,112,166902,1,0,0:0:0:0:
167,115,167001,1,0,0:0:0:0:
49,2,167198,2,0,L|138:17,1,90,0|2,0:0|0:0,0:0:0:0:
152,21,167493,1,0,0:0:0:0:
168,25,167592,21,4,1:0:0:0:
303,53,167790,1,2,0:0:0:0:
303,53,167889,1,0,0:0:0:0:
303,53,167988,1,8,0:0:0:0:
191,153,168185,1,4,1:0:0:0:
191,153,168284,1,0,0:0:0:0:
191,153,168382,1,2,0:0:0:0:
316,177,168580,1,8,0:0:0:0:
213,270,168777,1,4,1:0:0:0:
213,270,168876,1,0,0:0:0:0:
213,270,168974,1,2,0:0:0:0:
258,354,169172,1,4,1:0:0:0:
354,353,169369,1,4,0:0:0:0:
404,273,169567,1,8,0:0:0:0:
356,192,169764,1,0,1:0:0:0:
260,189,169961,2,2,P|244:157|208:107,1,90,4|8,0:0|0:0,0:0:0:0:
212,112,170356,1,0,1:0:0:0:
308,0,170554,1,8,0:0:0:0:
305,17,170651,1,8,0:0:0:0:
301,35,170751,21,4,1:0:0:0:
260,189,170948,1,0,0:0:0:0:
212,112,171145,1,8,0:0:0:0:
273,273,171343,2,0,L|369:283,1,90,0|4,1:0|0:0,0:0:0:0:
362,283,171738,1,8,0:0:0:0:
262,355,171935,2,0,L|172:365,1,90,0|2,1:0|0:0,0:0:0:0:
62,308,172330,1,4,1:0:0:0:
62,308,172527,1,4,0:0:0:0:
66,185,172724,1,8,0:0:0:0:
168,111,172922,2,0,B|214:106|261:137,1,90,0|4,1:0|0:0,0:0:0:0:
253,132,173317,1,0,0:0:0:0:
417,136,173514,2,0,B|370:132|335:100,1,90,0|2,1:0|0:0,0:0:0:0:
344,0,173909,22,2,B|400:-26|479:19|489:69,1,180,4|8,1:0|0:0,0:0:0:0:
489,69,174501,1,0,1:0:0:0:
337,189,174698,1,2,0:0:0:0:
270,288,174895,1,8,0:0:0:0:
349,376,175092,1,0,1:0:0:0:
457,336,175290,1,2,0:0:0:0:
459,219,175488,1,8,0:0:0:0:
374,279,175685,1,8,0:0:0:0:
374,279,175784,1,8,0:0:0:0:
374,279,175882,1,8,0:0:0:0:
256,203,176080,1,8,0:0:0:0:
256,203,176178,1,0,0:0:0:0:
256,203,176277,1,4,0:0:0:0:
240,183,176375,1,0,0:0:0:0:
233,162,176474,1,0,0:0:0:0:
229,140,176573,1,0,0:0:0:0:
234,115,176672,2,0,L|283:90,2,45
116,167,177067,1,2,0:0:0:0:
