osu file format v14

[General]
AudioFilename: Dio ft. Sef - Aye.mp3
AudioLeadIn: 0
PreviewTime: 64560
Countdown: 1
SampleSet: Normal
StackLeniency: 0.3
Mode: 0
LetterboxInBreaks: 1
SkinPreference:Default
WidescreenStoryboard: 1

[Editor]
Bookmarks: 16207,48433,64560,88813,110707,112975
DistanceSpacing: 1.1
BeatDivisor: 4
GridSize: 16
TimelineZoom: 2

[Metadata]
Title:Aye
TitleUnicode:Aye
Artist:Dio feat. Sef
ArtistUnicode:Dio feat. Sef
Creator:AJT
Version:broek laag, pet laag, jep iedereen roept
Source:
Tags:dutch nederlands hip hop lesjuh down aranel
BeatmapID:3309939
BeatmapSetID:1621130

[Difficulty]
HPDrainRate:6
CircleSize:5
OverallDifficulty:8.5
ApproachRate:8
SliderMultiplier:2.8
SliderTickRate:2

[Events]
//Background and Video events
Video,225,"video.mp4"
0,0,"bg.jpeg",0,0
//Break Periods
2,80717,87530
//Storyboard Layer 0 (Background)
//Storyboard Layer 1 (Fail)
//Storyboard Layer 2 (Pass)
//Storyboard Layer 3 (Foreground)
//Storyboard Layer 4 (Overlay)
//Storyboard Sound Samples

[TimingPoints]
45,504.201680672269,4,1,2,50,1,0
33749,-100,4,1,2,50,0,0
33875,-100,4,1,2,50,0,0
35765,-100,4,1,2,50,0,0
35891,-100,4,1,2,50,0,0
49184,-133.333333333333,4,1,2,50,0,0
50191,-66.6666666666667,4,1,2,50,0,0
50695,-100,4,1,2,50,0,0
53215,-133.333333333333,4,1,2,50,0,0
54223,-66.6666666666667,4,1,2,50,0,0
54727,-100,4,1,2,50,0,0
58255,-66.6666666666667,4,1,2,50,0,0
58633,-100,4,1,2,50,0,0
61279,-80,4,1,2,50,0,0
61720,-80,4,1,2,5,0,0
61783,-80,4,1,2,50,0,0
64051,-100,4,1,2,50,0,0
64582,-100,4,1,2,60,0,1
68112,-100,4,1,2,60,0,0
68616,-100,4,1,2,60,0,1
70633,-100,4,1,2,60,0,0
71137,-100,4,1,2,60,0,1
76179,-100,4,1,2,60,0,0
76683,-100,4,1,2,60,0,1
80717,-100,4,1,2,50,0,0
93219,-100,4,1,2,50,0,0
93345,-100,4,1,2,50,0,0
113694,-133.333333333333,4,1,2,50,0,0
114702,-66.6666666666667,4,1,2,50,0,0
115206,-100,4,1,2,50,0,0
117726,-133.333333333333,4,1,2,50,0,0
118734,-66.6666666666667,4,1,2,50,0,0
119238,-100,4,1,2,50,0,0
125790,-80,4,1,2,50,0,0
126231,-80,4,1,2,5,0,0
126294,-80,4,1,2,50,0,0
128436,-100,4,1,2,50,0,0
129120,-100,4,1,2,60,0,1
132650,-100,4,1,2,60,0,0
133154,-100,4,1,2,60,0,1
135171,-100,4,1,2,60,0,0
135675,-100,4,1,2,60,0,1
140717,-100,4,1,2,60,0,0
141221,-100,4,1,2,60,0,1
145255,-100,4,1,2,60,0,0

[HitObjects]
487,0,16179,6,0,P|470:61|455:136,1,140,4|0,0:0|0:0,0:0:0:0:
353,129,16557,1,0,0:0:0:0:
353,129,16683,2,0,P|370:190|385:265,1,140,8|0,0:0|0:0,0:0:0:0:
441,328,17061,2,0,P|380:311|305:296,2,140,2|2|0,0:2|0:2|0:0,0:0:0:0:
498,266,17692,1,8,0:0:0:0:
352,383,17944,1,0,0:0:0:0:
256,192,18196,6,0,P|189:186|112:168,1,140
114,85,18574,1,0,0:0:0:0:
114,85,18700,2,0,P|82:86|42:93,2,70,8|0|0,0:0|0:0|0:0,0:0:0:0:
118,169,19078,2,0,P|186:185|256:191,1,140,2|0,0:2|0:0,0:0:0:0:
255,190,19456,1,0,0:0:0:0:
256,352,19708,5,8,0:0:0:0:
256,352,19834,1,0,0:0:0:0:
256,352,19960,1,0,0:0:0:0:
325,304,20087,2,0,B|361:300|401:305,2,70
255,350,20465,1,0,0:0:0:0:
255,350,20591,1,0,0:0:0:0:
184,304,20717,1,8,0:0:0:0:
64,192,20969,5,0,0:0:0:0:
64,192,21095,2,0,P|87:126|96:48,1,140,2|0,0:2|0:0,0:0:0:0:
172,15,21473,1,0,0:0:0:0:
172,15,21599,1,0,0:0:0:0:
172,15,21725,1,8,0:0:0:0:
290,133,21977,5,0,0:0:0:0:
364,93,22103,2,0,P|430:112|500:141,2,140,2|2|0,0:2|0:2|0:0,0:0:0:0:
290,133,22734,2,0,P|250:143|218:149,2,70,8|0|0,0:0|0:0|0:0,0:0:0:0:
364,93,23112,2,0,P|430:112|500:141,1,140,2|0,0:2|0:0,0:0:0:0:
495,139,23490,1,0,0:0:0:0:
256,224,23742,5,8,0:0:0:0:
224,256,23868,1,0,0:0:0:0:
256,288,23994,1,0,0:0:0:0:
288,320,24120,1,0,0:0:0:0:
256,352,24246,2,0,L|103:368,1,140,4|0,0:0|0:0,0:0:0:0:
256,160,24750,5,8,0:0:0:0:
288,128,24876,1,0,0:0:0:0:
256,96,25002,1,0,0:0:0:0:
224,64,25129,1,0,0:0:0:0:
256,32,25255,2,0,L|409:16,1,140,2|0,0:2|0:0,0:0:0:0:
448,64,25633,1,0,0:0:0:0:
395,17,25759,5,8,0:0:0:0:
256,96,26011,1,0,0:0:0:0:
128,0,26263,1,0,0:0:0:0:
64,128,26515,1,0,0:0:0:0:
64,128,26641,1,0,0:0:0:0:
96,192,26767,6,0,B|80:264,2,70,8|0|0,0:0|0:0|0:0,0:0:0:0:
66,336,27145,1,0,0:0:0:0:
66,336,27271,2,0,B|28:167,2,140,2|0|8,0:2|0:0|0:0,0:0:0:0:
137,366,27902,1,0,0:0:0:0:
211,346,28028,1,0,0:0:0:0:
245,276,28154,1,0,0:0:0:0:
230,200,28280,1,0,0:0:0:0:
165,60,28532,5,0,0:0:0:0:
218,5,28658,1,0,0:0:0:0:
294,0,28784,1,8,0:0:0:0:
347,54,28910,1,0,0:0:0:0:
378,68,29036,1,0,0:0:0:0:
417,59,29162,1,0,0:0:0:0:
455,125,29288,6,0,B|459:192|487:269,3,140,2|0|8|0,0:2|0:0|0:0|0:0,0:0:0:0:
345,329,30297,1,0,0:0:0:0:
256,192,30549,5,0,0:0:0:0:
206,250,30675,1,0,0:0:0:0:
129,257,30801,1,8,0:0:0:0:
69,208,30927,1,0,0:0:0:0:
30,217,31053,1,0,0:0:0:0:
12,253,31179,1,0,0:0:0:0:
54,317,31305,2,0,P|48:238|71:157,1,140,2|0,0:2|0:0,0:0:0:0:
256,64,31809,5,8,0:0:0:0:
224,128,31935,1,0,0:0:0:0:
256,192,32061,1,0,0:0:0:0:
288,256,32187,1,0,0:0:0:0:
256,320,32313,1,4,0:0:0:0:
188,0,32818,6,0,L|348:0,1,140,8|0,0:0|0:0,0:0:0:0:
384,64,33196,1,0,0:0:0:0:
384,64,33322,2,0,B|384:136,2,70
328,0,33700,2,0,L|188:0,1,140,2|0,0:2|0:0,0:0:0:0:
128,64,34078,1,0,0:0:0:0:
128,64,34204,1,0,0:0:0:0:
128,134,34330,1,0,0:0:0:0:
256,196,34582,6,0,L|256:336,1,140,0|8,0:0|0:0,0:0:0:0:
368,384,35087,1,0,0:0:0:0:
368,384,35213,1,0,0:0:0:0:
144,384,35843,1,8,0:0:0:0:
128,320,35969,1,0,0:0:0:0:
160,256,36095,1,0,0:0:0:0:
144,192,36221,1,0,0:0:0:0:
176,128,36347,6,0,B|184:88|200:56,3,70
128,48,36851,2,0,P|200:23|264:0,1,140,8|0,0:0|0:0,0:0:0:0:
320,64,37229,1,0,0:0:0:0:
320,64,37355,2,0,L|400:80,1,70
448,128,37608,1,0,0:0:0:0:
448,128,37734,1,0,0:0:0:0:
388,77,37860,1,8,0:0:0:0:
256,192,38112,1,0,0:0:0:0:
256,192,38238,1,0,0:0:0:0:
256,192,38364,6,0,P|235:274|226:336,3,140,2|0|0|0,0:2|0:0|0:0|0:0,0:0:0:0:
160,354,39246,1,0,0:0:0:0:
160,354,39372,2,0,B|88:362,1,70
18,331,39624,1,0,0:0:0:0:
77,282,39750,1,0,0:0:0:0:
0,192,39876,5,2,0:0:0:0:
16,224,40002,1,2,0:2:0:0:
16,256,40129,1,2,0:2:0:0:
0,288,40255,1,2,0:2:0:0:
64,368,40381,5,4,0:0:0:0:
128,352,40507,1,0,0:0:0:0:
186,383,40633,2,0,B|222:394|266:376,1,70
288,320,40885,2,0,P|286:250|300:174,2,140,8|0|0,0:0|0:0|0:0,0:0:0:0:
254,380,41515,2,0,B|222:394|186:383,2,70
288,320,41893,2,0,P|286:250|300:174,1,140,8|0,0:0|0:0,0:0:0:0:
375,197,42271,1,0,0:0:0:0:
375,197,42397,6,0,P|363:266|366:336,2,140,2|0|0,0:2|0:0|0:0,0:0:0:0:
422,135,43028,1,0,0:0:0:0:
422,135,43154,2,0,B|470:127|502:111,1,70,2|0,0:2|0:0,0:0:0:0:
465,43,43406,2,0,B|417:51|385:67,2,70,2|0|0,0:2|0:0|0:0,0:0:0:0:
422,135,43784,2,0,B|470:127|502:111,3,70,2|0|0|2,0:2|0:0|0:0|0:2,0:0:0:0:
324,0,44414,6,0,L|164:0,1,140,4|0,0:0|0:0,0:0:0:0:
176,144,44918,1,8,0:0:0:0:
256,144,45045,1,0,0:0:0:0:
336,144,45171,1,0,0:0:0:0:
296,276,45423,5,0,0:0:0:0:
216,276,45591,1,0,0:2:0:0:
216,276,45675,1,2,0:2:0:0:
256,352,45801,1,0,0:0:0:0:
256,352,45927,2,0,L|256:212,1,140,8|0,0:0|0:0,0:0:0:0:
144,212,46305,5,0,0:0:0:0:
144,212,46431,2,0,L|144:352,1,140
256,192,46851,1,0,0:2:0:0:
256,192,46935,1,8,0:0:0:0:
256,352,47187,5,0,0:0:0:0:
320,352,47313,1,0,0:0:0:0:
320,288,47439,1,0,0:0:0:0:
320,224,47566,1,0,0:0:0:0:
320,160,47692,1,2,0:2:0:0:
256,160,47818,1,0,0:0:0:0:
192,160,47944,1,2,0:0:0:0:
192,224,48196,5,0,0:0:0:0:
192,288,48322,1,0,0:0:0:0:
192,352,48448,1,4,0:0:0:0:
0,0,49204,6,0,B|84:-39|214:69|323:0,1,315.000012016297,2|8,0:2|0:0,0:1:0:0:
310,54,50087,1,0,0:0:0:0:
310,54,50213,6,2,B|216:115|86:7|2:46,1,315.000012016297,0|0,0:0|0:0,0:1:0:0:
54,131,50717,1,0,0:0:0:0:
54,131,50843,1,0,0:0:0:0:
17,205,50969,2,0,P|27:278|33:349,1,140,8|0,0:0|0:0,0:0:0:0:
106,368,51347,1,0,0:0:0:0:
163,316,51473,5,0,0:0:0:0:
197,294,51599,1,0,0:0:0:0:
237,303,51725,1,0,0:0:0:0:
308,341,51851,1,0,0:0:0:0:
308,341,51977,2,0,P|315:305|308:269,1,70,8|0,0:0|0:0,0:0:0:0:
250,221,52229,2,0,B|266:365,2,140,0|2|0,0:0|0:2|0:0,0:0:0:0:
438,134,52986,1,8,0:0:0:0:
512,0,53238,6,0,B|428:-39|298:69|189:0,1,315.000012016297,2|0,0:2|0:0,0:0:0:0:
198,56,54120,1,0,0:0:0:0:
198,56,54246,6,2,B|292:117|422:9|506:48,1,315.000012016297,2|0,0:0|0:0,0:1:0:0:
472,140,54750,2,0,B|456:212,1,70
456,208,55002,1,8,0:0:0:0:
335,351,55255,1,0,0:0:0:0:
335,351,55381,2,0,P|270:322|198:298,1,140
138,321,55759,5,0,0:0:0:0:
205,300,55885,1,0,0:0:0:0:
234,236,56011,1,8,0:0:0:0:
223,166,56137,1,0,0:0:0:0:
165,125,56263,1,0,0:0:0:0:
95,135,56389,1,0,0:0:0:0:
49,188,56515,5,2,0:2:0:0:
165,125,56767,1,0,0:0:0:0:
234,236,57019,1,8,0:0:0:0:
119,297,57271,1,2,0:2:0:0:
256,192,57334,12,8,58028,0:0:0:0:
498,312,58280,6,2,B|416:351|286:243|192:304,1,315.000012016297,2|0,0:1|0:0,0:1:0:0:
256,368,58784,5,0,0:0:0:0:
256,368,58910,1,0,0:0:0:0:
256,368,59036,2,0,B|257:302|249:226,1,140,8|0,0:0|0:0,0:0:0:0:
179,217,59414,2,0,P|132:224|162:166,1,140
123,100,59792,5,0,0:0:0:0:
176,47,59918,1,0,0:0:0:0:
241,80,60045,1,8,0:0:0:0:
229,153,60171,1,0,0:0:0:0:
156,165,60297,1,0,0:0:0:0:
123,100,60423,1,0,0:0:0:0:
176,47,60549,1,2,0:2:0:0:
241,80,60801,5,0,0:0:0:0:
352,128,61053,1,8,0:0:0:0:
480,48,61305,2,2,B|517:130|411:257|471:350,1,306.25,2|0,0:0|2:0,0:0:0:0:
468,346,61809,2,2,B|444:305|442:253|463:208|486:144|488:87,1,262.5,0|0,0:0|0:0,0:0:0:0:
480,48,62313,1,0,0:0:0:0:
395,25,62439,1,0,0:0:0:0:
319,69,62566,5,2,0:2:0:0:
133,129,62818,1,0,0:2:0:0:
193,315,63070,1,10,0:2:0:0:
379,255,63322,1,0,0:2:0:0:
193,315,63574,1,2,0:2:0:0:
133,129,63826,5,0,0:0:0:0:
133,129,63952,1,0,0:0:0:0:
129,53,64078,2,0,P|58:58|-11:75,1,140,8|0,0:0|0:0,0:0:0:0:
256,282,64582,5,6,0:0:0:0:
190,255,64708,1,0,0:0:0:0:
164,190,64834,1,0,0:0:0:0:
190,125,64960,1,0,0:0:0:0:
256,99,65087,5,10,0:0:0:0:
320,125,65213,1,0,0:0:0:0:
346,191,65339,1,0,0:0:0:0:
320,255,65465,1,0,0:0:0:0:
256,282,65591,5,2,0:0:0:0:
190,255,65717,1,0,0:0:0:0:
164,190,65843,1,0,0:0:0:0:
190,125,65969,1,0,0:0:0:0:
256,99,66095,5,10,0:0:0:0:
320,125,66221,1,0,0:0:0:0:
346,191,66347,1,0,0:0:0:0:
320,255,66473,1,0,0:0:0:0:
256,282,66599,5,2,0:0:0:0:
190,255,66725,1,0,0:0:0:0:
164,190,66851,1,0,0:0:0:0:
190,125,66977,1,0,0:0:0:0:
256,99,67103,5,10,0:0:0:0:
320,125,67229,1,0,0:0:0:0:
346,191,67355,1,0,0:0:0:0:
320,255,67481,1,0,0:0:0:0:
256,282,67608,5,2,0:0:0:0:
190,255,67734,1,0,0:0:0:0:
164,190,67860,1,0,0:0:0:0:
190,125,67986,1,0,0:0:0:0:
190,125,68112,1,2,2:2:0:0:
256,99,68616,5,2,0:0:0:0:
320,125,68742,1,0,0:0:0:0:
346,191,68868,1,0,0:0:0:0:
320,255,68994,1,0,0:0:0:0:
256,282,69120,5,10,0:0:0:0:
190,255,69246,1,0,0:0:0:0:
164,191,69372,1,0,0:0:0:0:
190,125,69498,1,0,0:0:0:0:
256,99,69624,5,2,0:0:0:0:
320,125,69750,1,0,0:0:0:0:
346,191,69876,1,0,0:0:0:0:
320,255,70002,1,0,0:0:0:0:
256,282,70129,5,10,0:0:0:0:
190,255,70255,1,0,0:0:0:0:
164,191,70381,1,0,0:0:0:0:
190,125,70507,1,0,0:0:0:0:
256,100,71137,5,8,0:0:0:0:
190,126,71263,1,0,0:0:0:0:
164,192,71389,1,0,0:0:0:0:
190,256,71515,1,0,0:0:0:0:
256,282,71641,1,2,1:2:0:0:
320,256,71767,1,0,0:0:0:0:
346,191,71893,1,0,0:0:0:0:
320,126,72019,1,0,0:0:0:0:
256,100,72145,5,10,0:0:0:0:
320,126,72271,1,0,0:0:0:0:
346,191,72397,1,0,0:0:0:0:
320,256,72523,1,0,0:0:0:0:
256,288,72650,5,6,0:0:0:0:
192,304,72776,1,0,0:0:0:0:
128,320,72902,1,0,0:0:0:0:
64,336,73028,1,0,0:0:0:0:
144,384,73154,5,10,0:0:0:0:
128,320,73280,1,0,0:0:0:0:
112,256,73406,1,0,0:0:0:0:
96,192,73532,1,0,0:0:0:0:
48,272,73658,5,2,0:0:0:0:
112,256,73784,1,0,0:0:0:0:
176,240,73910,1,0,0:0:0:0:
240,224,74036,1,0,0:0:0:0:
192,304,74162,5,10,0:0:0:0:
176,240,74288,1,0,0:0:0:0:
160,176,74414,1,0,0:0:0:0:
144,112,74540,1,0,0:0:0:0:
96,192,74666,5,2,0:0:0:0:
160,176,74792,1,0,0:0:0:0:
224,160,74918,1,0,0:0:0:0:
288,144,75045,1,0,0:0:0:0:
208,96,75171,5,10,0:0:0:0:
224,160,75297,1,0,0:0:0:0:
240,224,75423,1,0,0:0:0:0:
256,288,75549,1,0,0:0:0:0:
176,240,75675,5,2,0:0:0:0:
240,224,75801,1,0,0:0:0:0:
304,208,75927,1,0,0:0:0:0:
368,192,76053,1,0,0:0:0:0:
368,192,76179,1,2,2:2:0:0:
256,288,76683,5,2,0:0:0:0:
320,304,76809,1,0,0:0:0:0:
384,320,76935,1,0,0:0:0:0:
448,336,77061,1,0,0:0:0:0:
368,384,77187,5,10,0:0:0:0:
384,320,77313,1,0,0:0:0:0:
400,256,77439,1,0,0:0:0:0:
416,192,77566,1,0,0:0:0:0:
464,272,77692,5,2,0:0:0:0:
400,256,77818,1,0,0:0:0:0:
336,240,77944,1,0,0:0:0:0:
272,224,78070,1,0,0:0:0:0:
320,304,78196,5,10,0:0:0:0:
336,240,78322,1,0,0:0:0:0:
352,176,78448,1,0,0:0:0:0:
368,112,78574,1,0,0:0:0:0:
416,192,78700,5,2,0:2:0:0:
288,160,78952,1,0,0:2:0:0:
304,96,79204,1,8,0:2:0:0:
272,224,79456,1,0,0:2:0:0:
336,240,79708,1,2,0:2:0:0:
144,192,80087,1,0,0:0:0:0:
208,208,80213,1,2,0:0:0:0:
256,0,88280,5,2,0:0:0:0:
288,48,88406,1,0,0:0:0:0:
256,96,88532,1,2,0:0:0:0:
224,144,88658,1,0,0:0:0:0:
256,192,88784,5,4,0:0:0:0:
256,192,89036,2,0,P|253:264|242:334,1,140,0|8,0:0|0:0,0:0:0:0:
242,331,89414,1,0,0:2:0:0:
242,331,89666,1,0,0:0:0:0:
355,352,89792,2,0,P|364:281|383:214,1,140
431,164,90171,5,0,0:0:0:0:
431,164,90297,2,0,B|463:148|503:148,2,70,8|0|0,0:0|0:0|0:0,0:0:0:0:
382,215,90675,2,0,P|363:282|355:352,2,140,2|2|0,0:2|0:2|0:0,0:0:0:0:
431,164,91305,2,0,B|463:148|503:148,2,70,8|0|0,0:0|0:0|0:0,0:0:0:0:
362,148,91683,1,0,0:0:0:0:
362,148,91809,2,0,P|343:81|335:11,1,140
335,11,92187,1,0,0:0:0:0:
245,4,92313,6,0,B|205:4|173:12,1,70,8|0,0:0|0:0,0:0:0:0:
175,11,92692,2,0,B|205:4|245:4,2,70
114,45,93070,1,0,0:0:0:0:
114,45,93196,1,0,0:2:0:0:
143,108,93322,1,8,0:0:0:0:
114,45,93448,1,0,0:0:0:0:
143,108,93574,2,0,B|76:79|2:73,2,140,2|2|0,0:2|0:2|0:0,0:0:0:0:
384,294,94330,5,8,0:0:0:0:
320,320,94456,1,0,0:0:0:0:
256,345,94582,1,0,0:0:0:0:
192,320,94708,1,0,0:0:0:0:
128,294,94834,1,2,0:2:0:0:
256,192,95087,1,0,0:0:0:0:
128,89,95339,5,8,0:0:0:0:
192,64,95465,1,0,0:0:0:0:
256,38,95591,1,0,0:0:0:0:
320,64,95717,1,0,0:0:0:0:
384,89,95843,1,0,0:2:0:0:
256,192,96095,1,0,0:0:0:0:
256,384,96347,5,2,0:0:0:0:
256,384,96379,1,0,2:0:0:0:
0,384,96851,6,0,B|106:369,1,105,4|0,0:0|0:2,0:0:0:0:
208,240,97229,1,0,0:2:0:0:
208,240,97355,1,8,0:0:0:0:
291,265,97545,1,2,0:2:0:0:
291,265,97734,6,0,P|314:304|335:324,1,70,2|0,0:2|0:0,0:0:0:0:
404,274,97986,2,0,P|381:235|360:215,1,70,2|0,0:2|0:0,0:0:0:0:
291,265,98238,2,0,P|314:304|335:324,3,70,0|8|0|0,0:0|0:0|0:0|0:0,0:0:0:0:
511,0,98868,6,0,B|367:16,1,140,2|0,0:2|0:0,0:0:0:0:
319,61,99246,1,0,0:0:0:0:
372,14,99372,2,0,B|512:-1,1,140,8|0,0:0|0:0,0:0:0:0:
512,77,99750,1,0,0:0:0:0:
512,77,99876,1,0,0:0:0:0:
512,77,100002,1,0,0:0:0:0:
511,0,100129,6,0,B|371:15,1,140,2|8,0:2|0:0,0:0:0:0:
319,61,100507,1,0,0:0:0:0:
319,61,100633,1,0,0:0:0:0:
80,0,100885,6,0,B|0:8,3,70,2|0|0|0,0:2|0:0|0:0|0:0,0:0:0:0:
10,6,101389,2,0,P|26:73|34:150,1,140,8|0,0:0|0:0,0:0:0:0:
94,187,101767,1,0,0:0:0:0:
94,187,101893,2,0,P|113:203|83:214,1,70
33,143,102145,2,0,P|25:73|9:5,2,140,2|8|0,0:2|0:0|0:0,0:0:0:0:
94,187,102776,5,0,0:0:0:0:
155,152,102902,1,0,0:0:0:0:
219,180,103028,1,0,0:0:0:0:
271,226,103154,1,0,0:0:0:0:
332,261,103280,1,0,0:0:0:0:
396,233,103406,1,8,0:0:0:0:
396,233,103658,5,0,0:0:0:0:
419,167,103784,1,0,0:0:0:0:
376,111,103910,1,0,0:0:0:0:
307,94,104036,1,0,0:0:0:0:
277,77,104162,1,0,0:0:0:0:
263,46,104288,1,0,0:0:0:0:
192,16,104414,5,10,0:0:0:0:
192,16,104540,1,0,0:0:0:0:
192,16,104666,1,2,0:0:0:0:
192,16,104792,1,0,0:0:0:0:
128,64,104918,2,0,P|115:129|112:216,1,140,4|0,0:0|0:0,0:0:0:0:
111,202,105423,5,8,0:0:0:0:
48,256,105549,1,0,0:0:0:0:
111,202,105675,2,0,P|114:132|128:64,2,140,2|0|0,0:2|0:0|0:0,0:0:0:0:
48,256,106305,1,0,0:0:0:0:
111,202,106431,5,8,0:0:0:0:
256,384,106683,1,0,0:0:0:0:
327,353,106809,1,0,0:0:0:0:
398,324,106935,2,0,P|395:292|398:180,1,140,2|0,0:2|0:0,0:0:0:0:
438,119,107313,1,0,0:0:0:0:
438,119,107439,2,0,P|477:112|510:119,3,70,8|0|0|0,0:0|0:0|0:0|0:0,0:0:0:0:
397,184,107944,6,0,P|393:254|398:324,1,140,2|0,0:2|0:0,0:0:0:0:
356,119,108448,1,8,0:0:0:0:
356,119,108574,2,0,P|317:112|284:119,1,70,2|0,0:2|0:0,0:0:0:0:
236,175,108826,1,0,0:0:0:0:
173,220,108952,6,0,P|195:150|213:76,1,140
165,22,109330,1,0,0:0:0:0:
94,52,109456,2,0,P|72:122|54:196,1,140,8|0,0:0|0:0,0:0:0:0:
94,253,109834,1,0,0:0:0:0:
173,220,109960,2,0,P|195:150|213:76,1,140
165,22,110339,1,0,0:0:0:0:
165,22,110465,1,8,0:0:0:0:
256,352,110717,5,0,0:0:0:0:
320,352,110843,1,0,0:0:0:0:
320,288,110969,1,0,0:0:0:0:
256,288,111095,1,0,0:0:0:0:
192,288,111221,1,0,0:0:0:0:
192,352,111347,1,0,0:0:0:0:
256,352,111473,1,2,0:2:0:0:
320,352,111725,5,0,0:0:0:0:
320,288,111851,1,0,0:0:0:0:
256,288,111977,2,0,L|256:0,1,280,0|2,0:2|0:0,0:0:0:0:
224,64,112608,1,0,0:0:0:0:
224,144,112734,1,2,0:0:0:0:
288,96,112860,1,0,0:0:0:0:
288,176,112986,1,4,0:0:0:0:
64,320,113742,6,0,B|103:236|-5:106|64:-3,1,315.000012016297,2|8,0:2|0:0,0:1:0:0:
10,10,114625,1,0,0:0:0:0:
10,10,114751,6,2,B|-51:104|57:234|18:318,1,315.000012016297,0|0,0:0|0:0,0:1:0:0:
131,359,115255,1,0,0:0:0:0:
131,359,115381,1,0,0:0:0:0:
179,299,115507,2,0,P|252:309|323:315,1,140,8|0,0:0|0:0,0:0:0:0:
388,281,115885,1,0,0:0:0:0:
390,204,116011,5,0,0:0:0:0:
356,182,116137,1,0,0:0:0:0:
316,191,116263,1,0,0:0:0:0:
250,149,116389,5,0,0:0:0:0:
228,115,116515,1,8,0:0:0:0:
237,75,116641,1,0,0:0:0:0:
174,29,116767,2,0,B|105:37,2,70,0|0|2,0:0|0:0|0:2,0:0:0:0:
367,207,117271,5,0,0:0:0:0:
367,207,117523,1,8,0:0:0:0:
448,320,117776,6,0,B|409:236|517:106|448:-3,1,315.000012016297,2|8,0:2|0:0,0:1:0:0:
502,10,118659,1,0,0:0:0:0:
502,10,118785,6,2,B|563:104|455:234|494:318,1,315.000012016297,0|0,0:0|0:0,0:1:0:0:
393,336,119288,1,0,0:0:0:0:
393,336,119414,1,0,0:0:0:0:
321,362,119540,1,8,0:0:0:0:
321,362,119792,5,0,0:0:0:0:
253,323,119918,2,0,P|243:260|227:184,1,140
150,174,120297,1,0,0:0:0:0:
227,185,120423,5,0,0:0:0:0:
150,174,120549,1,8,0:0:0:0:
111,106,120675,1,0,0:0:0:0:
229,37,120801,1,0,0:0:0:0:
153,41,120927,1,0,0:0:0:0:
264,105,121053,1,2,0:2:0:0:
400,192,121305,5,0,0:0:0:0:
400,192,121431,1,0,0:0:0:0:
400,192,121557,1,8,0:0:0:0:
256,384,121809,1,2,0:2:0:0:
256,192,121872,12,8,122565,0:0:0:0:
112,192,122818,5,2,0:0:0:0:
400,192,123070,1,0,0:0:0:0:
256,368,123322,5,0,0:0:0:0:
256,368,123448,1,0,0:0:0:0:
256,368,123574,2,0,B|255:302|263:226,1,140,8|0,0:0|0:0,0:0:0:0:
333,217,123952,2,0,P|380:224|350:166,1,140
389,100,124330,5,0,0:0:0:0:
336,47,124456,1,0,0:0:0:0:
271,80,124582,1,8,0:0:0:0:
389,100,124708,1,0,0:0:0:0:
283,153,124834,1,0,0:0:0:0:
336,47,124960,1,0,0:0:0:0:
356,165,125087,1,2,0:2:0:0:
271,80,125339,5,0,0:0:0:0:
160,128,125591,1,8,0:0:0:0:
32,48,125843,2,2,B|-5:130|101:257|41:350,1,306.25,2|0,0:0|2:0,0:0:0:0:
44,346,126347,2,2,B|67:305|70:253|48:208|25:144|24:87,1,262.5,0|0,0:0|0:0,0:0:0:0:
32,48,126851,1,0,0:0:0:0:
117,25,126977,1,0,0:0:0:0:
213,25,127103,5,2,0:2:0:0:
402,86,127355,1,0,0:0:0:0:
402,285,127608,1,8,0:0:0:0:
212,346,127860,1,0,0:2:0:0:
96,185,128112,1,2,0:2:0:0:
213,25,128364,5,0,0:0:0:0:
213,25,128490,1,0,0:0:0:0:
288,0,128616,2,0,P|359:5|428:22,1,140,8|0,0:0|0:0,0:0:0:0:
256,299,129120,5,6,0:0:0:0:
334,266,129246,1,0,0:0:0:0:
365,189,129372,1,0,0:0:0:0:
334,113,129498,1,0,0:0:0:0:
256,81,129624,5,10,0:0:0:0:
180,113,129750,1,0,0:0:0:0:
149,190,129876,1,0,0:0:0:0:
180,266,130002,1,0,0:0:0:0:
256,299,130129,5,2,0:0:0:0:
334,266,130255,1,0,0:0:0:0:
365,189,130381,1,0,0:0:0:0:
334,113,130507,1,0,0:0:0:0:
256,81,130633,5,10,0:0:0:0:
180,113,130759,1,0,0:0:0:0:
149,190,130885,1,0,0:0:0:0:
180,266,131011,1,0,0:0:0:0:
256,299,131137,5,2,0:0:0:0:
334,266,131263,1,0,0:0:0:0:
365,189,131389,1,0,0:0:0:0:
334,113,131515,1,0,0:0:0:0:
256,81,131641,5,10,0:0:0:0:
180,113,131767,1,0,0:0:0:0:
149,190,131893,1,0,0:0:0:0:
180,266,132019,1,0,0:0:0:0:
256,299,132145,5,2,0:0:0:0:
334,266,132271,1,0,0:0:0:0:
365,189,132397,1,0,0:0:0:0:
334,113,132523,1,0,0:0:0:0:
334,113,132650,1,2,2:2:0:0:
256,81,133154,5,2,0:0:0:0:
180,113,133280,1,0,0:0:0:0:
149,190,133406,1,0,0:0:0:0:
180,266,133532,1,0,0:0:0:0:
256,299,133658,5,10,0:0:0:0:
334,266,133784,1,0,0:0:0:0:
365,190,133910,1,0,0:0:0:0:
334,113,134036,1,0,0:0:0:0:
256,81,134162,5,2,0:0:0:0:
180,113,134288,1,0,0:0:0:0:
149,190,134414,1,0,0:0:0:0:
180,266,134540,1,0,0:0:0:0:
256,299,134666,5,10,0:0:0:0:
334,266,134792,1,0,0:0:0:0:
365,190,134918,1,0,0:0:0:0:
334,113,135045,1,0,0:0:0:0:
256,83,135675,5,8,0:0:0:0:
334,114,135801,1,0,0:0:0:0:
365,192,135927,1,0,0:0:0:0:
334,267,136053,1,0,0:0:0:0:
256,299,136179,1,2,0:2:0:0:
180,267,136305,1,0,0:0:0:0:
149,190,136431,1,0,0:0:0:0:
180,114,136557,1,0,0:0:0:0:
256,83,136683,5,10,0:0:0:0:
180,114,136809,1,0,0:0:0:0:
149,190,136935,1,0,0:0:0:0:
180,267,137061,1,0,0:0:0:0:
256,299,137187,5,6,0:0:0:0:
332,318,137313,1,0,0:0:0:0:
408,337,137439,1,0,0:0:0:0:
484,356,137566,1,0,0:0:0:0:
408,337,137692,5,10,0:0:0:0:
427,261,137818,1,0,0:0:0:0:
446,185,137944,1,0,0:0:0:0:
465,109,138070,1,0,0:0:0:0:
446,185,138196,5,2,0:0:0:0:
370,166,138322,1,0,0:0:0:0:
294,147,138448,1,0,0:0:0:0:
218,128,138574,1,0,0:0:0:0:
294,147,138700,5,10,0:0:0:0:
275,223,138826,1,0,0:0:0:0:
256,299,138952,1,0,0:0:0:0:
237,375,139078,1,0,0:0:0:0:
256,299,139204,5,2,0:0:0:0:
180,280,139330,1,0,0:0:0:0:
104,261,139456,1,0,0:0:0:0:
28,242,139582,1,0,0:0:0:0:
28,242,139708,5,10,0:0:0:0:
104,261,139834,1,0,0:0:0:0:
180,280,139960,1,0,0:0:0:0:
256,299,140087,1,0,0:0:0:0:
256,299,140213,5,2,0:0:0:0:
317,261,140339,1,0,0:0:0:0:
256,223,140465,1,0,0:0:0:0:
195,185,140591,1,0,0:0:0:0:
256,147,140717,1,2,2:2:0:0:
320,104,141221,6,6,B|192:40|176:168|48:96,4,280,6|2|2|2|2,0:0|0:0|0:0|0:0|2:0,0:0:0:0:
348,182,143364,5,2,2:0:0:0:
348,182,143490,2,0,P|349:262|332:326,2,140,2|2|0,2:0|2:0|2:0,2:0:0:0:
451,66,144246,1,2,2:1:0:0:
348,182,144498,5,2,2:0:0:0:
348,182,144624,2,0,P|349:262|332:326,1,140,2|0,2:0|2:0,2:0:0:0:
278,372,145002,1,2,0:0:0:0:
512,384,145255,5,4,0:0:0:0:
