osu file format v14

[General]
AudioFilename: Dio ft. Sef - Aye.mp3
AudioLeadIn: 0
PreviewTime: 64560
Countdown: 1
SampleSet: Normal
StackLeniency: 0.7
Mode: 0
LetterboxInBreaks: 1
SkinPreference:Default
WidescreenStoryboard: 0

[Editor]
Bookmarks: 16207,48433,64560,88813,112975
DistanceSpacing: 1.2
BeatDivisor: 4
GridSize: 8
TimelineZoom: 1.5

[Metadata]
Title:Aye
TitleUnicode:Aye
Artist:Dio feat. Sef
ArtistUnicode:Dio feat. Sef
Creator:AJT
Version:Lesjuh's Aye!!
Source:
Tags:dutch nederlands hip hop lesjuh down aranel
BeatmapID:3309941
BeatmapSetID:1621130

[Difficulty]
HPDrainRate:7
CircleSize:4
OverallDifficulty:8
ApproachRate:8
SliderMultiplier:2.8
SliderTickRate:4

[Events]
//Background and Video events
Video,225,"video.mp4"
0,0,"bg.jpeg",0,0
//Break Periods
2,80413,88034
//Storyboard Layer 0 (Background)
//Storyboard Layer 1 (Fail)
//Storyboard Layer 2 (Pass)
//Storyboard Layer 3 (Foreground)
//Storyboard Layer 4 (Overlay)
//Storyboard Sound Samples

[TimingPoints]
45,504.201680672269,4,1,2,60,1,0
33749,-100,4,1,1,60,0,0
33875,-100,4,1,2,60,0,0
35765,-100,4,1,1,60,0,0
35891,-100,4,1,2,60,0,0
64582,-100,4,1,2,60,0,1
68112,-100,4,1,2,60,0,0
68616,-100,4,1,2,60,0,1
70633,-100,4,1,2,60,0,0
71137,-100,4,1,2,60,0,1
76179,-100,4,1,2,60,0,0
76683,-100,4,1,2,60,0,1
80717,-100,4,1,2,60,0,0
93251,-100,4,1,1,60,0,0
93377,-100,4,1,2,60,0,0
129120,-100,4,1,2,60,0,1
132650,-100,4,1,2,60,0,0
133154,-100,4,1,2,60,0,1
135171,-100,4,1,2,60,0,0
135675,-100,4,1,2,60,0,1
140717,-100,4,1,2,60,0,0
141221,-100,4,1,2,60,0,1
145255,-100,4,1,2,60,0,0

[HitObjects]
80,112,16179,5,4,0:0:0:0:
232,40,16431,1,0,0:0:0:0:
296,96,16557,1,0,0:0:0:0:
240,160,16683,2,0,B|200:216|208:296,1,140,8|0,0:0|0:0,0:0:0:0:
272,352,17061,2,0,B|312:296|304:216,1,140,0|0,0:0|0:0,0:0:0:0:
384,184,17439,5,0,0:0:0:0:
384,184,17566,1,0,0:0:0:0:
424,256,17692,1,8,0:0:0:0:
488,104,17944,1,0,0:0:0:0:
336,40,18196,6,0,B|272:72|192:64,1,140,4|0,0:0|0:0,0:0:0:0:
120,48,18574,1,0,0:0:0:0:
80,120,18700,2,0,B|88:192,1,70,8|0,0:0|0:0,0:0:0:0:
87,189,18952,1,0,0:0:0:0:
152,240,19078,2,0,B|296:256,1,140,4|0,0:0|0:0,0:0:0:0:
291,255,19456,1,0,0:0:0:0:
448,320,19708,5,8,0:0:0:0:
408,248,19834,1,0,0:0:0:0:
480,200,19960,1,0,0:0:0:0:
456,120,20087,2,0,B|472:88|480:48,2,70,0|4|0,0:0|0:0|0:0,0:0:0:0:
376,88,20465,1,0,0:0:0:0:
376,88,20591,1,0,0:0:0:0:
312,144,20717,2,0,B|256:176|168:168,1,140,8|0,0:0|0:0,0:0:0:0:
96,136,21095,6,0,B|136:200|128:280,1,140,4|0,0:0|0:0,0:0:0:0:
176,344,21473,1,0,0:0:0:0:
176,344,21599,1,0,0:0:0:0:
248,296,21725,1,8,0:0:0:0:
416,312,21977,5,0,0:0:0:0:
416,312,22103,2,0,B|424:240|464:176,2,140
344,360,22734,2,0,B|272:344,1,70,8|0,0:0|0:0,0:0:0:0:
248,264,22986,1,0,0:0:0:0:
184,208,23112,2,0,B|104:200|48:240,1,140,4|0,0:0|0:0,0:0:0:0:
50,238,23490,1,0,0:0:0:0:
112,80,23742,6,0,B|80:56|48:40,2,70,8|0|0,0:0|0:0|0:0,0:0:0:0:
192,112,24120,1,0,0:0:0:0:
280,56,24246,1,4,0:0:0:0:
480,112,24498,1,0,0:0:0:0:
400,304,24750,6,0,B|432:328|464:344,2,70,8|0|0,0:0|0:0|0:0,0:0:0:0:
320,272,25129,1,0,0:0:0:0:
232,328,25255,2,0,B|160:352|88:344,1,140,4|0,0:0|0:0,0:0:0:0:
32,288,25633,1,0,0:0:0:0:
64,208,25759,1,8,0:0:0:0:
64,208,26011,1,0,0:0:0:0:
136,32,26263,6,0,B|160:112|144:176,1,140,4|0,0:0|0:0,0:0:0:0:
145,170,26641,1,0,0:0:0:0:
208,224,26767,2,0,B|280:208,2,70,8|0|0,0:0|0:0|0:0,0:0:0:0:
184,304,27145,1,0,0:0:0:0:
264,336,27271,6,0,B|336:320|400:360,2,140,4|0|8,0:0|0:0|0:0,0:0:0:0:
184,304,27902,1,0,0:0:0:0:
248,224,28028,1,0,0:0:0:0:
144,192,28154,1,0,0:0:0:0:
208,112,28280,1,4,0:0:0:0:
376,104,28532,5,0,0:0:0:0:
376,104,28658,1,0,0:0:0:0:
448,152,28784,1,8,0:0:0:0:
408,224,28910,2,0,B|392:272|392:304,2,70
448,152,29288,6,0,B|472:88|480:8,2,140,4|0|8,0:0|0:0|0:0,0:0:0:0:
296,232,30045,2,0,B|272:296|264:376,1,140,0|4,0:0|0:0,0:0:0:0:
136,256,30549,5,0,0:0:0:0:
136,256,30675,1,0,0:0:0:0:
72,312,30801,2,0,B|0:296,2,70,8|0|0,0:0|0:0|0:0,0:0:0:0:
136,256,31179,1,0,0:0:0:0:
88,184,31305,2,0,B|72:104|128:48,1,140,4|0,0:0|0:0,0:0:0:0:
360,40,31809,5,8,0:0:0:0:
416,128,31935,1,0,0:0:0:0:
312,144,32061,1,0,0:0:0:0:
392,208,32187,1,0,0:0:0:0:
304,256,32313,1,4,0:0:0:0:
56,208,32818,6,0,B|120:248|144:320,1,140,8|0,0:0|0:0,0:0:0:0:
142,314,33196,1,0,0:0:0:0:
216,360,33322,2,4,B|288:344,1,70,4|0,0:0|0:0,0:0:0:0:
284,344,33574,1,0,0:0:0:0:
336,280,33700,2,0,B|352:136,1,140
312,64,34078,1,0,0:0:0:0:
312,64,34204,1,0,0:0:0:0:
232,88,34330,1,4,0:0:0:0:
232,88,34582,6,0,B|160:72|88:80,2,140,0|8|0,0:0|0:0|0:0,0:0:0:0:
264,168,35213,1,0,0:0:0:0:
192,248,35339,1,0,0:0:0:0:
240,344,35465,1,0,0:0:0:0:
344,328,35591,1,0,0:0:0:0:
360,224,35717,6,0,B|432:208|504:216,1,140
499,215,36095,1,0,0:0:0:0:
499,215,36221,1,0,0:0:0:0:
512,136,36347,6,0,B|504:96|488:64,2,70,4|0|0,0:0|0:0|0:0,0:0:0:0:
499,215,36725,1,0,0:0:0:0:
456,288,36851,2,0,B|392:328|320:336,1,140,8|0,0:0|0:0,0:0:0:0:
256,296,37229,1,0,0:0:0:0:
176,296,37355,6,0,B|128:304|104:320,2,70,4|0|0,0:0|0:0|0:0,0:0:0:0:
256,296,37734,1,0,0:0:0:0:
288,216,37860,2,0,B|304:144|288:72,1,140,8|0,0:0|0:0,0:0:0:0:
289,77,38238,1,0,0:0:0:0:
216,40,38364,5,0,0:0:0:0:
64,112,38616,2,0,B|48:184|64:256,1,140,0|0,0:0|0:0,0:0:0:0:
200,352,39120,1,0,0:0:0:0:
256,296,39246,1,0,0:0:0:0:
328,336,39372,2,0,B|400:344,1,70
480,320,39624,1,0,0:0:0:0:
440,248,39750,1,0,0:0:0:0:
472,168,39876,1,6,0:0:0:0:
112,24,40381,5,4,0:0:0:0:
168,88,40507,1,0,0:0:0:0:
128,160,40633,2,0,B|88:176|64:200,1,70
80,280,40885,2,0,B|152:264|200:208,2,140,8|0|4,0:0|0:0|0:0,0:0:0:0:
120,352,41515,5,0,0:0:0:0:
200,320,41641,2,0,B|272:328,1,70
344,280,41893,2,0,B|312:216|320:136,1,140,8|0,0:0|0:0,0:0:0:0:
376,80,42271,1,0,0:0:0:0:
456,112,42397,6,0,B|488:176|480:256,2,140,4|0|0,0:0|0:0|0:0,0:0:0:0:
376,80,43028,1,0,0:0:0:0:
304,32,43154,2,0,B|256:40|224:56,1,70
176,104,43406,2,0,B|128:96|96:80,2,70
232,168,43784,1,0,0:0:0:0:
192,240,43910,1,0,0:0:0:0:
472,328,44414,6,0,B|400:312|328:328,1,140,4|0,0:0|0:0,0:0:0:0:
168,352,44918,1,8,0:0:0:0:
120,280,45045,1,0,0:0:0:0:
192,240,45171,1,0,0:0:0:0:
336,160,45423,5,0,0:0:0:0:
384,88,45549,1,0,0:0:0:0:
312,48,45675,2,0,B|240:56,1,70
168,24,45927,2,0,B|88:24|32:80,1,140,8|0,0:0|0:0,0:0:0:0:
32,160,46305,1,0,0:0:0:0:
104,208,46431,6,0,B|152:264|168:336,2,140,4|0|8,0:0|0:0|0:0,0:0:0:0:
256,136,47187,1,0,0:0:0:0:
256,136,47313,1,0,0:0:0:0:
328,184,47439,2,0,B|368:176|400:160,2,70
288,256,47818,1,0,0:0:0:0:
360,296,47944,1,6,0:0:0:0:
360,296,48448,5,4,0:0:0:0:
256,192,48574,12,8,49960,0:0:0:0:
320,112,50465,6,0,B|336:80|344:40,2,70,4|0|0,0:0|0:0|0:0,0:0:0:0:
248,160,50843,1,0,0:0:0:0:
176,200,50969,2,0,B|168:272|192:344,1,140,8|0,0:0|0:0,0:0:0:0:
190,338,51347,1,0,0:0:0:0:
272,368,51473,5,0,0:0:0:0:
320,296,51599,1,0,0:0:0:0:
320,296,51725,1,0,0:0:0:0:
400,320,51851,1,0,0:0:0:0:
448,248,51977,2,0,B|456:208|448:176,1,70,8|0,0:0|0:0,0:0:0:0:
400,112,52229,2,0,B|256:128,1,140,0|4,0:0|0:0,0:0:0:0:
104,64,52734,5,0,0:0:0:0:
32,216,52986,1,8,0:0:0:0:
168,312,53238,2,2,B|304:248|312:376|440:304,2,280,2|2|2,0:0|0:0|0:0,0:0:0:0:
168,312,54498,5,4,0:0:0:0:
32,216,54750,2,0,B|104:200,1,70
160,136,55002,2,0,B|216:184|296:192,1,140,8|0,0:0|0:0,0:0:0:0:
336,120,55381,2,0,B|392:72|472:64,1,140,4|0,0:0|0:0,0:0:0:0:
512,136,55759,1,0,0:0:0:0:
456,200,55885,5,0,0:0:0:0:
504,272,56011,2,0,B|496:344,2,70,8|0|0,0:0|0:0|0:0,0:0:0:0:
456,200,56389,1,0,0:0:0:0:
376,224,56515,1,4,0:0:0:0:
256,192,56641,12,8,58028,0:0:0:0:
168,56,58532,5,4,0:0:0:0:
96,208,58784,1,0,0:0:0:0:
176,240,58910,1,0,0:0:0:0:
224,168,59036,2,0,B|288:136|368:144,1,140,8|0,0:0|0:0,0:0:0:0:
408,216,59414,2,0,B|344:248|264:240,1,140,4|0,0:0|0:0,0:0:0:0:
224,312,59792,1,0,0:0:0:0:
224,312,59918,1,0,0:0:0:0:
144,344,60044,6,0,B|64:336,2,70,8|0|0,0:0|0:0|0:0,0:0:0:0:
224,312,60423,1,0,0:0:0:0:
304,344,60549,1,4,0:0:0:0:
304,344,60801,1,0,0:0:0:0:
432,232,61053,1,8,0:0:0:0:
360,80,61305,6,2,B|224:16|216:144|88:72,2,280,2|2|2,0:0|0:0|0:0,0:0:0:0:
360,80,62565,5,4,0:0:0:0:
432,232,62818,1,0,0:0:0:0:
304,344,63070,1,8,0:0:0:0:
152,272,63322,1,0,0:0:0:0:
184,104,63574,1,0,0:0:0:0:
360,80,63826,5,0,0:0:0:0:
360,80,63952,1,0,0:0:0:0:
360,80,64078,2,0,B|328:144|336:224,1,140,8|0,0:0|0:0,0:0:0:0:
472,312,64582,6,0,B|400:336,1,70,6|0,0:0|0:0,0:0:0:0:
328,312,64834,1,0,0:0:0:0:
272,248,64960,1,0,0:0:0:0:
192,280,65087,2,0,B|120:264,1,70,14|0,0:0|0:0,0:0:0:0:
48,304,65339,2,0,B|40:264|16:232,2,70,0|0|6,0:0|0:0|0:0,0:0:0:0:
123,264,65717,5,0,0:0:0:0:
152,184,65843,1,0,0:0:0:0:
104,112,65969,1,0,0:0:0:0:
176,64,66095,2,0,B|248:56,1,70,14|0,0:0|0:0,0:0:0:0:
296,128,66347,1,0,0:0:0:0:
360,80,66473,1,0,0:0:0:0:
440,64,66599,6,4,B|440:104|448:136,1,70,6|0,0:0|0:0,0:0:0:0:
447,133,66851,1,0,0:0:0:0:
416,208,66977,1,0,0:0:0:0:
480,264,67103,2,0,B|456:336,1,70,14|0,0:0|0:0,0:0:0:0:
376,360,67355,1,0,0:0:0:0:
304,312,67481,2,0,B|264:296|224:304,2,70,0|6|0,0:0|0:0|0:0,0:0:0:0:
304,312,67860,5,0,0:0:0:0:
336,232,67986,1,0,0:0:0:0:
272,176,68112,1,0,0:0:0:0:
72,64,68616,6,0,C|80:136,1,70,6|0,0:0|0:0,0:0:0:0:
32,200,68868,1,0,0:0:0:0:
104,248,68994,1,0,0:0:0:0:
152,320,69120,1,14,0:0:0:0:
224,280,69246,2,0,B|264:272|296:280,2,70
184,208,69624,6,0,B|200:136,1,70,6|0,0:0|0:0,0:0:0:0:
272,96,69876,1,0,0:0:0:0:
344,144,70002,1,0,0:0:0:0:
408,88,70129,2,0,B|434:74|474:66,1,70,14|0,0:0|0:0,0:0:0:0:
512,136,70381,1,0,0:0:0:0:
512,136,70507,1,0,0:0:0:0:
512,136,70633,5,0,0:0:0:0:
368,224,70885,1,0,0:0:0:0:
488,336,71137,6,0,B|504:264,2,70,8|0|0,0:0|0:0|0:0,0:0:0:0:
416,376,71515,1,0,0:0:0:0:
336,344,71641,2,0,B|288:352|256:368,1,70
192,328,71893,2,0,B|144:336|112:352,2,70,0|0|14,0:0|0:0|0:0,0:0:0:0:
336,56,72650,6,0,B|352:88|360:128,1,70,6|0,0:0|0:0,0:0:0:0:
304,192,72902,1,0,0:0:0:0:
224,168,73028,1,0,0:0:0:0:
176,240,73154,2,0,B|96:256,2,70,14|0|0,0:0|0:0|0:0,0:0:0:0:
232,304,73532,1,0,0:0:0:0:
312,280,73658,6,0,B|352:272|384:280,1,70,6|0,0:0|0:0,0:0:0:0:
440,344,73910,1,0,0:0:0:0:
440,344,74036,1,0,0:0:0:0:
496,280,74162,1,14,0:0:0:0:
456,208,74288,1,0,0:0:0:0:
504,136,74414,2,0,B|496:64,1,70
424,24,74666,6,0,B|408:64|400:104,1,70,6|0,0:0|0:0,0:0:0:0:
336,144,74918,1,0,0:0:0:0:
272,96,75044,1,0,0:0:0:0:
208,144,75171,2,0,B|136:136,2,70,14|0|0,0:0|0:0|0:0,0:0:0:0:
240,224,75549,1,0,0:0:0:0:
176,280,75675,6,0,B|192:320|184:368,1,70,6|0,0:0|0:0,0:0:0:0:
104,376,75927,1,0,0:0:0:0:
104,376,76053,1,0,0:0:0:0:
48,312,76179,1,0,0:0:0:0:
72,56,76683,6,0,B|56:96|64:144,1,70,6|0,0:0|0:0,0:0:0:0:
120,184,76935,1,0,0:0:0:0:
120,184,77061,1,0,0:0:0:0:
200,152,77187,2,0,B|272:160,1,70,14|0,0:0|0:0,0:0:0:0:
344,120,77439,1,0,0:0:0:0:
416,168,77565,1,0,0:0:0:0:
376,240,77692,5,6,0:0:0:0:
456,272,77818,2,0,B|464:312|456:352,2,70
376,240,78196,1,14,0:0:0:0:
320,304,78322,1,0,0:0:0:0:
248,264,78448,2,0,B|176:264,1,70
128,328,78700,5,4,0:0:0:0:
32,192,78952,1,0,0:0:0:0:
160,80,79204,1,8,0:0:0:0:
32,192,79456,1,0,0:0:0:0:
128,328,79708,1,0,0:0:0:0:
376,240,80087,5,0,0:0:0:0:
376,240,80213,1,6,0:0:0:0:
80,56,88784,5,4,0:0:0:0:
232,128,89036,1,0,0:0:0:0:
96,224,89288,1,8,0:0:0:0:
96,224,89414,2,0,B|160:264|184:336,1,140
264,360,89792,6,0,B|408:352,1,140,4|0,0:0|0:0,0:0:0:0:
403,352,90171,1,0,0:0:0:0:
440,280,90297,2,0,B|472:264|512:264,2,70,8|0|0,0:0|0:0|0:0,0:0:0:0:
368,240,90675,2,0,B|352:168|384:96,2,140
368,240,91305,5,8,0:0:0:0:
296,280,91431,1,0,0:0:0:0:
248,216,91557,1,0,0:0:0:0:
176,256,91683,1,0,0:0:0:0:
176,256,91809,2,0,B|104:240|32:248,1,140,4|0,0:0|0:0,0:0:0:0:
8,168,92187,1,0,0:0:0:0:
56,96,92313,6,0,B|56:56|48:24,1,70,8|0,0:0|0:0,0:0:0:0:
168,104,92692,2,0,B|168:144|176:176,1,70,0|4,0:0|0:0,0:0:0:0:
248,216,92944,1,0,0:0:0:0:
312,160,93070,1,0,0:0:0:0:
312,160,93196,2,0,B|352:104|424:72,1,140
496,112,93574,2,0,B|504:184|488:256,2,140,0|4|0,0:0|0:0|0:0,0:0:0:0:
384,232,94330,5,8,0:0:0:0:
360,312,94456,1,0,0:0:0:0:
296,256,94582,1,0,0:0:0:0:
216,240,94708,1,0,0:0:0:0:
152,296,94834,1,4,0:0:0:0:
152,296,95087,1,0,0:0:0:0:
48,88,95339,5,8,0:0:0:0:
72,168,95465,1,0,0:0:0:0:
136,112,95591,1,0,0:0:0:0:
216,96,95717,1,0,0:0:0:0:
280,152,95843,1,4,0:0:0:0:
280,152,96095,1,0,0:0:0:0:
424,72,96347,5,2,0:0:0:0:
368,336,96851,6,0,B|512:320,2,140,4|0|8,0:0|0:0|0:0,0:0:0:0:
256,208,97608,1,0,0:0:0:0:
256,208,97734,2,0,B|192:240|160:312,1,140,4|0,0:0|0:0,0:0:0:0:
88,344,98112,1,0,0:0:0:0:
88,344,98238,2,0,B|16:320,2,70,0|8|0,0:0|0:0|0:0,0:0:0:0:
144,48,98868,6,0,B|0:64,2,140,4|0|8,0:0|0:0|0:0,0:0:0:0:
256,176,99624,1,0,0:0:0:0:
256,176,99750,2,0,B|320:144|352:72,1,140,4|0,0:0|0:0,0:0:0:0:
416,128,100129,2,0,B|432:200|416:272,1,140,4|8,0:0|0:0,0:0:0:0:
344,304,100507,1,0,0:0:0:0:
96,256,100885,6,0,B|104:336,2,70,4|0|0,0:0|0:0|0:0,0:0:0:0:
32,200,101263,1,0,0:0:0:0:
64,120,101389,2,0,B|128:88|208:96,1,140,8|0,0:0|0:0,0:0:0:0:
256,160,101767,1,4,0:0:0:0:
256,160,101893,2,0,B|320:192,1,70
400,160,102145,2,0,B|360:96|384:16,1,140,0|8,0:0|0:0,0:0:0:0:
456,72,102523,5,0,0:0:0:0:
488,152,102650,1,0,0:0:0:0:
488,152,102776,1,0,0:0:0:0:
488,152,102902,1,4,0:0:0:0:
456,232,103028,1,0,0:0:0:0:
488,312,103154,2,0,B|424:344,1,70
352,312,103406,2,0,B|288:272|216:288,1,140,8|0,0:0|0:0,0:0:0:0:
152,344,103784,5,4,0:0:0:0:
72,320,103910,1,0,0:0:0:0:
32,248,104036,2,0,B|24:192|8:160,2,70
112,224,104414,1,14,0:0:0:0:
160,152,104540,1,0,0:0:0:0:
160,152,104666,1,0,0:0:0:0:
160,152,104792,1,0,0:0:0:0:
160,152,104918,6,0,B|120:88|144:0,1,140,4|0,0:0|0:0,0:0:0:0:
352,232,105423,1,8,0:0:0:0:
352,232,105549,1,0,0:0:0:0:
352,232,105675,2,0,B|392:296|368:384,2,140,0|4|0,0:0|0:0|0:0,0:0:0:0:
272,192,106305,1,0,0:0:0:0:
224,264,106431,6,0,B|80:256,1,140,8|0,0:0|0:0,0:0:0:0:
40,184,106809,1,0,0:0:0:0:
88,112,106935,2,0,B|232:120,1,140,4|0,0:0|0:0,0:0:0:0:
288,56,107313,1,0,0:0:0:0:
368,40,107439,2,0,B|400:56|424:88,2,70,8|0|0,0:0|0:0|0:0,0:0:0:0:
360,208,107944,6,0,B|392:272|464:304,2,140,4|0|8,0:0|0:0|0:0,0:0:0:0:
288,168,108574,2,0,B|216:184,1,70
219,183,108826,1,0,0:0:0:0:
144,144,108952,6,0,B|192:208|184:288,1,140,4|0,0:0|0:0,0:0:0:0:
104,288,109330,1,0,0:0:0:0:
40,240,109456,2,0,B|-8:176|0:96,1,140,8|0,0:0|0:0,0:0:0:0:
48,40,109834,1,0,0:0:0:0:
128,24,109960,1,4,0:0:0:0:
128,24,110213,1,0,0:0:0:0:
232,152,110465,5,8,0:0:0:0:
176,312,110717,2,0,B|248:336,1,70
320,296,110969,2,0,B|352:280|392:272,2,70,4|0|0,0:0|0:0|0:0,0:0:0:0:
256,240,111347,1,0,0:0:0:0:
320,184,111473,1,0,0:0:0:0:
216,56,111725,1,0,0:0:0:0:
216,56,111851,1,0,0:0:0:0:
216,56,111977,2,0,B|40:64|24:224,1,280,0|6,0:0|0:0,0:0:0:0:
256,336,112986,5,4,0:0:0:0:
256,192,113112,12,8,114498,0:0:0:0:
192,112,115002,6,0,B|176:80|168:40,2,70,4|0|0,0:0|0:0|0:0,0:0:0:0:
264,160,115381,1,0,0:0:0:0:
336,200,115507,2,0,B|344:272|320:344,1,140,8|0,0:0|0:0,0:0:0:0:
321,338,115885,1,0,0:0:0:0:
240,368,116011,5,0,0:0:0:0:
192,296,116137,1,0,0:0:0:0:
192,296,116263,1,0,0:0:0:0:
112,320,116389,1,0,0:0:0:0:
64,248,116515,2,0,B|56:208|64:176,1,70,8|0,0:0|0:0,0:0:0:0:
112,112,116767,2,0,B|256:128,1,140,0|4,0:0|0:0,0:0:0:0:
408,64,117271,5,0,0:0:0:0:
480,216,117523,1,8,0:0:0:0:
344,312,117776,2,2,B|208:248|200:376|72:304,2,280,2|2|2,0:0|0:0|0:0,0:0:0:0:
344,312,119036,5,4,0:0:0:0:
480,216,119288,2,0,B|408:200,1,70
352,136,119540,2,0,B|296:184|216:192,1,140,8|0,0:0|0:0,0:0:0:0:
176,120,119918,2,0,B|120:72|40:64,1,140,4|0,0:0|0:0,0:0:0:0:
0,136,120297,1,0,0:0:0:0:
56,200,120423,5,0,0:0:0:0:
8,272,120549,2,0,B|16:344,2,70,8|0|0,0:0|0:0|0:0,0:0:0:0:
56,200,120927,1,0,0:0:0:0:
136,224,121053,1,4,0:0:0:0:
256,192,121179,12,8,122565,0:0:0:0:
344,56,123070,5,4,0:0:0:0:
416,208,123322,1,0,0:0:0:0:
336,240,123448,1,0,0:0:0:0:
288,168,123574,2,0,B|224:136|144:144,1,140,8|0,0:0|0:0,0:0:0:0:
104,216,123952,2,0,B|168:248|248:240,1,140,4|0,0:0|0:0,0:0:0:0:
288,312,124330,1,0,0:0:0:0:
288,312,124456,1,0,0:0:0:0:
368,344,124582,6,0,B|448:336,2,70,8|0|0,0:0|0:0|0:0,0:0:0:0:
288,312,124960,1,0,0:0:0:0:
208,344,125087,1,4,0:0:0:0:
208,344,125339,1,0,0:0:0:0:
80,232,125591,1,8,0:0:0:0:
152,80,125843,6,2,B|288:16|296:144|424:72,2,280,2|2|2,0:0|0:0|0:0,0:0:0:0:
152,80,127103,5,4,0:0:0:0:
80,232,127355,1,0,0:0:0:0:
208,344,127608,1,8,0:0:0:0:
360,272,127860,1,0,0:0:0:0:
328,104,128112,1,0,0:0:0:0:
152,80,128364,5,0,0:0:0:0:
152,80,128490,1,0,0:0:0:0:
152,80,128616,2,0,B|184:144|176:224,1,140,8|0,0:0|0:0,0:0:0:0:
40,312,129120,6,0,B|112:336,1,70,6|0,0:0|0:0,0:0:0:0:
200,320,129372,1,0,0:0:0:0:
256,248,129498,1,0,0:0:0:0:
336,296,129624,2,0,B|408:280,1,70,14|0,0:0|0:0,0:0:0:0:
472,216,129876,2,0,B|480:176|504:144,2,70,0|0|6,0:0|0:0|0:0,0:0:0:0:
384,200,130255,5,0,0:0:0:0:
312,144,130381,1,0,0:0:0:0:
392,96,130507,1,0,0:0:0:0:
320,40,130633,2,0,B|248:32,1,70,14|0,0:0|0:0,0:0:0:0:
184,96,130885,1,0,0:0:0:0:
104,56,131011,1,0,0:0:0:0:
40,120,131137,6,4,B|40:160|32:192,1,70,6|0,0:0|0:0,0:0:0:0:
120,224,131389,1,0,0:0:0:0:
48,280,131515,1,0,0:0:0:0:
48,280,131641,2,0,B|72:352,1,70,14|0,0:0|0:0,0:0:0:0:
160,368,131893,1,0,0:0:0:0:
232,312,132019,2,0,B|272:296|312:304,2,70,0|6|0,0:0|0:0|0:0,0:0:0:0:
232,312,132397,5,0,0:0:0:0:
208,224,132523,1,0,0:0:0:0:
264,152,132650,1,0,0:0:0:0:
440,48,133154,6,0,C|432:120,1,70,6|0,0:0|0:0,0:0:0:0:
488,200,133406,1,0,0:0:0:0:
400,240,133532,1,0,0:0:0:0:
360,328,133658,1,14,0:0:0:0:
272,280,133784,2,0,B|232:272|200:280,2,70
312,192,134162,6,0,B|296:120,1,70,6|0,0:0|0:0,0:0:0:0:
224,56,134414,1,0,0:0:0:0:
136,104,134540,1,0,0:0:0:0:
96,192,134666,2,0,B|70:178|30:170,1,70,14|0,0:0|0:0,0:0:0:0:
0,264,134918,1,0,0:0:0:0:
0,264,135044,1,0,0:0:0:0:
40,352,135171,5,0,0:0:0:0:
232,376,135423,1,0,0:0:0:0:
304,192,135675,6,0,B|296:112,2,70,8|0|0,0:0|0:0|0:0,0:0:0:0:
224,248,136053,1,0,0:0:0:0:
304,304,136179,2,0,B|352:312|384:328,1,70
440,248,136431,2,0,B|488:256|520:272,2,70,0|0|14,0:0|0:0|0:0,0:0:0:0:
88,64,137187,6,0,B|72:96|64:136,1,70,6|0,0:0|0:0,0:0:0:0:
128,216,137439,1,0,0:0:0:0:
208,152,137565,1,0,0:0:0:0:
312,120,137692,2,0,B|384:128,2,70,14|0|0,0:0|0:0|0:0,0:0:0:0:
208,152,138070,1,0,0:0:0:0:
280,232,138196,6,0,B|288:272|280:304,1,70,6|0,0:0|0:0,0:0:0:0:
360,368,138448,1,0,0:0:0:0:
360,368,138574,1,0,0:0:0:0:
440,296,138700,1,14,0:0:0:0:
376,216,138826,1,0,0:0:0:0:
464,152,138952,2,0,B|456:112|464:80,1,70,0|0,0:0|0:0,0:0:0:0:
376,24,139204,6,0,B|384:64|376:96,1,70,6|0,0:0|0:0,0:0:0:0:
288,144,139456,1,0,0:0:0:0:
216,64,139582,1,0,0:0:0:0:
120,112,139708,2,0,B|40:96,2,70,14|0|0,0:0|0:0|0:0,0:0:0:0:
136,216,140087,1,0,0:0:0:0:
40,248,140213,6,0,B|24:288|32:336,1,70,6|0,0:0|0:0,0:0:0:0:
128,360,140465,1,0,0:0:0:0:
208,296,140591,1,0,0:0:0:0:
304,344,140717,1,0,0:0:0:0:
392,72,141221,6,6,B|264:8|248:136|120:64,4,280,6|6|6|6|0,0:0|0:0|0:0|0:0|0:0,0:0:0:0:
440,144,143364,5,0,0:0:0:0:
440,144,143490,2,0,B|448:224|424:288,1,140
256,312,143994,1,0,0:0:0:0:
88,280,144246,2,2,B|48:176|88:64,2,210
256,312,145255,5,4,0:0:0:0:
