osu file format v14

[General]
AudioFilename: Dio ft. Sef - Aye.mp3
AudioLeadIn: 0
PreviewTime: 64560
Countdown: 1
SampleSet: Normal
StackLeniency: 0.7
Mode: 0
LetterboxInBreaks: 1
SkinPreference:Default
WidescreenStoryboard: 0

[Editor]
Bookmarks: 16207,48433,64560
DistanceSpacing: 1
BeatDivisor: 4
GridSize: 8
TimelineZoom: 1.6

[Metadata]
Title:Aye
TitleUnicode:Aye
Artist:Dio feat. Sef
ArtistUnicode:Dio feat. Sef
Creator:AJT
Version:LesJT's Normal
Source:
Tags:dutch nederlands hip hop lesjuh down aranel
BeatmapID:3314681
BeatmapSetID:1621130

[Difficulty]
HPDrainRate:3
CircleSize:4
OverallDifficulty:4
ApproachRate:5
SliderMultiplier:1.6
SliderTickRate:2

[Events]
//Background and Video events
0,0,"bg.jpeg",0,0
Video,225,"video.mp4"
//Break Periods
2,80717,87584
//Storyboard Layer 0 (Background)
//Storyboard Layer 1 (Fail)
//Storyboard Layer 2 (Pass)
//Storyboard Layer 3 (Foreground)
//Storyboard Layer 4 (Overlay)
//Storyboard Sound Samples

[TimingPoints]
45,504.201680672269,4,1,2,60,1,0
33749,-100,4,1,1,60,0,0
33754,-100,4,1,1,60,0,0
33875,-100,4,1,2,60,0,0
33880,-100,4,1,2,60,0,0
35765,-100,4,1,1,60,0,0
35891,-100,4,1,2,60,0,0
50826,-100,4,1,1,60,0,0
51078,-100,4,1,2,60,0,0
53850,-100,4,1,1,60,0,0
54102,-100,4,1,2,60,0,0
61914,-100,4,1,1,60,0,0
62166,-100,4,1,2,60,0,0
64582,-100,4,1,2,60,0,1
68112,-100,4,1,2,60,0,0
68616,-100,4,1,2,60,0,1
70633,-100,4,1,2,60,0,0
71137,-100,4,1,2,60,0,1
76179,-100,4,1,2,60,0,0
76683,-100,4,1,2,60,0,1
80213,-100,4,1,2,60,0,0
93377,-100,4,1,2,60,0,0
115507,-100,4,1,1,60,0,0
115633,-100,4,1,2,60,0,0
118532,-100,4,1,1,60,0,0
118658,-100,4,1,2,60,0,0
126599,-100,4,1,1,60,0,0
126725,-100,4,1,2,60,0,0
129120,-100,4,1,2,60,0,1
132650,-100,4,1,2,60,0,0
133154,-100,4,1,2,60,0,1
135171,-100,4,1,2,60,0,0
135675,-100,4,1,2,60,0,1
140717,-100,4,1,2,60,0,0
141221,-100,4,1,2,60,0,1
145255,-100,4,1,2,60,0,0

[HitObjects]
88,328,16179,6,0,B|56:256|72:168,1,160,4|8,0:0|0:0,0:0:0:0:
168,104,17061,2,0,B|184:160|177:209,1,80
232,280,17692,1,8,0:0:0:0:
312,256,17944,1,0,0:0:0:0:
392,232,18196,5,4,0:0:0:0:
488,104,18700,1,8,0:0:0:0:
400,24,19078,2,0,B|336:40|280:32,1,80,4|0,0:0|0:0,0:0:0:0:
248,104,19708,1,8,0:0:0:0:
96,56,20213,6,0,B|72:136|88:216,1,160,4|8,0:0|0:0,0:0:0:0:
208,192,21095,2,0,B|224:248|216:312,1,80,4|0,0:0|0:0,0:0:0:0:
152,360,21725,1,8,0:0:0:0:
296,296,22229,5,0,0:0:0:0:
176,192,22734,1,8,0:0:0:0:
320,120,23238,1,0,0:0:0:0:
320,120,23490,1,0,0:0:0:0:
320,120,23742,1,8,0:0:0:0:
480,104,24246,6,0,B|496:192|480:272,1,160,4|8,0:0|0:0,0:0:0:0:
336,200,25255,2,0,B|320:112|336:32,1,160,4|8,0:0|0:0,0:0:0:0:
334,40,26011,1,0,0:0:0:0:
334,40,26263,1,4,0:0:0:0:
176,80,26767,6,0,B|192:160,1,80,8|0,0:0|0:0,0:0:0:0:
120,200,27271,2,0,B|168:272|144:360,2,160,4|8|4,0:0|0:0|0:0,0:0:0:0:
24,72,28784,5,8,0:0:0:0:
184,40,29288,1,4,0:0:0:0:
264,56,29540,1,0,0:0:0:0:
312,120,29792,1,8,0:0:0:0:
472,104,30297,6,0,B|400:152|376:232,1,160,4|8,0:0|0:0,0:0:0:0:
336,296,31053,1,0,0:0:0:0:
264,328,31305,2,0,B|96:328,1,160,4|8,0:0|0:0,0:0:0:0:
40,184,32313,5,4,0:0:0:0:
184,104,32818,1,8,0:0:0:0:
336,144,33322,2,4,B|376:88|392:32,2,120,4|0|0,0:0|0:0|0:0,0:0:0:0:
272,192,34330,2,0,B|256:272|280:352,1,160,4|8,0:0|0:0,0:0:0:0:
416,272,35339,5,0,0:0:0:0:
416,272,35843,2,0,B|248:272,1,160,8|4,0:0|0:0,0:0:0:0:
192,328,36599,1,0,0:0:0:0:
112,304,36851,1,8,0:0:0:0:
32,168,37355,5,4,0:0:0:0:
80,104,37608,1,0,0:0:0:0:
160,120,37860,1,8,0:0:0:0:
312,72,38364,6,0,B|320:160|296:232,2,160
312,72,39876,1,6,0:0:0:0:
448,152,40381,5,4,0:0:0:0:
480,224,40633,1,0,0:0:0:0:
440,296,40885,2,0,B|352:288|288:344,1,160,8|4,0:0|0:0,0:0:0:0:
136,304,41893,1,8,0:0:0:0:
176,152,42397,6,0,B|344:160,2,160,4|0|0,0:0|0:0|0:0,0:0:0:0:
176,152,43910,1,0,0:0:0:0:
64,32,44414,6,0,B|64:80|48:120,1,80,4|0,0:0|0:0,0:0:0:0:
16,184,44918,2,0,B|16:232|32:272,1,80,8|0,0:0|0:0,0:0:0:0:
88,320,45423,1,0,0:0:0:0:
168,296,45675,1,0,0:0:0:0:
224,352,45927,1,8,0:0:0:0:
376,304,46431,6,0,B|400:224|384:144,1,160,4|8,0:0|0:0,0:0:0:0:
336,80,47187,1,0,0:0:0:0:
336,80,47439,1,0,0:0:0:0:
168,168,47944,1,6,0:0:0:0:
256,304,48448,5,4,0:0:0:0:
256,192,48574,12,8,49960,0:0:0:0:
320,56,50465,6,0,B|504:120|424:320,1,320,4|0,0:0|0:0,0:0:0:0:
272,344,51977,1,8,0:0:0:0:
216,288,52229,1,0,0:0:0:0:
144,320,52481,1,4,0:0:0:0:
104,80,53238,6,2,B|272:24|240:168|416:96,1,320
472,248,54750,1,0,0:0:0:0:
400,216,55002,2,0,B|360:264|336:320,1,120,8|4,0:0|0:0,0:0:0:0:
216,344,55759,5,0,0:0:0:0:
152,288,56011,1,8,0:0:0:0:
216,240,56263,1,0,0:0:0:0:
152,184,56515,1,4,0:0:0:0:
256,192,56767,12,4,58531,0:0:0:0:
160,112,59036,5,8,0:0:0:0:
72,192,59414,2,0,B|80:256|112:312,1,120,4|0,0:0|0:0,0:0:0:0:
184,336,60045,1,8,0:0:0:0:
216,264,60297,1,0,0:0:0:0:
296,272,60549,1,4,0:0:0:0:
408,80,61305,6,2,B|240:24|272:168|96:96,1,320
40,152,62566,1,4,0:0:0:0:
184,232,63070,1,8,0:0:0:0:
80,352,63574,1,0,0:0:0:0:
184,232,64078,2,0,B|272:232,1,80,8|0,0:0|0:0,0:0:0:0:
336,272,64582,6,0,B|376:200|384:112,1,160,6|14,0:0|0:0,0:0:0:0:
248,40,65591,2,0,B|208:112|200:200,1,160,6|14,0:0|0:0,0:0:0:0:
320,296,66599,6,4,B|392:256|480:248,1,160,6|14,0:0|0:0,0:0:0:0:
376,120,67608,2,0,B|304:159|224:167,1,160,6|0,0:0|0:0,0:0:0:0:
96,72,68616,5,6,0:0:0:0:
56,224,69120,1,14,0:0:0:0:
184,320,69624,1,6,0:0:0:0:
224,168,70129,1,14,0:0:0:0:
224,168,70633,6,0,B|272:152|320:152,1,80
360,208,71137,2,0,B|352:288|288:352,1,160,8|0,0:0|0:0,0:0:0:0:
224,304,71893,1,0,0:0:0:0:
152,328,72145,1,14,0:0:0:0:
40,216,72650,6,0,B|47:136|87:64,1,160,6|14,0:0|0:0,0:0:0:0:
240,16,73658,2,0,B|280:88|288:176,1,160,6|14,0:0|0:0,0:0:0:0:
176,288,74666,6,0,B|248:328|336:336,1,160,6|14,0:0|0:0,0:0:0:0:
440,224,75675,2,0,B|432:144|392:72,1,160,6|0,0:0|0:0,0:0:0:0:
232,48,76683,5,6,0:0:0:0:
104,136,77187,1,14,0:0:0:0:
168,280,77692,1,6,0:0:0:0:
296,192,78196,1,14,0:0:0:0:
456,216,78700,6,0,B|472:264|472:312,1,80,4|0,0:0|0:0,0:0:0:0:
416,352,79204,2,0,B|336:344|272:280,1,160,8|0,0:0|0:0,0:0:0:0:
256,128,80213,1,6,0:0:0:0:
56,360,88784,6,0,B|32:280|48:200,1,160,4|8,0:0|0:0,0:0:0:0:
208,208,89792,2,0,B|224:152|219:118,1,80,4|0,0:0|0:0,0:0:0:0:
160,80,90297,1,8,0:0:0:0:
310,19,90801,2,0,B|390:-5|472:13,2,160,0|8|4,0:0|0:0|0:0,0:0:0:0:
310,19,92061,1,0,0:0:0:0:
310,19,92313,1,8,0:0:0:0:
264,168,92818,5,4,0:0:0:0:
416,112,93322,1,8,0:0:0:0:
472,168,93574,2,0,B|497:217|505:254,1,80,0|4,0:0|0:0,0:0:0:0:
416,376,94330,1,8,0:0:0:0:
416,376,94582,1,0,0:0:0:0:
416,376,94834,1,4,0:0:0:0:
264,320,95339,1,8,0:0:0:0:
192,288,95591,1,0,0:0:0:0:
112,304,95843,1,4,0:0:0:0:
40,160,96347,5,2,0:0:0:0:
200,192,96851,6,0,B|184:112|208:32,1,160,4|8,0:0|0:0,0:0:0:0:
328,56,97734,2,0,B|381:54|418:39,1,80,4|0,0:0|0:0,0:0:0:0:
464,136,98364,1,8,0:0:0:0:
336,208,98868,2,0,B|283:206|246:191,1,80,4|0,0:0|0:0,0:0:0:0:
200,248,99372,2,0,B|240:304|256:360,2,120,8|4|4,0:0|0:0|0:0,0:0:0:0:
120,240,100381,1,8,0:0:0:0:
112,80,100885,6,0,B|59:78|22:63,2,80,4|0|8,0:0|0:0|0:0,0:0:0:0:
176,32,101641,1,0,0:0:0:0:
256,24,101893,2,0,B|309:26|346:41,2,80,0|0|8,0:0|0:0|0:0,0:0:0:0:
408,80,102902,6,0,B|432:160|416:240,1,160,4|8,0:0|0:0,0:0:0:0:
312,296,103784,1,4,0:0:0:0:
208,240,104162,1,0,0:0:0:0:
136,280,104414,2,0,B|138:333|153:370,2,80,14|0|4,0:0|0:0|0:0,0:0:0:0:
32,176,105423,5,8,0:0:0:0:
32,176,105675,1,0,0:0:0:0:
32,176,105927,1,4,0:0:0:0:
152,64,106431,1,8,0:0:0:0:
232,48,106683,1,0,0:0:0:0:
304,88,106935,2,0,B|384:64|464:80,2,160,4|8|4,0:0|0:0|0:0,0:0:0:0:
248,240,108448,6,0,B|248:288|264:328,1,80,8|0,0:0|0:0,0:0:0:0:
192,360,108952,2,0,B|112:336|32:352,2,160,4|8|4,0:0|0:0|0:0,0:0:0:0:
128,208,110465,1,8,0:0:0:0:
256,144,112481,2,0,L|256:232,1,80,6|0,0:0|0:0,0:0:0:0:
256,304,112986,5,4,0:0:0:0:
256,192,113112,12,8,114498,0:0:0:0:
512,176,115003,6,0,B|448:-8|248:72,1,320,4|0,0:0|0:0,0:0:0:0:
104,8,116515,1,8,0:0:0:0:
48,64,116767,1,0,0:0:0:0:
64,144,117019,1,4,0:0:0:0:
184,352,117776,6,2,B|352:296|320:440|496:368,1,320
448,216,119288,1,0,0:0:0:0:
384,168,119540,2,0,B|336:208|280:232,2,120,8|4|0,0:0|0:0|0:0,0:0:0:0:
368,88,120549,1,8,0:0:0:0:
312,32,120801,1,0,0:0:0:0:
232,16,121053,1,4,0:0:0:0:
256,192,121305,12,4,123069,0:0:0:0:
32,48,123574,5,8,0:0:0:0:
120,128,123952,2,0,B|112:192|80:248,1,120,4|0,0:0|0:0,0:0:0:0:
48,312,124583,1,8,0:0:0:0:
96,376,124835,1,0,0:0:0:0:
176,376,125087,1,4,0:0:0:0:
408,328,125843,6,2,B|267:220|250:366|107:241,1,320
128,168,127104,1,4,0:0:0:0:
48,304,127608,1,8,0:0:0:0:
0,152,128112,1,0,0:0:0:0:
128,56,128616,1,8,0:0:0:0:
208,64,128868,1,0,0:0:0:0:
272,24,129120,6,0,B|344:64|432:72,1,160,6|14,0:0|0:0,0:0:0:0:
496,216,130129,2,0,B|456:288|448:376,1,160,6|14,0:0|0:0,0:0:0:0:
288,360,131137,6,4,B|216:320|128:312,1,160,6|14,0:0|0:0,0:0:0:0:
32,192,132146,2,0,B|72:120|80:32,1,160,6|0,0:0|0:0,0:0:0:0:
240,64,133154,5,6,0:0:0:0:
400,80,133658,1,14,0:0:0:0:
376,240,134162,1,6,0:0:0:0:
216,232,134667,1,14,0:0:0:0:
216,232,135171,6,0,B|168:216|120:216,1,80
96,152,135675,2,0,B|88:232|24:296,1,160,8|0,0:0|0:0,0:0:0:0:
88,344,136431,1,0,0:0:0:0:
168,360,136683,1,14,0:0:0:0:
320,312,137188,6,0,B|327:232|367:160,1,160,6|14,0:0|0:0,0:0:0:0:
248,48,138196,2,0,B|265:128|247:215,1,160,6|14,0:0|0:0,0:0:0:0:
163,346,139204,2,0,B|155:266|115:194,3,160,6|14|6|0,0:0|0:0|0:0|0:0,0:0:0:0:
115,194,141221,5,6,0:0:0:0:
256,192,141347,12,2,143238,2:2:0:0:
256,192,143364,12,4,145255,0:0:0:0:
