osu file format v14

[General]
AudioFilename: Dio ft. Sef - Aye.mp3
AudioLeadIn: 0
PreviewTime: 64560
Countdown: 1
SampleSet: Normal
StackLeniency: 0.7
Mode: 0
LetterboxInBreaks: 1
SkinPreference:Default
WidescreenStoryboard: 1

[Editor]
Bookmarks: 16207,48433,64560,88813,112975
DistanceSpacing: 1.4
BeatDivisor: 4
GridSize: 8
TimelineZoom: 2.2

[Metadata]
Title:Aye
TitleUnicode:Aye
Artist:Dio feat. Sef
ArtistUnicode:Dio feat. Sef
Creator:AJT
Version:Down's Hyper
Source:
Tags:dutch nederlands hip hop lesjuh down aranel
BeatmapID:3309940
BeatmapSetID:1621130

[Difficulty]
HPDrainRate:5
CircleSize:4
OverallDifficulty:7
ApproachRate:8
SliderMultiplier:2.2
SliderTickRate:2

[Events]
//Background and Video events
Video,225,"video.mp4"
0,0,"bg.jpeg",0,0
//Break Periods
2,80917,88034
//Storyboard Layer 0 (Background)
//Storyboard Layer 1 (Fail)
//Storyboard Layer 2 (Pass)
//Storyboard Layer 3 (Foreground)
//Storyboard Layer 4 (Overlay)
//Storyboard Sound Samples

[TimingPoints]
45,504.201680672269,4,1,2,50,1,0
33749,-100,4,1,2,50,0,0
33875,-100,4,1,2,50,0,0
35765,-100,4,1,2,50,0,0
35891,-100,4,1,2,50,0,0
61720,-100,4,1,2,5,0,0
61783,-100,4,1,2,50,0,0
64582,-100,4,1,2,60,0,1
68112,-100,4,1,2,60,0,0
68616,-100,4,1,2,60,0,1
70633,-100,4,1,2,60,0,0
71137,-100,4,1,2,60,0,1
76179,-100,4,1,2,60,0,0
76683,-100,4,1,2,60,0,1
80717,-100,4,1,2,50,0,0
93251,-100,4,1,2,50,0,0
93377,-100,4,1,2,50,0,0
126231,-100,4,1,2,5,0,0
126294,-100,4,1,2,50,0,0
129120,-100,4,1,2,60,0,1
132650,-100,4,1,2,60,0,0
133154,-100,4,1,2,60,0,1
135171,-100,4,1,2,60,0,0
135675,-100,4,1,2,60,0,1
140717,-100,4,1,2,60,0,0
141221,-100,4,1,2,60,0,1
145255,-100,4,1,2,60,0,0

[HitObjects]
140,95,16179,6,0,P|222:78|262:73,1,110,4|0,0:0|0:0,0:0:0:0:
315,112,16557,1,0,0:0:0:0:
266,172,16683,2,0,P|276:201|290:229,1,55,8|0,0:0|0:0,0:0:0:0:
346,272,16935,1,0,0:0:0:0:
411,230,17061,6,0,P|419:183|451:104,2,110,2|2|0,0:2|0:2|0:0,0:0:0:0:
464,286,17692,1,8,0:0:0:0:
322,347,17944,1,0,0:0:0:0:
219,231,18196,6,0,P|182:196|124:171,1,110
53,190,18574,1,0,0:0:0:0:
41,113,18700,2,0,P|33:87|16:48,1,55,8|0,0:0|0:0,0:0:0:0:
81,10,18952,1,0,0:0:0:0:
151,40,19078,6,0,P|203:49|266:61,1,110,2|0,0:2|0:0,0:0:0:0:
345,188,19582,1,0,0:0:0:0:
345,188,19708,2,0,P|355:149|368:124,1,55,8|0,0:0|0:0,0:0:0:0:
436,117,19960,2,0,P|435:89|420:58,1,55
349,44,20213,5,0,0:0:0:0:
293,97,20339,2,0,P|246:114|169:141,1,110
111,138,20717,2,0,B|104:166|104:166|138:197,1,55,8|0,0:0|0:0,0:0:0:0:
178,237,20969,1,0,0:0:0:0:
243,196,21095,6,0,P|298:203|372:222,2,110,2|0|0,0:2|0:0|0:0,0:0:0:0:
178,237,21725,1,8,0:0:0:0:
297,334,21977,1,0,0:0:0:0:
359,289,22103,6,0,P|411:264|426:212,1,110,2|2,0:2|0:2,0:0:0:0:
312,112,22608,1,0,0:0:0:0:
312,112,22734,2,0,P|320:74|331:36,1,55,8|0,0:0|0:0,0:0:0:0:
384,10,22986,1,0,0:0:0:0:
452,45,23112,6,0,P|457:84|471:171,1,110,2|0,0:2|0:0,0:0:0:0:
292,304,23742,2,0,P|270:314|231:338,2,55,8|0|0,0:0|0:0|0:0,0:0:0:0:
334,239,24120,1,0,0:0:0:0:
261,212,24246,6,0,B|241:189|241:189|265:101,1,110,4|0,0:0|0:0,0:0:0:0:
130,30,24750,2,0,P|97:21|64:5,2,55,8|0|0,0:0|0:0|0:0,0:0:0:0:
153,103,25129,1,0,0:0:0:0:
77,118,25255,6,0,B|51:168|51:168|76:239,1,110,2|0,0:2|0:0,0:0:0:0:
129,267,25633,1,0,0:0:0:0:
69,316,25759,2,0,P|89:336|118:360,1,55,8|0,0:0|0:0,0:0:0:0:
180,323,26011,2,0,P|219:305|254:297,1,55
249,226,26263,6,0,P|225:160|203:106,1,110
257,61,26641,1,0,0:0:0:0:
330,83,26767,2,0,P|355:86|393:91,2,55,8|0|0,0:0|0:0|0:0,0:0:0:0:
308,157,27145,1,0,0:0:0:0:
373,198,27271,6,0,P|386:242|402:321,1,110,2|0,0:2|0:0,0:0:0:0:
478,171,27776,2,0,P|485:135|494:100,1,55,8|0,0:0|0:0,0:0:0:0:
458,45,28028,2,0,P|424:40|383:29,1,55
348,89,28280,5,0,0:0:0:0:
200,46,28532,2,0,P|217:71|228:99,1,55
254,166,28784,2,0,P|235:188|216:222,1,55,8|0,0:0|0:0,0:0:0:0:
144,204,29036,2,0,B|116:196|116:196|94:156,1,55
114,96,29288,6,0,P|64:88|-10:75,2,110,2|0|8,0:2|0:0|0:0,0:0:0:0:
47,235,30045,1,0,0:0:0:0:
188,175,30297,6,0,P|202:228|225:295,1,110
180,347,30675,1,0,0:0:0:0:
254,365,30801,2,0,P|288:352|314:341,1,55,8|0,0:0|0:0,0:0:0:0:
331,271,31053,2,0,B|321:245|321:245|283:226,1,55
260,164,31305,5,2,0:2:0:0:
404,109,31557,1,0,0:0:0:0:
483,240,31809,2,0,P|473:274|467:300,2,55,8|0|0,0:0|0:0|0:0,0:0:0:0:
407,222,32187,1,0,0:0:0:0:
460,166,32313,6,0,P|446:113|422:36,1,110,4|0,0:0|0:0,0:0:0:0:
281,17,32818,2,0,P|256:64|255:135,1,110,8|0,0:0|0:0,0:0:0:0:
310,170,33196,1,0,0:0:0:0:
257,226,33322,2,0,P|224:233|181:251,1,55
142,288,33574,1,0,0:0:0:0:
72,254,33700,6,0,P|54:218|58:129,1,110,2|0,0:2|0:0,0:0:0:0:
76,75,34078,2,0,P|107:93|120:111,1,55
173,162,34330,6,0,P|228:145|291:131,2,110,0|0|8,0:0|0:0|0:0,0:0:0:0:
297,253,35087,2,0,P|333:262|359:285,1,55
296,330,35339,6,0,P|276:350|268:382,2,55
371,348,35717,1,0,0:0:0:0:
484,243,35969,2,0,P|491:209|495:180,2,55
406,248,36347,6,0,P|411:213|417:187,1,55
363,136,36599,2,0,P|338:143|292:153,1,55
266,84,36851,2,0,P|333:67|379:55,1,110,8|0,0:0|0:0,0:0:0:0:
440,18,37229,1,0,0:0:0:0:
489,77,37355,6,0,B|489:106|489:106|466:131,1,55
414,177,37608,2,0,B|411:205|411:205|446:243,1,55
437,301,37860,2,0,P|382:314|317:332,1,110,8|0,0:0|0:0,0:0:0:0:
265,286,38238,1,0,0:0:0:0:
226,352,38364,5,2,0:2:0:0:
90,279,38616,1,0,0:0:0:0:
216,191,38868,2,0,P|235:139|248:82,1,110
199,25,39246,1,0,0:0:0:0:
127,52,39372,6,0,P|102:42|66:31,2,55
121,129,39750,1,0,0:0:0:0:
44,134,39876,2,0,P|52:201|59:261,1,110,2|2,0:0|0:2,0:0:0:0:
163,355,40381,6,0,P|194:341|224:329,1,55,4|0,0:0|0:0,0:0:0:0:
270,280,40633,2,0,P|239:261|207:256,1,55
157,212,40885,2,0,P|163:158|200:116,1,110,8|0,0:0|0:0,0:0:0:0:
319,21,41389,6,0,P|346:24|372:32,2,55
274,84,41767,1,0,0:0:0:0:
210,40,41893,2,0,P|165:32|84:15,1,110,8|0,0:0|0:0,0:0:0:0:
40,65,42271,1,0,0:0:0:0:
99,113,42397,6,0,P|131:161|144:230,2,110,2|0|0,0:2|0:0|0:0,0:0:0:0:
29,148,43028,1,0,0:0:0:0:
6,221,43154,2,0,P|15:241|51:261,1,55,2|0,0:2|0:0,0:0:0:0:
98,311,43406,6,0,P|96:345|92:374,1,55,2|0,0:2|0:0,0:0:0:0:
170,377,43658,2,0,P|173:349|174:322,1,55,0|2,0:0|0:2,0:0:0:0:
149,248,43910,1,0,0:0:0:0:
149,248,44414,6,0,P|163:186|190:122,1,110,4|0,0:0|0:0,0:0:0:0:
353,100,44918,2,0,P|337:78|312:65,1,55,8|0,0:0|0:0,0:0:0:0:
284,136,45171,1,0,0:0:0:0:
374,260,45423,6,0,P|391:279|430:288,2,55,0|0|2,0:0|0:0|0:2,0:0:0:0:
436,214,45801,1,0,0:0:0:0:
364,185,45927,2,0,P|304:194|245:198,1,110,8|0,0:0|0:0,0:0:0:0:
202,140,46305,1,0,0:0:0:0:
144,191,46431,6,0,P|130:215|120:260,1,55
59,287,46683,2,0,P|29:276|10:239,1,55
56,192,46935,2,0,P|42:151|9:89,1,110,8|0,0:0|0:0,0:0:0:0:
59,31,47313,1,0,0:0:0:0:
128,63,47439,6,0,P|141:33|148:7,2,55,0|0|2,0:0|0:0|0:2,0:0:0:0:
178,122,47818,1,0,0:0:0:0:
243,81,47944,2,0,P|303:66|368:41,1,110,2|0,0:0|0:0,0:0:0:0:
413,91,48322,1,0,0:0:0:0:
467,36,48448,6,0,P|451:77|426:264,1,220,4|8,0:0|0:0,0:0:0:0:
293,331,49204,2,0,P|259:340|220:351,1,55,2|0,0:2|0:0,0:1:0:0:
174,303,49456,6,0,P|111:280|103:227,2,110,0|0|8,0:0|0:0|0:0,0:0:0:0:
288,200,50213,1,0,0:0:0:0:
223,60,50465,6,0,P|174:43|162:34,1,55
101,9,50717,2,0,P|76:24|64:53,1,55
12,103,50969,2,0,P|30:144|49:215,1,110,8|0,0:0|0:0,0:0:0:0:
12,276,51347,1,0,0:0:0:0:
76,317,51473,6,0,P|69:340|57:379,2,55
146,284,51851,1,0,0:0:0:0:
207,330,51977,2,0,P|242:313|275:305,1,55,8|0,0:0|0:0,0:0:0:0:
302,245,52229,1,0,0:0:0:0:
288,91,52481,6,0,P|195:74|70:40,1,220,2|8,0:2|0:0,0:0:0:0:
135,183,53238,2,0,P|155:214|164:244,1,55,2|0,0:2|0:0,0:0:0:0:
223,276,53490,6,0,P|275:244|295:184,2,110,0|0|8,0:0|0:0|0:0,0:0:0:0:
81,339,54246,1,2,0:0:0:0:
234,354,54498,6,0,P|270:361|303:369,1,55
352,322,54750,2,0,P|376:312|416:292,1,55
479,302,55002,2,0,P|489:245|505:176,1,110,8|0,0:0|0:0,0:0:0:0:
432,156,55381,6,0,P|418:111|392:42,1,110
320,33,55759,2,0,P|289:57|275:92,1,55
229,128,56011,2,0,P|255:155|267:179,2,55,8|0|0,0:0|0:0|0:0,0:0:0:0:
162,88,56389,1,0,0:0:0:0:
108,143,56515,6,0,P|83:241|45:361,1,220,2|8,0:2|0:0,0:0:0:0:
196,313,57271,2,0,P|232:297|270:297,1,55,2|0,0:2|0:0,0:0:0:0:
302,240,57523,6,0,P|356:262|420:297,2,110,0|0|8,0:0|0:0|0:0,0:0:0:0:
189,133,58280,1,2,0:1:0:0:
318,50,58532,6,0,P|343:30|433:9,1,110
485,45,58910,1,0,0:0:0:0:
432,101,59036,2,0,P|411:134|388:217,1,110,8|0,0:0|0:0,0:0:0:0:
330,251,59414,6,0,P|327:291|385:335,1,110
448,306,59792,2,0,P|471:269|468:251,1,55
414,205,60045,1,8,0:0:0:0:
475,158,60171,2,0,P|489:123|502:94,2,55
403,127,60549,6,0,P|291:94|180:71,1,220,2|8,0:2|0:0,0:0:0:0:
39,35,61305,2,2,P|62:63|85:93,1,55,2|0,0:0|0:0,0:0:0:0:
132,127,61557,6,0,P|114:171|97:252,2,110,0|0|8,0:0|0:0|0:0,0:0:0:0:
190,72,62187,1,0,0:0:0:0:
259,105,62313,2,0,P|297:90|330:79,1,55
381,115,62565,6,0,P|402:56|424:11,2,110,2|0|10,0:2|0:2|0:2,0:0:0:0:
471,240,63322,1,0,0:2:0:0:
332,172,63574,6,0,P|288:178|209:197,1,110,2|0,0:2|0:0,0:0:0:0:
154,159,63952,1,0,0:0:0:0:
99,213,64078,2,0,P|112:243|125:280,1,55,8|0,0:0|0:0,0:0:0:0:
64,318,64330,1,0,0:0:0:0:
207,374,64582,6,0,P|228:314|251:261,1,110,6|0,0:0|0:0,0:0:0:0:
300,215,64960,1,0,0:0:0:0:
255,152,65087,2,0,P|231:160|184:173,1,55,10|0,0:0|0:0,0:0:0:0:
138,123,65339,1,0,0:0:0:0:
138,123,65465,1,0,0:0:0:0:
138,123,65591,6,0,P|155:52|163:7,1,110,2|0,0:0|0:0,0:0:0:0:
238,26,65969,1,0,0:0:0:0:
290,82,66095,2,0,P|327:69|360:55,1,55,10|0,0:0|0:0,0:0:0:0:
415,33,66347,1,0,0:0:0:0:
415,33,66473,1,0,0:0:0:0:
415,33,66599,6,0,P|447:78|472:151,1,110,2|0,0:0|0:0,0:0:0:0:
423,193,66977,1,0,0:0:0:0:
477,246,67103,2,0,P|472:274|468:302,1,55,10|0,0:0|0:0,0:0:0:0:
400,338,67355,2,0,P|373:329|334:320,1,55
275,292,67608,6,0,P|267:263|254:232,1,55,2|0,0:0|0:0,0:0:0:0:
185,212,67860,2,0,P|158:219|125:237,1,55
82,289,68112,1,2,2:2:0:0:
356,276,68616,6,0,P|343:215|333:158,1,110,2|0,0:0|0:0,0:0:0:0:
396,121,68994,1,0,0:0:0:0:
338,69,69120,2,0,P|299:58|268:46,1,55,10|0,0:0|0:0,0:0:0:0:
228,103,69372,1,0,0:0:0:0:
228,103,69498,1,0,0:0:0:0:
228,103,69624,6,0,P|176:127|120:170,1,110,2|0,0:0|0:0,0:0:0:0:
58,135,70002,1,0,0:0:0:0:
24,204,70129,2,0,P|47:232|54:257,1,55,10|0,0:0|0:0,0:0:0:0:
118,307,70381,1,0,0:0:0:0:
118,307,70507,1,0,0:0:0:0:
118,307,70633,6,0,P|180:323|241:341,2,110,2|2|8,2:2|2:2|0:0,0:0:0:0:
58,356,71263,1,0,0:0:0:0:
22,287,71389,2,0,P|27:255|32:223,1,55
91,184,71641,6,0,P|141:171|174:120,1,110,2|0,0:2|0:0,0:0:0:0:
134,57,72019,1,0,0:0:0:0:
200,18,72145,2,0,P|230:30|269:40,2,55,10|0|0,0:0|0:0|0:0,0:0:0:0:
291,142,72650,6,0,P|317:187|341:255,1,110,6|0,0:0|0:0,0:0:0:0:
386,301,73028,1,0,0:0:0:0:
446,253,73154,2,0,P|462:221|473:202,1,55,10|0,0:0|0:0,0:0:0:0:
422,144,73406,1,0,0:0:0:0:
422,144,73532,1,0,0:0:0:0:
422,144,73658,6,0,P|436:79|460:31,1,110,2|0,0:0|0:0,0:0:0:0:
382,11,74036,1,0,0:0:0:0:
327,65,74162,2,0,P|294:75|273:95,1,55,10|0,0:0|0:0,0:0:0:0:
204,65,74414,1,0,0:0:0:0:
204,65,74540,1,0,0:0:0:0:
204,65,74666,6,0,P|166:85|104:121,1,110,2|0,0:0|0:0,0:0:0:0:
35,90,75044,1,0,0:0:0:0:
32,166,75171,2,0,P|23:188|12:228,1,55,10|0,0:0|0:0,0:0:0:0:
71,270,75423,2,0,P|111:263|128:258,1,55
194,224,75675,6,0,P|197:200|178:170,1,55,2|0,0:0|0:0,0:0:0:0:
237,118,75927,2,0,P|269:123|293:136,1,55
334,196,76179,1,2,2:2:0:0:
446,239,76683,6,0,P|468:292|479:345,1,110,2|0,0:0|0:0,0:0:0:0:
405,367,77061,1,0,0:0:0:0:
340,325,77187,2,0,P|324:307|325:265,1,55,10|0,0:0|0:0,0:0:0:0:
343,203,77439,1,0,0:0:0:0:
343,203,77565,1,0,0:0:0:0:
343,203,77692,6,0,P|299:191|210:186,1,110,2|0,0:0|0:0,0:0:0:0:
175,134,78070,1,0,0:0:0:0:
247,107,78196,2,0,P|261:74|266:40,1,55,10|0,0:0|0:0,0:0:0:0:
191,30,78448,1,0,0:0:0:0:
191,30,78574,1,0,0:0:0:0:
191,30,78700,6,0,P|138:40|63:56,2,110,2|0|8,0:2|0:0|0:0,0:0:0:0:
264,55,79330,1,0,0:0:0:0:
206,105,79456,2,0,P|195:130|188:172,1,55
132,209,79708,6,0,P|161:250|192:317,1,110,2|0,0:2|0:0,0:0:0:0:
262,320,80087,1,0,0:0:0:0:
326,278,80213,2,0,P|351:268|388:260,1,55,2|0,0:0|0:0,0:0:0:0:
423,199,80465,1,0,0:0:0:0:
423,199,80591,1,0,0:0:0:0:
423,199,80717,5,4,0:0:0:0:
423,199,88784,6,0,P|374:172|310:154,2,110,4|0|8,0:0|0:0|0:0,0:0:0:0:
491,161,89414,1,0,0:2:0:0:
434,108,89540,2,0,P|456:85|468:50,1,55
390,41,89792,6,0,P|334:38|268:35,1,110
239,101,90171,1,0,0:0:0:0:
162,93,90297,2,0,P|159:124|158:152,1,55,8|0,0:0|0:0,0:0:0:0:
191,218,90549,1,0,0:0:0:0:
128,263,90675,6,0,P|92:264|32:208,2,110,2|2|0,0:2|0:2|0:0,0:0:0:0:
199,293,91305,2,0,P|222:319|234:348,1,55,8|0,0:0|0:0,0:0:0:0:
306,353,91557,2,0,P|338:327|339:295,1,55
296,251,91809,5,0,0:0:0:0:
437,189,92061,2,0,P|447:155|450:131,1,55
493,71,92313,1,8,0:0:0:0:
428,28,92439,2,0,P|378:47|303:65,1,110
266,113,92818,6,0,P|205:97|167:50,1,110
100,37,93196,1,8,0:2:0:0:
58,101,93322,2,0,P|70:130|81:168,1,55,8|0,0:0|0:0,0:0:0:0:
154,157,93574,1,2,0:2:0:0:
55,275,93826,6,0,P|111:288|176:305,2,110,2|0|8,0:2|0:0|0:0,0:0:0:0:
8,213,94456,1,0,0:0:0:0:
65,161,94582,2,0,P|95:167|132:186,1,55
179,222,94834,5,2,0:2:0:0:
316,153,95087,1,0,0:0:0:0:
186,70,95339,2,0,P|157:53|135:33,1,55,8|0,0:0|0:0,0:0:0:0:
63,47,95591,2,0,P|44:61|39:95,1,55
98,139,95843,5,0,0:2:0:0:
28,276,96095,1,0,0:0:0:0:
174,322,96347,2,0,B|216:337|235:360|235:360|227:321|251:266,1,165,2|0,0:0|0:0,0:0:0:0:
320,238,96851,5,4,0:0:0:0:
276,174,96977,2,0,P|246:167|203:153,1,55
257,90,97229,2,0,P|327:76|386:65,1,110,0|0,0:2|0:0,0:0:0:0:
432,106,97608,1,0,0:0:0:0:
384,166,97734,6,0,P|369:201|364:235,1,55,2|0,0:2|0:0,0:0:0:0:
413,278,97986,2,0,P|439:298|453:324,2,55,2|0|0,0:2|0:0|0:0,0:0:0:0:
339,302,98364,1,8,0:0:0:0:
284,247,98490,2,0,P|236:230|216:179,1,110
151,134,98868,6,0,P|100:147|70:207,1,110,2|0,0:2|0:0,0:0:0:0:
103,264,99246,1,0,0:0:0:0:
172,297,99372,2,0,P|241:274|300:270,1,110,8|0,0:0|0:0,0:0:0:0:
343,310,99750,1,0,0:0:0:0:
398,256,99876,6,0,P|413:228|424:197,1,55
378,141,100129,2,0,P|362:88|300:49,1,110,2|8,0:2|0:0,0:0:0:0:
256,10,100507,2,0,P|240:41|249:78,1,55
127,165,100885,6,0,P|106:144|84:125,2,55,2|0|0,0:2|0:0|0:0,0:0:0:0:
202,182,101263,1,0,0:0:0:0:
152,240,101389,2,0,P|124:295|122:362,1,110,8|0,0:0|0:0,0:0:0:0:
188,377,101767,1,0,0:0:0:0:
236,317,101893,6,0,P|270:308|296:288,2,55,0|0|2,0:0|0:0|0:2,0:0:0:0:
188,169,102397,1,8,0:0:0:0:
118,203,102523,2,0,P|64:163|61:99,1,110
15,57,102902,6,0,P|53:44|76:32,1,55
137,68,103154,2,0,P|165:76|202:95,1,55
261,59,103406,2,0,P|285:40|312:27,2,55,8|0|0,0:0|0:0|0:0,0:0:0:0:
256,136,103784,1,0,0:0:0:0:
325,169,103910,6,0,P|335:200|345:237,2,55
384,119,104288,1,0,0:0:0:0:
446,164,104414,2,0,P|481:176|521:188,1,55,10|0,0:0|0:0,0:0:0:0:
503,258,104666,2,0,P|485:283|476:321,1,55,2|0,0:0|0:0,0:0:0:0:
412,347,104918,5,4,0:0:0:0:
412,347,105423,2,0,P|378:342|339:324,1,55,8|0,0:0|0:0,0:0:0:0:
306,277,105675,2,0,P|281:285|236:308,1,55,2|0,0:2|0:0,0:0:0:0:
186,334,105927,6,0,P|137:320|78:299,1,110
41,150,106431,2,0,P|49:112|67:78,1,55,8|0,0:0|0:0,0:0:0:0:
97,32,106683,2,0,P|127:25|162:18,1,55
223,47,106935,6,0,P|245:98|262:161,1,110,2|0,0:2|0:0,0:0:0:0:
322,196,107313,1,0,0:0:0:0:
252,228,107439,2,0,P|226:242|186:267,2,55,8|0|0,0:0|0:0|0:0,0:0:0:0:
313,274,107818,1,0,0:0:0:0:
384,245,107944,6,0,P|436:232|500:221,2,110,2|0|8,0:2|0:0|0:0,0:0:0:0:
322,196,108574,1,2,0:2:0:0:
374,139,108700,2,0,P|389:113|401:88,1,55
352,28,108952,6,0,P|302:38|231:59,1,110
173,25,109330,1,0,0:0:0:0:
114,75,109456,2,0,P|97:117|73:187,1,110,8|0,0:0|0:0,0:0:0:0:
130,233,109834,1,0,0:0:0:0:
100,303,109960,6,0,P|58:325|3:379,2,110,0|0|8,0:0|0:0|0:0,0:0:0:0:
253,282,110717,2,0,P|218:268|193:256,1,55
130,233,110969,6,0,P|114:209|123:166,1,55
65,122,111221,2,0,P|97:91|115:72,1,55
160,30,111473,2,0,P|208:49|282:62,1,110,2|0,0:2|0:0,0:0:0:0:
326,107,111851,1,0,0:0:0:0:
380,52,111977,6,0,P|430:22|498:15,2,110,0|0|2,0:2|0:0|0:0,0:0:0:0:
326,107,112608,1,0,0:0:0:0:
377,164,112734,2,0,P|384:194|391:227,1,55,2|0,0:0|0:0,0:0:0:0:
369,292,112986,6,0,B|312:308|254:271|293:235|237:196|179:212,1,220,4|8,0:0|0:0,0:0:0:0:
53,126,113742,2,0,P|33:151|30:184,1,55,2|0,0:2|0:0,0:1:0:0:
17,249,113994,6,0,P|50:295|76:344,2,110,0|0|8,0:0|0:0|0:0,0:0:0:0:
129,142,114750,1,0,0:0:0:0:
33,21,115002,6,0,P|56:32|104:44,1,55
155,71,115255,2,0,P|186:55|211:45,1,55
274,80,115507,2,0,P|330:104|366:163,1,110,8|0,0:0|0:0,0:0:0:0:
436,145,115885,1,0,0:0:0:0:
397,211,116011,6,0,P|385:236|389:275,1,55
335,322,116263,2,0,P|313:304|284:296,1,55
218,261,116515,2,0,P|195:273|166:301,2,55,8|0|0,0:0|0:0|0:0,0:0:0:0:
101,159,117019,6,0,B|158:175|216:138|177:102|233:63|291:79,1,220,2|8,0:2|0:0,0:0:0:0:
420,156,117776,2,0,P|441:181|458:211,1,55,2|0,0:2|0:0,0:1:0:0:
417,269,118028,6,0,P|369:274|320:329,2,110,0|0|8,0:0|0:0|0:0,0:0:0:0:
315,152,118784,1,0,0:0:0:0:
426,45,119036,6,0,P|455:57|483:82,1,55
453,146,119288,2,0,P|436:167|414:205,1,55
417,269,119540,2,0,P|440:320|445:381,1,110,8|0,0:0|0:0,0:0:0:0:
368,364,119918,6,0,P|316:354|271:315,1,110
215,265,120297,2,0,P|232:230|268:220,1,55
308,178,120549,2,0,P|304:152|294:124,2,55,8|0|0,0:0|0:0|0:0,0:0:0:0:
378,210,120927,1,0,0:0:0:0:
338,276,121053,6,0,B|281:292|223:255|262:219|206:180|148:196,1,220,2|8,0:2|0:0,0:0:0:0:
39,88,121809,2,0,P|82:74|99:69,1,55,2|0,0:2|0:0,0:0:0:0:
146,16,122061,6,0,P|198:32|271:61,2,110,0|0|8,0:0|0:0|0:0,0:0:0:0:
82,156,122818,1,2,0:0:0:0:
235,142,123070,6,0,P|290:119|347:99,1,110
404,140,123448,1,0,0:0:0:0:
420,215,123574,2,0,P|394:263|382:336,1,110,8|0,0:0|0:0,0:0:0:0:
310,344,123952,6,0,P|260:329|245:278,1,110
275,206,124330,2,0,P|253:196|201:179,1,55
148,204,124582,2,0,P|123:224|96:251,2,55,8|0|0,0:0|0:0|0:0,0:0:0:0:
124,129,124960,1,0,0:0:0:0:
48,112,125087,6,0,B|105:128|163:91|124:55|180:16|238:32,1,220,2|8,0:2|0:0,0:0:0:0:
337,147,125843,2,2,P|358:177|373:202,1,55,2|0,0:0|0:0,0:0:0:0:
444,199,126095,6,0,P|453:149|474:78,2,110,0|0|8,0:0|0:0|0:0,0:0:0:0:
400,262,126725,1,0,0:0:0:0:
466,300,126851,2,0,P|487:322|491:367,1,55
417,358,127103,6,0,P|362:345|306:336,2,110,2|0|8,0:2|0:0|0:0,0:0:0:0:
458,209,127860,1,0,0:2:0:0:
313,261,128112,6,0,P|238:226|212:191,1,110,2|0,0:2|0:0,0:0:0:0:
243,132,128490,1,0,0:0:0:0:
194,71,128616,2,0,P|165:84|134:107,1,55,8|0,0:0|0:0,0:0:0:0:
100,159,128868,1,0,0:0:0:0:
19,290,129120,6,0,P|78:302|142:328,1,110,6|0,0:0|0:0,0:0:0:0:
190,278,129498,1,0,0:0:0:0:
250,325,129624,2,0,P|277:343|294:364,1,55,10|0,0:0|0:0,0:0:0:0:
372,342,129876,1,0,0:0:0:0:
372,342,130002,1,0,0:0:0:0:
372,342,130129,6,0,P|385:296|419:227,1,110,2|0,0:0|0:0,0:0:0:0:
458,177,130507,1,0,0:0:0:0:
416,112,130633,2,0,P|385:104|353:94,1,55,10|0,0:0|0:0,0:0:0:0:
299,54,130885,1,0,0:0:0:0:
299,54,131011,1,0,0:0:0:0:
299,54,131137,6,0,P|245:67|189:78,1,110,2|0,0:0|0:0,0:0:0:0:
139,134,131515,1,0,0:0:0:0:
190,191,131641,2,0,P|208:206|227:248,1,55,10|0,0:0|0:0,0:0:0:0:
287,276,131893,2,0,P|271:304|258:331,1,55
192,360,132145,6,0,P|164:347|140:337,1,55,2|0,0:0|0:0,0:0:0:0:
64,347,132397,2,0,P|47:314|54:277,1,55
97,237,132650,1,2,2:2:0:0:
182,126,133154,6,0,P|234:99|282:82,1,110,2|0,0:0|0:0,0:0:0:0:
347,39,133532,1,0,0:0:0:0:
410,83,133658,2,0,P|431:92|463:126,1,55,10|0,0:0|0:0,0:0:0:0:
434,193,133910,1,0,0:0:0:0:
434,193,134036,1,0,0:0:0:0:
434,193,134162,6,0,P|412:247|399:311,1,110,2|0,0:0|0:0,0:0:0:0:
454,352,134540,1,0,0:0:0:0:
378,369,134666,2,0,P|345:351|329:328,1,55,10|0,0:0|0:0,0:0:0:0:
266,300,134918,1,0,0:0:0:0:
266,300,135044,1,0,0:0:0:0:
266,300,135171,6,0,P|217:313|142:342,2,110,2|2|8,2:2|2:0|0:0,0:0:0:0:
299,230,135801,1,0,0:0:0:0:
239,181,135927,2,0,P|202:172|174:163,1,55
147,99,136179,6,0,P|89:117|27:140,1,110,2|0,0:2|0:0,0:0:0:0:
33,210,136557,1,0,0:0:0:0:
100,246,136683,2,0,P|92:272|82:307,2,55,10|0|0,0:0|0:0|0:0,0:0:0:0:
220,343,137187,6,0,B|272:317|272:317|278:260,1,110,6|0,0:0|0:0,0:0:0:0:
235,201,137565,1,0,0:0:0:0:
301,162,137692,2,0,P|326:171|357:180,1,55,10|0,0:0|0:0,0:0:0:0:
431,155,137944,1,0,0:0:0:0:
431,155,138070,1,0,0:0:0:0:
431,155,138196,6,0,P|442:104|458:36,1,110,2|0,0:0|0:0,0:0:0:0:
385,14,138574,1,0,0:0:0:0:
327,64,138700,2,0,P|292:51|254:29,1,55,10|0,0:0|0:0,0:0:0:0:
203,70,138952,1,0,0:0:0:0:
203,70,139078,1,0,0:0:0:0:
203,70,139204,6,0,P|236:126|259:191,1,110,2|0,0:0|0:0,0:0:0:0:
296,231,139582,1,0,0:0:0:0:
252,294,139708,2,0,P|230:301|200:330,1,55,10|0,0:0|0:0,0:0:0:0:
133,350,139960,2,0,P|102:337|80:307,1,55
24,276,140213,6,0,P|39:238|41:200,1,55,2|0,0:0|0:0,0:0:0:0:
97,171,140465,2,0,P|74:140|64:127,1,55
17,65,140717,1,2,2:2:0:0:
176,165,141221,6,6,B|233:181|291:144|252:108|308:69|366:85,4,220,6|2|2|2|2,0:0|0:0|0:0|0:0|2:0,0:0:0:0:
116,214,143364,5,2,2:0:0:0:
180,256,143490,2,0,P|202:283|217:315,1,55,2|0,2:0|2:1,2:0:0:0:
206,378,143742,2,0,P|265:358|286:308,1,110,2|0,2:0|2:0,0:0:0:0:
365,186,144246,2,0,P|425:197|458:239,1,110,2|2,2:1|2:0,0:0:0:0:
486,303,144624,2,0,P|440:319|374:359,1,110,2|0,2:0|2:0,2:0:0:0:
353,279,145002,1,2,0:0:0:0:
212,216,145255,5,4,0:0:0:0:
