osu file format v14

[General]
AudioFilename: Dio ft. Sef - Aye.mp3
AudioLeadIn: 0
PreviewTime: 64560
Countdown: 1
SampleSet: Normal
StackLeniency: 0.3
Mode: 0
LetterboxInBreaks: 1
SkinPreference:Default
WidescreenStoryboard: 1

[Editor]
Bookmarks: 16207,48433,64560,88813,112975
DistanceSpacing: 1.3
BeatDivisor: 4
GridSize: 8
TimelineZoom: 2.899999

[Metadata]
Title:Aye
TitleUnicode:Aye
Artist:Dio feat. Sef
ArtistUnicode:Dio feat. Sef
Creator:AJT
Version:Aranel's Hard
Source:
Tags:dutch nederlands hip hop lesjuh down aranel
BeatmapID:3310799
BeatmapSetID:1621130

[Difficulty]
HPDrainRate:4
CircleSize:4
OverallDifficulty:7
ApproachRate:7.6
SliderMultiplier:2.2
SliderTickRate:2

[Events]
//Background and Video events
0,0,"bg.jpeg",0,0
Video,225,"video.mp4"
//Break Periods
2,38438,39571
2,80917,87974
2,111043,112176
//Storyboard Layer 0 (Background)
//Storyboard Layer 1 (Fail)
//Storyboard Layer 2 (Pass)
//Storyboard Layer 3 (Foreground)
//Storyboard Layer 4 (Overlay)
//Storyboard Sound Samples

[TimingPoints]
45,504.201680672269,4,1,2,50,1,0
33749,-100,4,1,2,50,0,0
33875,-100,4,1,2,50,0,0
35765,-100,4,1,2,50,0,0
35891,-100,4,1,2,50,0,0
61720,-100,4,1,2,5,0,0
61783,-100,4,1,2,50,0,0
64582,-100,4,1,2,60,0,1
68112,-100,4,1,2,60,0,0
68616,-100,4,1,2,60,0,1
70633,-100,4,1,2,60,0,0
71137,-100,4,1,2,60,0,1
76179,-100,4,1,2,60,0,0
76683,-100,4,1,2,60,0,1
80717,-100,4,1,2,50,0,0
93219,-100,4,1,2,50,0,0
93251,-100,4,1,2,50,0,0
93345,-100,4,1,2,50,0,0
93377,-100,4,1,2,50,0,0
126231,-100,4,1,2,5,0,0
126294,-100,4,1,2,50,0,0
129120,-90.9090909090909,4,1,2,60,0,1
132650,-100,4,1,2,60,0,0
133154,-90.9090909090909,4,1,2,60,0,1
135171,-100,4,1,2,60,0,0
135675,-90.9090909090909,4,1,2,60,0,1
137187,-90.9090909090909,4,1,2,60,0,1
140717,-100,4,1,2,60,0,0
141221,-133.333333333333,4,1,2,60,0,1
145255,-100,4,1,2,60,0,0

[HitObjects]
47,353,16179,6,0,P|112:330|189:321,1,110,4|0,0:0|0:0,0:0:0:0:
225,344,16557,1,0,0:0:0:0:
225,344,16683,1,8,0:0:0:0:
363,300,16935,1,0,0:0:0:0:
363,300,17061,2,0,P|425:319|517:326,2,110,2|2|0,0:2|0:2|0:0,0:0:0:0:
313,247,17691,1,8,0:0:0:0:
383,122,17943,1,0,0:0:0:0:
271,33,18195,6,0,B|218:43|218:43|214:47|214:47|154:59,1,110
96,59,18573,1,0,0:0:0:0:
96,59,18699,2,0,P|86:125|72:202,1,110,8|0,0:0|0:0,0:0:0:0:
124,222,19077,2,0,P|133:290|148:365,1,110,2|0,0:2|0:0,0:0:0:0:
341,253,19708,6,0,P|313:248|279:238,2,55,8|0|0,0:0|0:0|0:0,0:0:0:0:
411,239,20087,2,0,P|412:176|444:114,2,110
450,299,20717,1,8,0:0:0:0:
324,369,20969,5,0,0:0:0:0:
324,369,21095,2,0,B|266:388|276:342|212:358,1,110,2|0,0:2|0:0,0:0:0:0:
149,377,21473,2,0,L|72:386,1,55
28,355,21725,1,8,0:0:0:0:
112,239,21977,1,0,0:0:0:0:
112,239,22103,2,0,L|0:218,1,110,2|2,0:2|0:2,0:0:0:0:
58,88,22608,5,0,0:0:0:0:
58,88,22734,1,8,0:0:0:0:
191,138,22986,1,0,0:0:0:0:
191,138,23112,2,0,L|303:117,1,110,2|0,0:2|0:0,0:0:0:0:
478,71,23742,6,0,B|488:-14,2,55,8|0|0,0:0|0:0|0:0,0:0:0:0:
425,120,24120,1,0,0:0:0:0:
425,120,24246,2,0,P|431:180|475:230,1,110,4|0,0:0|0:0,0:0:0:0:
346,306,24750,6,0,P|372:310|393:328,2,55,8|0|0,0:0|0:0|0:0,0:0:0:0:
283,281,25129,1,0,0:0:0:0:
283,281,25255,2,0,B|232:288|232:288|231:292|231:292|177:299,1,110,2|0,0:2|0:0,0:0:0:0:
108,306,25633,1,0,0:0:0:0:
108,306,25759,1,8,0:0:0:0:
146,168,26011,1,0,0:0:0:0:
53,59,26263,6,0,B|103:66|103:66|104:70|104:70|158:77,1,110
227,53,26641,1,0,0:0:0:0:
227,53,26767,2,0,L|214:-23,2,55,8|0|0,0:0|0:0|0:0,0:0:0:0:
296,85,27145,1,0,0:0:0:0:
296,85,27271,1,2,0:2:0:0:
416,8,27523,1,0,0:0:0:0:
510,114,27776,2,0,P|497:150|488:190,1,55,8|0,0:0|0:0,0:0:0:0:
494,238,28028,2,0,P|460:244|412:257,1,55
382,293,28280,6,0,P|330:274|277:260,1,110
208,262,28658,1,0,0:0:0:0:
208,262,28784,2,0,P|204:232|189:185,1,55,8|0,0:0|0:0,0:0:0:0:
168,142,29036,1,0,0:0:0:0:
30,103,29288,2,0,P|23:129|18:235,1,110,2|0,0:2|0:0,0:0:0:0:
89,335,29792,1,8,0:0:0:0:
89,335,30045,1,0,0:0:0:0:
208,262,30297,6,0,B|269:279|244:301|315:316,1,110
372,346,30675,1,0,0:0:0:0:
372,346,30801,2,0,L|439:340,1,55,8|0,0:0|0:0,0:0:0:0:
480,293,31053,2,0,P|479:265|466:236,1,55
419,187,31305,2,0,B|362:142|407:14|476:18,1,220,2|8,0:2|0:0,0:0:0:0:
476,18,32313,6,0,P|414:33|366:34,1,110,4|0,0:0|0:0,0:0:0:0:
308,72,32692,1,0,0:0:0:0:
308,72,32818,2,0,P|232:34|197:35,1,110,8|0,0:0|0:0,0:0:0:0:
141,51,33196,1,0,0:0:0:0:
141,51,33322,2,0,P|131:25|119:0,2,55
187,105,33700,2,0,P|160:155|147:219,1,110,2|0,0:2|0:0,0:0:0:0:
188,263,34078,2,0,P|198:290|203:317,1,55
150,365,34330,6,0,B|101:356|101:356|98:350|98:350|46:337,2,110,0|0|8,0:0|0:0|0:0,0:0:0:0:
287,322,35087,2,0,L|376:310,1,55
403,350,35339,2,0,P|386:267|425:194,1,165
483,70,35969,2,0,P|511:78|539:97,2,55
420,34,36347,6,0,P|366:57|301:58,1,110
248,48,36725,1,0,0:0:0:0:
248,48,36851,2,0,P|228:99|192:140,1,110,8|0,0:0|0:0,0:0:0:0:
133,180,37229,1,0,0:0:0:0:
133,180,37355,2,0,L|150:269,1,55
196,282,37608,2,0,L|179:371,1,55
123,372,37860,1,8,0:0:0:0:
23,313,38112,2,0,L|6:224,1,55
54,43,40381,6,0,L|112:55,1,55,4|0,0:0|0:0,0:0:0:0:
162,100,40633,2,0,L|220:88,1,55
271,42,40885,2,0,B|322:49|322:49|324:52|324:52|383:61,1,110,8|0,0:0|0:0,0:0:0:0:
495,142,41389,2,0,P|496:101|477:65,2,82.5
465,207,41893,1,8,0:0:0:0:
339,274,42145,2,0,P|307:269|268:265,1,55
225,225,42397,6,0,P|168:240|102:249,1,110,2|0,0:2|0:0,0:0:0:0:
12,149,42902,2,0,P|18:181|21:215,3,55,0|0|2|0,0:0|0:0|0:2|0:0,0:0:0:0:
48,269,43406,2,0,P|31:309|19:363,2,82.5,2|0|2,0:2|0:0|0:2,0:0:0:0:
117,247,43910,1,0,0:0:0:0:
382,352,44414,6,0,P|351:307|356:253,1,110,4|0,0:0|0:0,0:0:0:0:
456,151,44918,2,0,P|472:124|469:86,1,55,8|0,0:0|0:0,0:0:0:0:
432,41,45171,1,0,0:0:0:0:
293,77,45423,2,0,B|254:68|254:68|249:71|249:71|212:62,2,82.5
345,126,45927,1,8,0:0:0:0:
253,235,46179,2,0,L|182:251,1,55
138,285,46431,6,0,L|64:192,1,110
5,157,46809,1,0,0:0:0:0:
5,157,46935,2,0,L|98:83,1,110,8|0,0:0|0:0,0:0:0:0:
147,43,47313,1,0,0:0:0:0:
147,43,47439,2,0,B|222:12|267:127|350:95,1,220,0|2,0:0|0:0,0:0:0:0:
350,94,48448,6,0,B|429:75|429:75|475:160,1,165,4|0,0:0|0:0,0:0:0:0:
503,211,48952,1,8,0:0:0:0:
431,332,49204,2,0,P|399:343|357:344,1,55,2|0,0:2|0:0,0:1:0:0:
320,301,49456,2,0,B|309:238|347:250|335:184,2,110,0|0|8,0:0|0:0|0:0,0:0:0:0:
195,370,50213,2,2,B|132:380|144:342|78:354,1,110,0|0,0:0|0:0,0:1:0:0:
26,326,50591,5,0,0:0:0:0:
26,326,50717,2,0,L|12:255,1,55
74,230,50969,2,0,L|102:112,1,110,8|0,0:0|0:0,0:0:0:0:
105,54,51347,1,0,0:0:0:0:
105,54,51473,2,0,L|173:41,2,55
36,70,51851,1,0,0:0:0:0:
36,70,51977,2,0,L|10:177,1,110,8|0,0:0|0:0,0:0:0:0:
26,326,52481,6,0,B|108:350|99:302|202:322,1,165,2|0,0:2|0:0,0:0:0:0:
257,339,52986,1,8,0:0:0:0:
394,377,53238,2,0,P|395:343|386:315,1,55,2|0,0:2|0:0,0:0:0:0:
369,254,53490,2,0,B|425:243|425:243|431:245|431:245|476:235,2,110,0|0|8,0:0|0:0|0:0,0:0:0:0:
257,339,54246,2,2,B|201:328|201:328|195:330|195:330|149:320,1,110,2|0,0:0|0:0,0:1:0:0:
37,231,54750,6,0,L|50:160,1,55
33,105,55002,2,0,B|58:43|137:33|137:33,1,110,8|0,0:0|0:0,0:0:0:0:
185,21,55381,2,0,B|214:72|279:86|279:86,1,110
326,131,55759,2,0,P|352:125|380:120,1,55
443,87,56011,2,0,L|455:24,2,55,8|0|0,0:0|0:0|0:0,0:0:0:0:
483,153,56389,1,0,0:0:0:0:
483,153,56515,6,0,B|471:206|471:206|438:252|438:252|427:305,1,165,2|0,0:2|0:0,0:0:0:0:
416,376,57019,1,8,0:0:0:0:
283,320,57271,2,0,L|266:264,1,55,2|0,0:2|0:0,0:0:0:0:
237,201,57523,2,0,B|188:209|188:209|180:204|180:204|130:212,2,110,0|0|8,0:0|0:0|0:0,0:0:0:0:
353,117,58280,2,2,B|402:125|402:125|410:120|410:120|460:128,1,110,2|0,0:1|0:0,0:1:0:0:
378,9,58784,6,0,P|318:18|318:18,1,55
262,55,59036,2,0,P|263:86|251:125,2,55,8|0|0,0:0|0:0|0:0,0:0:0:0:
205,10,59414,2,0,P|136:1|94:30,1,110
52,70,59792,2,0,L|41:130,1,55
85,187,60045,1,8,0:0:0:0:
85,187,60171,2,0,L|139:195,2,55
21,219,60549,6,0,P|22:310|78:347,1,165,2|0,0:2|0:0,0:0:0:0:
149,341,61053,1,8,0:0:0:0:
257,248,61305,2,2,L|311:238,1,55,2|0,0:0|0:0,0:0:0:0:
377,277,61557,2,0,P|387:223|356:174,2,110,0|0|8,0:0|0:0|0:0,0:0:0:0:
316,315,62187,2,0,L|262:325,2,55
378,351,62566,5,2,0:2:0:0:
482,252,62818,1,0,0:2:0:0:
360,177,63070,1,10,0:2:0:0:
238,102,63322,1,0,0:2:0:0:
341,3,63574,2,0,P|396:11|448:29,1,110,2|0,0:2|0:0,0:0:0:0:
432,102,63952,1,0,0:0:0:0:
432,102,64078,2,0,P|380:83|325:75,1,110,8|0,0:0|0:0,0:0:0:0:
161,34,64582,6,0,L|173:107,3,55,6|0|0|0,0:0|0:0|0:0|0:0,0:0:0:0:
134,151,65087,2,0,L|144:216,3,55,10|0|0|0,0:0|0:0|0:0|0:0,0:0:0:0:
70,205,65591,2,0,L|61:150,3,55,2|0|0|0,0:0|0:0|0:0|0:0,0:0:0:0:
97,87,66095,2,0,L|88:32,3,55,10|0|0|0,0:0|0:0|0:0|0:0,0:0:0:0:
161,34,66599,2,0,L|169:88,3,55,2|0|0|0,0:0|0:0|0:0|0:0,0:0:0:0:
134,151,67103,2,0,L|142:205,3,55,10|0|0|0,0:0|0:0|0:0|0:0,0:0:0:0:
70,205,67608,2,0,L|61:150,3,55,2|0|0|0,0:0|0:0|0:0|0:0,0:0:0:0:
97,87,68112,1,2,2:2:0:0:
351,34,68616,6,0,L|339:107,3,55,2|0|0|0,0:0|0:0|0:0|0:0,0:0:0:0:
378,151,69120,2,0,L|368:216,3,55,10|0|0|0,0:0|0:0|0:0|0:0,0:0:0:0:
442,205,69624,2,0,L|450:150,3,55,2|0|0|0,0:0|0:0|0:0|0:0,0:0:0:0:
415,87,70129,2,0,L|423:32,3,55,10|0|0|0,0:0|0:0|0:0|0:0,0:0:0:0:
351,34,70633,5,2,2:2:0:0:
256,144,70885,1,2,2:0:0:0:
160,256,71137,1,8,0:0:0:0:
160,256,71263,2,0,L|145:326,2,55
144,183,71641,2,0,P|89:191|37:209,1,110,2|0,0:2|0:0,0:0:0:0:
54,283,72019,1,0,0:0:0:0:
54,283,72145,2,0,P|105:263|159:256,1,110,10|0,0:0|0:0,0:0:0:0:
307,316,72650,6,0,L|380:328,3,55,6|0|0|0,0:0|0:0|0:0|0:0,0:0:0:0:
423,289,73154,2,0,L|488:299,3,55,10|0|0|0,0:0|0:0|0:0|0:0,0:0:0:0:
478,225,73658,2,0,L|423:216,3,55,2|0|0|0,0:0|0:0|0:0|0:0,0:0:0:0:
360,252,74162,2,0,L|305:243,3,55,10|0|0|0,0:0|0:0|0:0|0:0,0:0:0:0:
307,316,74666,2,0,L|361:324,3,55,2|0|0|0,0:0|0:0|0:0|0:0,0:0:0:0:
423,289,75171,2,0,L|477:297,3,55,10|0|0|0,0:0|0:0|0:0|0:0,0:0:0:0:
478,225,75675,2,0,L|423:216,3,55,2|0|0|0,0:0|0:0|0:0|0:0,0:0:0:0:
360,252,76179,1,2,2:2:0:0:
205,316,76683,6,0,L|132:328,3,55,2|0|0|0,0:0|0:0|0:0|0:0,0:0:0:0:
89,289,77187,2,0,L|23:299,3,55,10|0|0|0,0:0|0:0|0:0|0:0,0:0:0:0:
34,225,77692,2,0,L|88:216,3,55,2|0|0|0,0:0|0:0|0:0|0:0,0:0:0:0:
152,252,78196,2,0,L|206:243,3,55,10|0|0|0,0:0|0:0|0:0|0:0,0:0:0:0:
256,192,78700,5,2,0:2:0:0:
360,96,78952,1,0,0:0:0:0:
256,0,79204,1,8,0:0:0:0:
152,96,79456,1,0,0:0:0:0:
256,192,79708,1,2,0:2:0:0:
256,376,80087,5,0,0:0:0:0:
256,376,80213,2,0,L|256:256,1,110,2|0,0:0|0:0,0:0:0:0:
256,192,80591,1,0,0:0:0:0:
256,192,80717,5,4,0:0:0:0:
427,35,88784,6,0,L|449:164,1,110,4|0,0:0|0:0,0:0:0:0:
500,278,89288,1,8,0:0:0:0:
500,278,89414,2,0,P|447:252|392:254,1,110,0|0,0:2|0:0,0:0:0:0:
335,289,89792,2,0,L|206:311,1,110
163,350,90171,1,0,0:0:0:0:
163,350,90297,6,0,L|45:338,1,110,8|0,0:0|0:0,0:0:0:0:
1,289,90675,1,2,0:2:0:0:
114,202,90927,1,2,0:2:0:0:
0,116,91179,1,0,0:0:0:0:
128,54,91431,2,0,L|121:-2,2,55
171,111,91809,2,0,B|215:152|274:127,1,110
320,74,92187,6,0,B|321:42|336:16|336:16,1,55,0|8,0:0|0:0,0:0:0:0:
403,5,92439,2,0,B|457:35|425:58|474:85,1,110
499,152,92818,1,0,0:0:0:0:
401,342,93196,2,0,P|340:374|283:364,1,110,0|0,0:2|0:0,0:0:0:0:
233,346,93574,1,2,0:2:0:0:
310,227,93826,1,2,0:2:0:0:
189,149,94078,1,0,0:0:0:0:
74,233,94330,6,0,L|85:159,1,55,8|0,0:0|0:0,0:0:0:0:
36,123,94582,2,0,L|28:68,1,55
78,16,94834,1,2,0:2:0:0:
78,16,95087,1,0,0:0:0:0:
224,9,95339,6,0,L|213:83,1,55,8|0,0:0|0:0,0:0:0:0:
262,119,95591,2,0,L|271:173,1,55
220,226,95843,1,0,0:2:0:0:
220,226,96095,1,0,0:0:0:0:
230,355,96347,2,0,B|253:307|206:227|152:233,1,165,2|0,0:0|0:0,0:0:0:0:
87,257,96851,5,4,0:0:0:0:
87,257,96977,2,0,P|30:234|2:178,1,110,0|0,0:0|0:2,0:0:0:0:
13,126,97355,1,8,0:0:0:0:
13,126,97481,1,0,0:0:0:0:
99,11,97734,1,2,0:2:0:0:
204,101,97986,1,2,0:2:0:0:
330,31,98238,1,0,0:0:0:0:
330,31,98364,2,0,L|406:45,1,55,8|0,0:0|0:0,0:0:0:0:
433,249,98868,6,0,L|312:222,1,110,2|0,0:2|0:0,0:0:0:0:
258,200,99246,1,0,0:0:0:0:
258,200,99372,2,0,L|137:227,1,110,8|0,0:0|0:0,0:0:0:0:
91,272,99750,1,0,0:0:0:0:
91,272,99876,2,0,P|79:243|78:204,2,55,0|0|2,0:0|0:0|0:2,0:0:0:0:
188,378,100381,2,0,L|242:367,1,55,8|0,0:0|0:0,0:0:0:0:
449,366,100885,6,0,P|457:336|460:294,1,55,2|0,0:2|0:0,0:0:0:0:
408,262,101137,2,0,P|393:235|365:203,1,55
319,175,101389,2,0,B|330:128|330:128|342:116|342:116|354:70,1,110,8|0,0:0|0:0,0:0:0:0:
413,32,101767,1,0,0:0:0:0:
413,32,101893,2,0,P|442:20|481:19,2,55,0|0|2,0:0|0:0|0:2,0:0:0:0:
274,66,102397,1,8,0:0:0:0:
274,66,102523,2,0,B|231:104|172:95|172:95,1,110
108,61,102902,6,0,L|95:6,2,55
76,130,103280,1,0,0:0:0:0:
76,130,103406,2,0,L|61:262,1,110,8|0,0:0|0:0,0:0:0:0:
56,313,103784,1,0,0:0:0:0:
56,313,103910,2,0,L|-8:331,2,55
125,289,104288,1,0,0:0:0:0:
125,289,104414,2,0,L|190:300,1,55,10|0,0:0|0:0,0:0:0:0:
245,325,104666,2,0,L|310:307,1,55,2|0,0:0|0:0,0:0:0:0:
332,249,104918,2,0,B|349:200|349:200|388:157|388:157|406:101,1,165,4|0,0:0|0:0,0:0:0:0:
432,37,105423,6,0,P|464:34|507:25,2,55,8|0|2,0:0|0:0|0:2,0:0:0:0:
310,111,105927,2,0,P|260:91|206:73,1,110
79,8,106431,2,0,B|50:36|50:36|61:104,1,110,8|0,0:0|0:0,0:0:0:0:
79,177,106809,1,0,0:0:0:0:
79,177,106935,2,0,B|108:205|108:205|98:273,1,110,2|0,0:2|0:0,0:0:0:0:
76,347,107313,1,0,0:0:0:0:
76,347,107439,2,0,L|4:365,2,55,8|0|0,0:0|0:0|0:0,0:0:0:0:
196,267,107944,2,0,B|264:279|234:299|304:315,1,110,2|0,0:2|0:0,0:0:0:0:
433,275,108448,2,0,P|468:262|512:254,2,82.5,8|0|0,0:0|0:0|0:0,0:0:0:0:
368,246,108952,6,0,P|339:199|335:145,1,110
357,81,109330,1,0,0:0:0:0:
357,81,109456,2,0,P|311:109|257:113,1,110,8|0,0:0|0:0,0:0:0:0:
190,85,109834,1,0,0:0:0:0:
190,85,109960,2,0,P|136:88|76:219,1,165
65,241,110465,1,8,0:0:0:0:
197,255,110717,2,0,P|220:239|237:217,1,55
434,32,112986,6,0,B|525:89|469:207|469:207,1,165,4|0,0:0|0:0,0:0:0:0:
442,239,113490,1,8,0:0:0:0:
316,172,113742,2,0,P|319:144|329:119,1,55,2|0,0:2|0:0,0:1:0:0:
334,46,113994,2,0,B|388:13|448:23,2,110,0|0|8,0:0|0:0|0:0,0:0:0:0:
207,112,114750,2,2,B|156:120|101:87,1,110,0|0,0:0|0:0,0:1:0:0:
53,34,115129,5,0,0:0:0:0:
53,34,115255,2,0,P|32:65|31:116,1,55
2,149,115507,2,0,P|21:201|30:267,1,110,8|0,0:0|0:0,0:0:0:0:
43,329,115885,1,0,0:0:0:0:
43,329,116011,2,0,L|111:342,1,55
160,374,116263,2,0,L|228:361,1,55
261,309,116515,2,0,P|259:277|245:248,2,55,8|0|0,0:0|0:0|0:0,0:0:0:0:
387,376,117019,6,0,B|440:359|440:359|458:251|458:251,1,165,2|0,0:2|0:0,0:0:0:0:
472,180,117523,1,8,0:0:0:0:
362,87,117776,2,0,L|308:99,1,55,2|0,0:2|0:0,0:1:0:0:
247,138,118028,2,0,B|223:78|256:85|236:23,2,110,0|0|8,0:0|0:0|0:0,0:0:0:0:
354,232,118784,2,2,B|330:292|363:285|343:347,1,110,0|0,0:0|0:0,0:1:0:0:
201,344,119288,6,0,P|166:331|129:330,1,55
77,340,119540,2,0,B|32:289|65:220|65:220,1,110,8|0,0:0|0:0,0:0:0:0:
59,164,119918,2,0,B|80:99|156:93|156:93,1,110
202,61,120297,2,0,P|231:69|253:85,1,55
308,127,120549,2,0,L|368:117,2,55,8|0|0,0:0|0:0|0:0,0:0:0:0:
258,179,120927,1,0,0:0:0:0:
258,179,121053,6,0,B|225:224|225:224|232:278|232:278|198:326,1,165,2|0,0:2|0:0,0:0:0:0:
150,372,121557,1,8,0:0:0:0:
32,288,121809,2,0,L|20:223,1,55,2|0,0:2|0:0,0:0:0:0:
9,162,122061,2,0,B|63:151|63:151|106:184,2,110,0|0|8,0:0|0:0|0:0,0:0:0:0:
42,21,122818,2,0,B|85:54|85:54|139:43,1,110,2|0,0:0|0:0,0:0:0:0:
278,15,123322,6,0,B|292:43|287:75|287:75,1,55
245,126,123574,2,0,L|175:137,2,55,8|0|0,0:0|0:0|0:0,0:0:0:0:
298,174,123952,2,0,B|347:185|347:185|354:181|354:181|409:194,1,110
456,243,124330,2,0,P|469:277|465:313,1,55
445,365,124582,1,8,0:0:0:0:
445,365,124708,2,0,P|481:372|508:395,2,55
388,320,125087,6,0,B|317:335|317:335|307:330|307:330|228:348,1,165,2|0,0:2|0:0,0:0:0:0:
159,365,125591,1,8,0:0:0:0:
50,299,125843,2,2,P|45:266|63:224,1,55,2|0,0:0|0:0,0:0:0:0:
116,217,126095,2,0,P|165:235|218:211,2,110,0|0|8,0:0|0:0|0:0,0:0:0:0:
62,168,126725,2,0,P|35:167|3:178,2,55
112,114,127103,5,2,0:2:0:0:
213,12,127355,1,0,0:0:0:0:
351,48,127608,1,8,0:0:0:0:
388,185,127860,1,0,0:2:0:0:
287,285,128112,2,0,P|232:293|180:311,1,110,2|0,0:2|0:0,0:0:0:0:
196,384,128490,1,0,0:0:0:0:
196,384,128616,2,0,P|248:365|303:357,1,110,8|0,0:0|0:0,0:0:0:0:
444,321,129120,6,0,L|454:262,3,60.5000018463135,6|0|0|0,0:0|0:0|0:0|0:0,0:0:0:0:
501,190,129624,2,0,L|511:131,3,60.5000018463135,10|0|0|0,0:0|0:0|0:0|0:0,0:0:0:0:
427,114,130129,2,0,L|417:173,3,60.5000018463135,2|0|0|0,0:0|0:0|0:0|0:0,0:0:0:0:
370,244,130633,2,0,L|360:303,3,60.5000018463135,10|0|0|0,0:0|0:0|0:0|0:0,0:0:0:0:
444,321,131137,2,0,L|458:234,3,60.5000018463135,2|0|0|0,0:0|0:0|0:0|0:0,0:0:0:0:
501,190,131641,2,0,L|515:103,3,60.5000018463135,10|0|0|0,0:0|0:0|0:0|0:0,0:0:0:0:
427,114,132145,2,0,L|417:173,3,60.5000018463135,2|0|0|0,0:0|0:0|0:0|0:0,0:0:0:0:
370,244,132650,1,2,2:2:0:0:
67,321,133154,6,0,L|58:262,3,60.5000018463135,2|0|0|0,0:0|0:0|0:0|0:0,0:0:0:0:
10,190,133658,2,0,L|1:131,3,60.5000018463135,10|0|0|0,0:0|0:0|0:0|0:0,0:0:0:0:
85,114,134162,2,0,L|95:173,3,60.5000018463135,2|0|0|0,0:0|0:0|0:0|0:0,0:0:0:0:
142,244,134666,2,0,L|152:303,3,60.5000018463135,10|0|0|0,0:0|0:0|0:0|0:0,0:0:0:0:
171,384,135171,5,2,2:2:0:0:
256,248,135423,1,2,2:0:0:0:
336,112,135675,1,8,0:0:0:0:
336,112,135801,2,0,L|416:136,2,60.5000018463135
256,88,136179,2,0,P|201:96|132:116,1,121.000003692627,2|0,0:2|0:0,0:0:0:0:
152,192,136557,1,0,0:0:0:0:
152,192,136683,2,0,P|210:175|269:166,1,121.000003692627,10|0,0:0|0:0,0:0:0:0:
454,144,137187,6,0,L|511:126,3,60.5000018463135,6|0|0|0,0:0|0:0|0:0|0:0,0:0:0:0:
410,74,137692,2,0,L|438:20,3,60.5000018463135,10|0|0|0,0:0|0:0|0:0|0:0,0:0:0:0:
332,60,138196,2,0,L|336:-6,3,60.5000018463135,2|0|0|0,0:0|0:0|0:0|0:0,0:0:0:0:
256,64,138700,2,0,L|256:3,3,60.5000018463135,10|0|0|0,0:0|0:0|0:0|0:0,0:0:0:0:
180,60,139204,2,0,L|176:0,3,60.5000018463135,2|0|0|0,0:0|0:0|0:0|0:0,0:0:0:0:
102,74,139708,2,0,L|74:20,3,60.5000018463135,10|0|0|0,0:0|0:0|0:0|0:0,0:0:0:0:
58,144,140213,2,0,L|0:126,3,60.5000018463135,2|0|0|0,0:0|0:0|0:0|0:0,0:0:0:0:
135,166,140717,1,2,2:2:0:0:
333,353,141221,6,6,B|249:369|261:305|177:316,4,165.000006294251,6|2|2|2|2,0:0|0:0|0:0|0:0|2:0,0:0:0:0:
395,311,143364,5,2,2:0:0:0:
395,311,143490,2,0,L|402:259,1,41.2500015735627,2|0,2:0|2:0,2:0:0:0:
453,216,143742,2,0,L|443:122,1,82.5000031471254,2|0,2:0|2:0,0:0:0:0:
366,48,144246,1,2,2:1:0:0:
257,80,144498,1,2,2:0:0:0:
257,80,144624,2,0,B|194:71|203:118|140:107,1,123.750004720688,2|2,2:0|0:0,2:0:0:0:
16,14,145255,5,4,0:0:0:0:
