osu file format v14

[General]
AudioFilename: audio.mp3
AudioLeadIn: 0
PreviewTime: -1
Countdown: 1
SampleSet: None
StackLeniency: 0.7
Mode: 0
LetterboxInBreaks: 0
WidescreenStoryboard: 1

[Editor]
DistanceSpacing: 1
BeatDivisor: 4
GridSize: 4
TimelineZoom: 1.4

[Metadata]
Title:Yee Busters!
TitleUnicode:Yee Busters!
Artist:DinosaurAdventure
ArtistUnicode:DinosaurAdventure
Creator:xexyk
Version:Yeeasy
Source:DinosaurAdventure
Tags:yee dinosaur meme kek green oh yes yea importantvideos important videos
BeatmapID:1186577
BeatmapSetID:561153

[Difficulty]
HPDrainRate:2.5
CircleSize:4
OverallDifficulty:2
ApproachRate:3
SliderMultiplier:1.4
SliderTickRate:1

[Events]
//Background and Video events
Video,0,"yee2.avi"
0,0,"yeepic.png",0,0
//Break Periods
//Storyboard Layer 0 (Background)
//Storyboard Layer 1 (Fail)
//Storyboard Layer 2 (Pass)
//Storyboard Layer 3 (Foreground)
//Storyboard Sound Samples

[TimingPoints]
3120.05569324031,520.231141868512,4,2,1,100,1,0

[Colours]
Combo1 : 128,128,255
Combo2 : 0,64,0
Combo3 : 128,128,0
Combo4 : 0,64,64

[HitObjects]
296,284,2079,5,0,0:0:0:0:
304,212,2339,2,2,P|344:176|356:136,2,70
244,248,3120,1,0,0:0:0:0:
176,248,3380,1,2,0:0:0:0:
112,224,3640,2,0,P|80:192|80:152,1,70
76,100,4160,6,0,P|84:66|111:44,1,70
180,28,4680,2,2,L|236:28,4,35
112,48,5461,1,0,0:0:0:0:
68,104,5721,2,0,L|68:196,1,70
68,244,6241,6,2,P|88:288|124:304,2,70
72,176,7021,5,0,0:0:0:0:
124,128,7281,2,2,P|164:116|216:116,1,70
260,108,7802,2,4,B|296:92|296:92|348:108,1,70,4|0,0:0|0:0,0:0:0:0:
388,144,8322,6,4,P|416:188|420:224,2,70,4|4|0,0:0|0:0|0:0,0:0:0:0:
332,188,9102,1,0,0:0:0:0:
284,240,9362,1,0,0:0:0:0:
332,292,9622,1,2,0:0:0:0:
284,344,9883,1,8,0:0:0:0:
180,348,10143,6,0,P|152:356|124:348,2,35
228,296,10663,2,0,P|272:256|288:216,2,70
160,304,11443,2,0,L|80:272,1,70
32,248,11963,2,0,L|72:172,1,70
104,128,12484,5,8,0:0:0:0:
160,88,12744,1,8,0:0:0:0:
228,68,13004,2,0,P|268:68|300:76,1,70
364,100,13524,1,8,0:0:0:0:
424,132,13784,1,8,0:0:0:0:
364,172,14044,2,0,L|292:212,1,70
244,244,14565,6,0,L|244:288,6,35
184,208,15605,2,0,L|116:176,1,70
92,116,16125,2,4,B|120:88|120:88|168:88,1,70
220,88,16646,6,4,L|312:88,2,70,4|4|0,0:0|0:0|0:0,0:0:0:0:
180,144,17426,2,0,P|164:196|180:220,1,70
196,272,17946,1,0,0:0:0:0:
248,320,18206,2,0,P|288:332|328:304,1,70
384,276,18726,6,0,L|448:236,2,70
344,216,19507,2,0,L|280:256,2,70
308,156,20287,2,0,L|372:116,2,70
268,96,21068,2,0,L|204:136,2,70
336,80,21848,2,0,P|392:88|412:120,1,70
432,156,22368,2,4,L|448:200,2,35
380,112,22888,6,0,L|380:20,2,70
308,112,23669,2,0,L|308:20,2,70
240,112,24449,2,0,L|240:20,2,70
172,112,25229,2,0,L|172:20,2,70
172,184,26010,2,0,L|124:256,1,70
92,300,26530,2,4,P|60:340|60:340,2,35
140,248,27050,6,0,L|72:188,2,70
188,196,27831,2,0,L|260:260,2,70
232,140,28611,2,0,L|164:80,2,70
280,92,29392,2,0,L|352:156,2,70
216,60,30172,2,0,P|176:48|144:72,1,70
104,108,30692,2,4,L|76:140,2,35
160,68,31212,6,0,B|216:40|216:40|304:72,1,140
292,136,31992,2,0,B|236:164|236:164|148:131,1,140
96,124,32773,2,0,B|66:178|66:178|89:252,1,140
140,300,33553,2,0,B|196:328|196:328|284:296,1,140
332,268,34333,2,0,B|400:224|400:120|300:80,1,210
264,60,35374,5,0,0:0:0:0:
196,60,35634,1,0,0:0:0:0:
128,60,35894,2,0,L|88:60,2,35
104,116,36414,6,0,B|128:160|128:160|168:120|168:120|120:252|120:252|208:244|304:188|464:100|-64:64|204:308|176:336|328:272|460:244|576:56|152:60|252:240|360:240|368:244|368:244,1,770
