osu file format v14

[General]
AudioFilename: audio.mp3
AudioLeadIn: 0
PreviewTime: -1
Countdown: 1
SampleSet: None
StackLeniency: 0.7
Mode: 0
LetterboxInBreaks: 0
WidescreenStoryboard: 1

[Editor]
DistanceSpacing: 1.7
BeatDivisor: 4
GridSize: 4
TimelineZoom: 1.4

[Metadata]
Title:Yee Busters!
TitleUnicode:Yee Busters!
Artist:DinosaurAdventure
ArtistUnicode:DinosaurAdventure
Creator:xexyk
Version:Medium Yee
Source:DinosaurAdventure
Tags:yee dinosaur meme kek green oh yes yea importantvideos important videos
BeatmapID:1186576
BeatmapSetID:561153

[Difficulty]
HPDrainRate:5
CircleSize:4.5
OverallDifficulty:3
ApproachRate:5
SliderMultiplier:1.4
SliderTickRate:1

[Events]
//Background and Video events
Video,0,"yee2.avi"
0,0,"yeepic.png",0,0
//Break Periods
//Storyboard Layer 0 (Background)
//Storyboard Layer 1 (Fail)
//Storyboard Layer 2 (Pass)
//Storyboard Layer 3 (Foreground)
//Storyboard Sound Samples

[TimingPoints]
3120.05569324031,520.231141868512,4,2,1,100,1,0
7802,-66.6666666666667,4,2,1,100,0,0
9362,-100,4,2,1,100,0,0
16125,-66.6666666666667,4,2,1,100,0,0
17426,-100,4,2,1,100,0,0
22888,-83.3333333333333,4,2,1,100,0,0
27050,-71.4285714285714,4,2,1,100,0,0
31212,-66.6666666666667,4,2,1,100,0,0
35374,-100,4,2,1,100,0,0
36414,-58.8235294117647,4,2,1,100,0,0

[Colours]
Combo1 : 128,128,255
Combo2 : 0,64,0
Combo3 : 128,128,0
Combo4 : 0,64,64

[HitObjects]
260,264,2079,5,0,0:0:0:0:
316,168,2339,2,2,L|352:152,2,35
200,196,2859,1,0,0:0:0:0:
96,152,3120,2,0,P|64:96|72:72,1,70
168,52,3640,1,0,0:0:0:0:
280,52,3900,6,0,L|320:52,2,35
168,52,4420,1,0,0:0:0:0:
88,128,4680,1,2,0:0:0:0:
88,240,4940,1,4,0:0:0:0:
168,320,5200,1,8,0:0:0:0:
284,300,5461,1,0,0:0:0:0:
408,328,5721,2,0,P|436:308|432:276,1,70
320,232,6241,1,0,0:0:0:0:
416,176,6501,5,2,0:0:0:0:
416,168,6631,1,2,0:0:0:0:
416,160,6761,2,2,P|416:108|404:80,1,70
308,48,7281,1,8,0:0:0:0:
244,140,7542,1,4,0:0:0:0:
272,268,7802,2,0,P|220:296|172:288,1,105.000004005432
76,212,8322,2,0,P|56:184|56:156,1,52.5000020027161
108,140,8582,2,0,P|128:164|128:200,1,52.5000020027161
136,248,8842,2,2,L|136:300,4,52.5000020027161
140,136,9622,1,0,0:0:0:0:
220,60,9883,1,0,0:0:0:0:
296,140,10143,5,0,0:0:0:0:
300,144,10273,1,0,0:0:0:0:
304,148,10403,1,0,0:0:0:0:
364,244,10663,2,0,P|388:284|400:332,2,70
260,200,11443,2,0,P|204:204|160:196,1,70
168,92,11963,2,0,P|216:84|260:88,1,70
244,84,12354,1,0,0:0:0:0:
252,84,12484,1,0,0:0:0:0:
364,84,12744,1,0,0:0:0:0:
396,192,13004,2,0,L|396:240,2,35
364,84,13524,1,0,0:0:0:0:
260,44,13784,1,0,0:0:0:0:
160,92,14044,2,0,P|112:136|100:164,1,70
96,252,14565,6,0,L|92:296,4,35
100,248,15215,1,0,0:0:0:0:
104,244,15345,1,0,0:0:0:0:
196,176,15605,2,0,P|244:160|284:172,1,70
416,228,16125,2,0,P|408:300|364:312,1,105.000004005432
264,316,16646,2,0,P|227:320|203:313,1,52.5000020027161
213,258,16906,2,0,P|241:252|269:259,1,52.5000020027161
320,272,17166,2,0,L|376:284,2,52.5000020027161
216,236,17686,1,0,0:0:0:0:
104,220,17946,1,0,0:0:0:0:
172,132,18206,2,0,P|212:96|248:84,1,70
324,144,18726,6,2,P|380:160|412:152,2,70
192,100,19507,2,2,P|144:68|112:60,2,70
196,240,20287,6,2,P|160:296|132:308,2,70
272,124,21068,2,2,P|300:88|332:68,2,70
208,248,21848,5,0,0:0:0:0:
68,248,22108,1,0,0:0:0:0:
68,108,22368,2,0,L|68:72,2,35
232,80,22888,6,2,P|292:60|328:36,2,83.9999974365235
112,200,23669,2,2,P|72:228|40:264,2,83.9999974365235
276,232,24449,6,2,P|328:268|384:280,2,83.9999974365235
136,116,25229,2,2,P|100:72|60:40,2,83.9999974365235
224,228,26010,5,0,0:0:0:0:
336,148,26270,1,0,0:0:0:0:
256,40,26530,2,0,P|228:4|224:0,2,41.9999987182618
352,212,27050,6,2,B|392:252|392:252|448:256,2,97.9999970092774
192,100,27831,2,2,B|140:64|140:64|128:16,2,97.9999970092774
164,292,28611,6,2,B|112:328|112:328|64:336,2,97.9999970092774
296,148,29391,2,2,B|340:112|340:112|376:56,2,97.9999970092774
192,240,30172,5,0,0:0:0:0:
56,240,30432,1,0,0:0:0:0:
128,124,30692,2,0,L|160:84,2,48.9999985046387
116,300,31212,6,2,P|162:337|145:284,2,105.000004005432
264,164,31992,2,2,P|277:105|237:144,2,105.000004005432
80,88,32773,6,2,P|48:37|98:60,2,105.000004005432
308,96,33553,2,2,P|356:60|300:64,2,105.000004005432
132,136,34333,6,0,P|112:200|136:240,1,105.000004005432
256,328,34854,2,0,P|284:336|312:332,2,52.5000020027161
172,224,35374,5,0,0:0:0:0:
284,148,35634,1,0,0:0:0:0:
176,68,35894,2,0,B|156:56|156:56|124:44,2,35
104,112,36414,6,0,B|136:172|136:172|192:116|192:116|120:280|120:280|212:292|232:240|508:148|104:124|152:180|172:384|332:276|384:256|588:164|264:76|216:264|368:296|456:252,1,833.000015888214
