osu file format v14

[General]
AudioFilename: The Kriotube.mp3
AudioLeadIn: 0
PreviewTime: 156010
Countdown: 0
SampleSet: Normal
StackLeniency: 0.7
Mode: 1
LetterboxInBreaks: 0
WidescreenStoryboard: 0

[Editor]
Bookmarks: 324425,326203,327981,331536,335092,338647,342203,345758
DistanceSpacing: 0.7
BeatDivisor: 3
GridSize: 32
TimelineZoom: 2.3

[Metadata]
Title:The Kriotube
TitleUnicode:The Kriotube
Artist:Dimrain47
ArtistUnicode:Dimrain47
Creator:xtrem3x
Version:Onitube
Source:
Tags:Marathon JamLegend Newgrounds Escondido California Youtube superbane2 Clayton Judd
BeatmapID:1602945
BeatmapSetID:762397

[Difficulty]
HPDrainRate:5.5
CircleSize:7
OverallDifficulty:5.5
ApproachRate:10
SliderMultiplier:1.4
SliderTickRate:1

[Events]
//Background and Video events
0,0,"BG.jpg",0,0
//Break Periods
2,204210,236951
//Storyboard Layer 0 (Background)
//Storyboard Layer 1 (Fail)
//Storyboard Layer 2 (Pass)
//Storyboard Layer 3 (Foreground)
//Storyboard Sound Samples

[TimingPoints]
10,375,4,1,0,70,1,0
180010,-100,4,1,0,70,0,1
204010,521.739130434783,4,1,0,70,1,0
204010,-71.4285714285714,4,1,0,70,0,0
237401,-200,4,1,0,50,0,0
254096,-100,4,1,0,65,0,0
320227,-94.3396226415094,4,1,0,70,0,0
320357,-89.2857142857143,4,1,0,70,0,0
320488,-84.7457627118644,4,1,0,70,0,0
320618,-80.6451612903226,4,1,0,70,0,0
320749,-76.9230769230769,4,1,0,70,0,0
320870,444.444444444444,4,1,0,70,1,0
320870,-86.9565217391304,4,1,0,70,0,0
349314,-100,4,1,0,70,0,0
402647,-100,4,1,0,40,0,0
403981,-100,4,1,0,20,0,0
404981,-100,4,1,0,5,0,0

[HitObjects]
256,192,6010,5,8,0:0:0:0:
256,192,6385,1,8,0:0:0:0:
256,192,6760,1,8,0:0:0:0:
256,192,7135,1,8,0:0:0:0:
256,192,7260,1,0,0:0:0:0:
256,192,7385,1,0,0:0:0:0:
256,192,7510,1,8,0:0:0:0:
256,192,7885,1,8,0:0:0:0:
256,192,8260,1,8,0:0:0:0:
256,192,8635,1,8,0:0:0:0:
256,192,8760,1,0,0:0:0:0:
256,192,8885,1,0,0:0:0:0:
256,192,9010,1,8,0:0:0:0:
256,192,9385,1,8,0:0:0:0:
256,192,9760,1,8,0:0:0:0:
256,192,10135,1,8,0:0:0:0:
256,192,10260,1,0,0:0:0:0:
256,192,10385,1,0,0:0:0:0:
256,192,10510,1,8,0:0:0:0:
256,192,10760,1,0,0:0:0:0:
256,192,10885,1,8,0:0:0:0:
256,192,11135,1,0,0:0:0:0:
256,192,11260,1,8,0:0:0:0:
256,192,11510,1,0,0:0:0:0:
256,192,11635,1,0,0:0:0:0:
256,192,12010,1,4,0:0:0:0:
256,192,12260,1,8,0:0:0:0:
256,192,12385,1,0,0:0:0:0:
256,192,12635,1,8,0:0:0:0:
256,192,12760,1,0,0:0:0:0:
256,192,13010,1,8,0:0:0:0:
256,192,13135,1,0,0:0:0:0:
256,192,13260,1,8,0:0:0:0:
256,192,13385,1,8,0:0:0:0:
256,192,13510,1,0,0:0:0:0:
256,192,13760,1,8,0:0:0:0:
256,192,13885,1,0,0:0:0:0:
256,192,14010,1,0,0:0:0:0:
256,192,14135,1,8,0:0:0:0:
256,192,14260,1,0,0:0:0:0:
256,192,14385,1,8,0:0:0:0:
256,192,14447,1,8,0:0:0:0:
256,192,14510,1,8,0:0:0:0:
256,192,14635,1,0,0:0:0:0:
256,192,14760,1,8,0:0:0:0:
256,192,14885,1,8,0:0:0:0:
256,192,15010,1,0,0:0:0:0:
256,192,15260,1,8,0:0:0:0:
256,192,15385,1,0,0:0:0:0:
256,192,15635,1,8,0:0:0:0:
256,192,15760,1,0,0:0:0:0:
256,192,16010,1,8,0:0:0:0:
256,192,16135,1,0,0:0:0:0:
256,192,16260,1,0,0:0:0:0:
256,192,16385,1,8,0:0:0:0:
256,192,16510,1,0,0:0:0:0:
256,192,16635,1,8,0:0:0:0:
256,192,16760,1,8,0:0:0:0:
256,192,16885,1,0,0:0:0:0:
256,192,17010,1,8,0:0:0:0:
256,192,17135,1,8,0:0:0:0:
256,192,17260,1,0,0:0:0:0:
256,192,17385,1,8,0:0:0:0:
256,192,17510,1,8,0:0:0:0:
256,192,17635,1,8,0:0:0:0:
256,192,17697,1,8,0:0:0:0:
256,192,17760,1,8,0:0:0:0:
256,192,17885,1,8,0:0:0:0:
256,192,18010,1,4,0:0:0:0:
256,192,18260,1,8,0:0:0:0:
256,192,18385,1,0,0:0:0:0:
256,192,18635,1,8,0:0:0:0:
256,192,18760,1,0,0:0:0:0:
256,192,19010,1,8,0:0:0:0:
256,192,19135,1,0,0:0:0:0:
256,192,19260,1,8,0:0:0:0:
256,192,19385,1,8,0:0:0:0:
256,192,19510,1,0,0:0:0:0:
256,192,19760,1,8,0:0:0:0:
256,192,19885,1,0,0:0:0:0:
256,192,20135,1,8,0:0:0:0:
256,192,20260,1,0,0:0:0:0:
256,192,20385,1,8,0:0:0:0:
256,192,20447,1,8,0:0:0:0:
256,192,20510,1,8,0:0:0:0:
256,192,20635,1,0,0:0:0:0:
256,192,20760,1,8,0:0:0:0:
256,192,20885,1,8,0:0:0:0:
256,192,21010,1,0,0:0:0:0:
256,192,21260,1,8,0:0:0:0:
256,192,21385,1,0,0:0:0:0:
256,192,21635,1,8,0:0:0:0:
256,192,21760,1,0,0:0:0:0:
256,192,22010,1,8,0:0:0:0:
256,192,22135,1,0,0:0:0:0:
256,192,22260,1,0,0:0:0:0:
256,192,22385,1,8,0:0:0:0:
256,192,22510,1,0,0:0:0:0:
256,192,22635,1,8,0:0:0:0:
256,192,22760,1,8,0:0:0:0:
256,192,22885,1,0,0:0:0:0:
256,192,23010,1,8,0:0:0:0:
256,192,23135,1,8,0:0:0:0:
256,192,23260,1,0,0:0:0:0:
256,192,23385,1,8,0:0:0:0:
256,192,23510,1,8,0:0:0:0:
256,192,23635,1,8,0:0:0:0:
256,192,23697,1,8,0:0:0:0:
256,192,23760,1,8,0:0:0:0:
256,192,23885,1,8,0:0:0:0:
256,192,24010,1,4,0:0:0:0:
256,192,24260,1,8,0:0:0:0:
256,192,24385,1,0,0:0:0:0:
256,192,24510,1,0,0:0:0:0:
256,192,24635,1,8,0:0:0:0:
256,192,24760,1,0,0:0:0:0:
256,192,25010,1,8,0:0:0:0:
256,192,25135,1,0,0:0:0:0:
256,192,25260,1,8,0:0:0:0:
256,192,25385,1,8,0:0:0:0:
256,192,25510,1,0,0:0:0:0:
256,192,25760,1,8,0:0:0:0:
256,192,25885,1,0,0:0:0:0:
256,192,26010,1,0,0:0:0:0:
256,192,26135,1,8,0:0:0:0:
256,192,26260,1,0,0:0:0:0:
256,192,26385,1,8,0:0:0:0:
256,192,26447,1,8,0:0:0:0:
256,192,26510,1,8,0:0:0:0:
256,192,26635,1,0,0:0:0:0:
256,192,26760,1,8,0:0:0:0:
256,192,26885,1,8,0:0:0:0:
256,192,27010,1,0,0:0:0:0:
256,192,27260,1,8,0:0:0:0:
256,192,27385,1,0,0:0:0:0:
256,192,27510,1,0,0:0:0:0:
256,192,27635,1,8,0:0:0:0:
256,192,27760,1,0,0:0:0:0:
256,192,28010,1,8,0:0:0:0:
256,192,28135,1,0,0:0:0:0:
256,192,28260,1,0,0:0:0:0:
256,192,28385,1,8,0:0:0:0:
256,192,28510,1,0,0:0:0:0:
256,192,28635,1,8,0:0:0:0:
256,192,28760,1,8,0:0:0:0:
256,192,28885,1,0,0:0:0:0:
256,192,29010,1,8,0:0:0:0:
256,192,29135,1,8,0:0:0:0:
256,192,29260,1,0,0:0:0:0:
256,192,29385,1,8,0:0:0:0:
256,192,29447,1,8,0:0:0:0:
256,192,29510,1,8,0:0:0:0:
256,192,29635,1,0,0:0:0:0:
256,192,29760,1,8,0:0:0:0:
256,192,29885,1,8,0:0:0:0:
256,192,30010,1,4,0:0:0:0:
256,192,30260,1,8,0:0:0:0:
256,192,30385,1,0,0:0:0:0:
256,192,30510,1,0,0:0:0:0:
256,192,30635,1,8,0:0:0:0:
256,192,30760,1,0,0:0:0:0:
256,192,31010,1,8,0:0:0:0:
256,192,31135,1,0,0:0:0:0:
256,192,31260,1,8,0:0:0:0:
256,192,31385,1,8,0:0:0:0:
256,192,31510,1,0,0:0:0:0:
256,192,31760,1,8,0:0:0:0:
256,192,31885,1,0,0:0:0:0:
256,192,32010,1,0,0:0:0:0:
256,192,32135,1,8,0:0:0:0:
256,192,32260,1,0,0:0:0:0:
256,192,32385,1,8,0:0:0:0:
256,192,32447,1,8,0:0:0:0:
256,192,32510,1,8,0:0:0:0:
256,192,32635,1,0,0:0:0:0:
256,192,32760,1,8,0:0:0:0:
256,192,32885,1,8,0:0:0:0:
256,192,33010,1,0,0:0:0:0:
256,192,33260,1,8,0:0:0:0:
256,192,33385,1,0,0:0:0:0:
256,192,33510,1,0,0:0:0:0:
256,192,33635,1,8,0:0:0:0:
256,192,33760,1,0,0:0:0:0:
256,192,34010,1,8,0:0:0:0:
256,192,34135,1,0,0:0:0:0:
256,192,34260,1,8,0:0:0:0:
256,192,34385,1,8,0:0:0:0:
256,192,34510,1,0,0:0:0:0:
256,192,34635,1,8,0:0:0:0:
256,192,34760,1,8,0:0:0:0:
256,192,34885,1,0,0:0:0:0:
256,192,35010,1,8,0:0:0:0:
256,192,35135,1,8,0:0:0:0:
256,192,35260,1,0,0:0:0:0:
256,192,35385,1,8,0:0:0:0:
256,192,35447,1,8,0:0:0:0:
256,192,35510,1,8,0:0:0:0:
256,192,35635,1,0,0:0:0:0:
256,192,35760,1,8,0:0:0:0:
256,192,35885,1,8,0:0:0:0:
256,192,36010,5,4,0:0:0:0:
256,192,36260,1,0,0:0:0:0:
256,192,36385,1,8,0:0:0:0:
256,192,36510,1,8,0:0:0:0:
256,192,36635,1,8,0:0:0:0:
256,192,36760,1,8,0:0:0:0:
256,192,36885,1,0,0:0:0:0:
256,192,37010,1,0,0:0:0:0:
256,192,37135,1,8,0:0:0:0:
256,192,37260,1,8,0:0:0:0:
256,192,37385,1,8,0:0:0:0:
256,192,37510,1,8,0:0:0:0:
256,192,37760,1,0,0:0:0:0:
256,192,37885,1,8,0:0:0:0:
256,192,38010,1,8,0:0:0:0:
256,192,38135,1,8,0:0:0:0:
256,192,38260,1,8,0:0:0:0:
256,192,38385,1,0,0:0:0:0:
256,192,38510,1,0,0:0:0:0:
256,192,38635,1,8,0:0:0:0:
256,192,38760,1,8,0:0:0:0:
256,192,38885,1,0,0:0:0:0:
256,192,39010,1,8,0:0:0:0:
256,192,39260,1,0,0:0:0:0:
256,192,39385,1,8,0:0:0:0:
256,192,39510,1,0,0:0:0:0:
256,192,39635,1,0,0:0:0:0:
256,192,39760,1,8,0:0:0:0:
256,192,39885,1,0,0:0:0:0:
256,192,40010,1,0,0:0:0:0:
256,192,40135,1,8,0:0:0:0:
256,192,40260,1,8,0:0:0:0:
256,192,40385,1,0,0:0:0:0:
256,192,40510,1,8,0:0:0:0:
256,192,40760,1,0,0:0:0:0:
256,192,40885,1,8,0:0:0:0:
256,192,41010,1,0,0:0:0:0:
256,192,41135,1,0,0:0:0:0:
256,192,41260,1,8,0:0:0:0:
256,192,41385,1,8,0:0:0:0:
256,192,41447,1,8,0:0:0:0:
256,192,41510,1,8,0:0:0:0:
256,192,41635,1,0,0:0:0:0:
256,192,41760,1,0,0:0:0:0:
256,192,41822,1,0,0:0:0:0:
256,192,41885,1,0,0:0:0:0:
256,192,42010,1,12,0:0:0:0:
256,192,42260,1,0,0:0:0:0:
256,192,42385,1,8,0:0:0:0:
256,192,42510,1,8,0:0:0:0:
256,192,42635,1,8,0:0:0:0:
256,192,42760,1,8,0:0:0:0:
256,192,42885,1,0,0:0:0:0:
256,192,43010,1,0,0:0:0:0:
256,192,43135,1,8,0:0:0:0:
256,192,43260,1,8,0:0:0:0:
256,192,43385,1,8,0:0:0:0:
256,192,43510,1,8,0:0:0:0:
256,192,43760,1,0,0:0:0:0:
256,192,43885,1,8,0:0:0:0:
256,192,44010,1,8,0:0:0:0:
256,192,44135,1,8,0:0:0:0:
256,192,44260,1,8,0:0:0:0:
256,192,44385,1,0,0:0:0:0:
256,192,44510,1,8,0:0:0:0:
256,192,44635,1,8,0:0:0:0:
256,192,44760,1,0,0:0:0:0:
256,192,44885,1,0,0:0:0:0:
256,192,45010,1,8,0:0:0:0:
256,192,45260,1,0,0:0:0:0:
256,192,45385,1,8,0:0:0:0:
256,192,45510,1,0,0:0:0:0:
256,192,45635,1,0,0:0:0:0:
256,192,45760,1,8,0:0:0:0:
256,192,45885,1,0,0:0:0:0:
256,192,46010,1,0,0:0:0:0:
256,192,46135,1,8,0:0:0:0:
256,192,46260,1,8,0:0:0:0:
256,192,46385,1,0,0:0:0:0:
256,192,46510,1,8,0:0:0:0:
256,192,46760,1,0,0:0:0:0:
256,192,46885,1,8,0:0:0:0:
256,192,47010,1,0,0:0:0:0:
256,192,47135,1,0,0:0:0:0:
256,192,47260,1,8,0:0:0:0:
256,192,47385,1,8,0:0:0:0:
256,192,47447,1,8,0:0:0:0:
256,192,47510,1,8,0:0:0:0:
256,192,47635,1,0,0:0:0:0:
256,192,47760,1,0,0:0:0:0:
256,192,47822,1,0,0:0:0:0:
256,192,47885,1,0,0:0:0:0:
256,192,48010,1,8,0:0:0:0:
256,192,48135,1,0,0:0:0:0:
256,192,48260,1,0,0:0:0:0:
256,192,48385,1,8,0:0:0:0:
256,192,48510,1,8,0:0:0:0:
256,192,48635,1,0,0:0:0:0:
256,192,48760,1,8,0:0:0:0:
256,192,48885,1,0,0:0:0:0:
256,192,49010,1,0,0:0:0:0:
256,192,49135,1,8,0:0:0:0:
256,192,49260,1,8,0:0:0:0:
256,192,49385,1,8,0:0:0:0:
256,192,49510,1,0,0:0:0:0:
256,192,49635,1,0,0:0:0:0:
256,192,49760,1,0,0:0:0:0:
256,192,49885,1,8,0:0:0:0:
256,192,50010,1,8,0:0:0:0:
256,192,50135,1,0,0:0:0:0:
256,192,50260,1,8,0:0:0:0:
256,192,50385,1,8,0:0:0:0:
256,192,50448,1,8,0:0:0:0:
256,192,50510,1,8,0:0:0:0:
256,192,50635,1,0,0:0:0:0:
256,192,50760,1,0,0:0:0:0:
256,192,50823,1,0,0:0:0:0:
256,192,50885,1,0,0:0:0:0:
256,192,51010,1,8,0:0:0:0:
256,192,51135,1,0,0:0:0:0:
256,192,51260,1,0,0:0:0:0:
256,192,51385,1,8,0:0:0:0:
256,192,51510,1,8,0:0:0:0:
256,192,51635,1,0,0:0:0:0:
256,192,51760,1,8,0:0:0:0:
256,192,51885,1,0,0:0:0:0:
256,192,52010,1,0,0:0:0:0:
256,192,52135,1,8,0:0:0:0:
256,192,52260,1,0,0:0:0:0:
256,192,52385,1,0,0:0:0:0:
256,192,52510,1,8,0:0:0:0:
256,192,52635,1,8,0:0:0:0:
256,192,52760,1,0,0:0:0:0:
256,192,52885,1,8,0:0:0:0:
256,192,53010,1,8,0:0:0:0:
256,192,53135,1,0,0:0:0:0:
256,192,53260,1,8,0:0:0:0:
256,192,53385,1,0,0:0:0:0:
256,192,53510,1,8,0:0:0:0:
256,192,53635,1,8,0:0:0:0:
256,192,53697,1,8,0:0:0:0:
256,192,53760,1,8,0:0:0:0:
256,192,53885,1,0,0:0:0:0:
256,192,54010,1,8,0:0:0:0:
256,192,54135,1,8,0:0:0:0:
256,192,54260,1,8,0:0:0:0:
256,192,54385,1,8,0:0:0:0:
256,192,54510,1,0,0:0:0:0:
256,192,54635,1,0,0:0:0:0:
256,192,54760,1,8,0:0:0:0:
256,192,54885,1,8,0:0:0:0:
256,192,55010,1,0,0:0:0:0:
256,192,55135,1,8,0:0:0:0:
256,192,55260,1,0,0:0:0:0:
256,192,55385,1,0,0:0:0:0:
256,192,55510,1,8,0:0:0:0:
256,192,55635,1,8,0:0:0:0:
256,192,55760,1,8,0:0:0:0:
256,192,55885,1,8,0:0:0:0:
256,192,56010,1,0,0:0:0:0:
256,192,56135,1,0,0:0:0:0:
256,192,56260,1,8,0:0:0:0:
256,192,56385,1,8,0:0:0:0:
256,192,56447,1,8,0:0:0:0:
256,192,56510,1,8,0:0:0:0:
256,192,56635,1,0,0:0:0:0:
256,192,56760,1,0,0:0:0:0:
256,192,56822,1,0,0:0:0:0:
256,192,56885,1,0,0:0:0:0:
256,192,57010,1,8,0:0:0:0:
256,192,57135,1,8,0:0:0:0:
256,192,57260,1,8,0:0:0:0:
256,192,57385,1,8,0:0:0:0:
256,192,57510,1,0,0:0:0:0:
256,192,57635,1,0,0:0:0:0:
256,192,57760,1,8,0:0:0:0:
256,192,57885,1,0,0:0:0:0:
256,192,58010,1,8,0:0:0:0:
256,192,58135,1,8,0:0:0:0:
256,192,58260,1,0,0:0:0:0:
256,192,58385,1,8,0:0:0:0:
256,192,58510,1,0,0:0:0:0:
256,192,58635,1,0,0:0:0:0:
256,192,58760,1,0,0:0:0:0:
256,192,58885,1,8,0:0:0:0:
256,192,59010,1,0,0:0:0:0:
256,192,59135,1,0,0:0:0:0:
256,192,59260,1,8,0:0:0:0:
256,192,59385,1,0,0:0:0:0:
256,192,59510,1,0,0:0:0:0:
256,192,59635,1,8,0:0:0:0:
256,192,59760,1,8,0:0:0:0:
256,192,59885,1,8,0:0:0:0:
256,192,60010,1,4,0:0:0:0:
256,192,60197,12,0,62260,0:0:0:0:
256,192,63010,5,4,0:0:0:0:
256,192,63572,1,4,0:0:0:0:
256,192,63760,1,8,0:0:0:0:
256,192,64135,1,4,0:0:0:0:
256,192,64322,1,8,0:0:0:0:
256,192,64697,1,4,0:0:0:0:
256,192,64885,1,8,0:0:0:0:
256,192,65260,1,4,0:0:0:0:
256,192,65447,1,8,0:0:0:0:
256,192,65635,1,4,0:0:0:0:
256,192,65822,1,8,0:0:0:0:
256,192,65916,1,8,0:0:0:0:
256,192,66010,1,0,0:0:0:0:
256,192,66103,1,0,0:0:0:0:
256,192,66197,1,0,0:0:0:0:
256,192,66385,1,8,0:0:0:0:
256,192,66572,1,0,0:0:0:0:
256,192,66666,1,8,0:0:0:0:
256,192,66760,1,0,0:0:0:0:
256,192,66947,1,8,0:0:0:0:
250,187,67135,1,0,0:0:0:0:
250,187,67228,1,0,0:0:0:0:
250,187,67322,1,0,0:0:0:0:
256,192,67510,1,8,0:0:0:0:
249,186,67697,1,8,0:0:0:0:
266,193,67760,1,0,0:0:0:0:
266,193,67822,1,0,0:0:0:0:
256,192,67885,1,8,0:0:0:0:
256,192,68072,1,8,0:0:0:0:
266,193,68260,1,0,0:0:0:0:
255,189,68353,1,0,0:0:0:0:
256,192,68447,1,8,0:0:0:0:
288,192,68541,1,0,0:0:0:0:
256,192,68635,1,8,0:0:0:0:
256,192,68822,1,0,0:0:0:0:
256,192,68916,1,8,0:0:0:0:
256,192,69010,1,0,0:0:0:0:
256,192,69197,1,0,0:0:0:0:
256,192,69385,1,8,0:0:0:0:
256,192,69572,1,8,0:0:0:0:
256,192,69760,1,0,0:0:0:0:
256,192,69947,1,8,0:0:0:0:
256,192,70135,1,8,0:0:0:0:
256,192,70322,1,0,0:0:0:0:
259,195,70510,1,8,0:0:0:0:
259,195,70697,1,8,0:0:0:0:
256,192,70885,12,0,71822,0:0:0:0:
256,192,72010,5,0,0:0:0:0:
256,192,72385,1,0,0:0:0:0:
256,192,72760,1,0,0:0:0:0:
256,192,73135,1,0,0:0:0:0:
256,192,73322,1,8,0:0:0:0:
256,192,73510,1,0,0:0:0:0:
256,192,73885,1,0,0:0:0:0:
256,192,74260,1,0,0:0:0:0:
256,192,74447,1,8,0:0:0:0:
256,192,74635,1,0,0:0:0:0:
252,186,74822,1,8,0:0:0:0:
256,192,75010,1,0,0:0:0:0:
256,192,75385,1,0,0:0:0:0:
256,192,75760,1,0,0:0:0:0:
256,192,76135,1,0,0:0:0:0:
256,192,76510,1,0,0:0:0:0:
256,192,76697,1,0,0:0:0:0:
256,192,76885,1,8,0:0:0:0:
256,192,77072,1,8,0:0:0:0:
256,192,77260,1,0,0:3:0:0:
256,192,77447,1,8,0:0:0:0:
256,192,77541,1,8,0:0:0:0:
256,192,77635,1,8,0:0:0:0:
256,192,77822,1,8,0:0:0:0:
256,192,78010,1,0,0:0:0:0:
256,192,78385,1,0,0:0:0:0:
256,192,78760,1,0,0:0:0:0:
256,192,79135,1,0,0:0:0:0:
256,192,79322,1,8,0:0:0:0:
256,192,79510,1,0,0:0:0:0:
256,192,79885,1,0,0:0:0:0:
256,192,80072,1,0,0:0:0:0:
256,192,80260,1,8,0:0:0:0:
256,192,80447,1,0,0:0:0:0:
256,192,80635,1,8,0:0:0:0:
256,192,80822,1,8,0:0:0:0:
256,192,81010,1,0,0:0:0:0:
256,192,81385,1,0,0:0:0:0:
256,192,81572,1,8,0:0:0:0:
256,192,81760,1,0,0:0:0:0:
256,192,82135,1,0,0:0:0:0:
256,192,82510,1,8,0:0:0:0:
256,192,82697,1,0,0:0:0:0:
256,192,82885,1,8,0:0:0:0:
256,192,83072,1,8,0:0:0:0:
256,192,83260,1,0,0:0:0:0:
256,192,83447,1,8,0:0:0:0:
256,192,83541,1,8,0:0:0:0:
256,192,83635,1,8,0:0:0:0:
256,192,83822,1,8,0:0:0:0:
256,192,84010,1,4,0:0:0:0:
256,192,84385,1,0,0:0:0:0:
256,192,84760,1,0,0:0:0:0:
256,192,85135,1,0,0:0:0:0:
256,192,85322,1,8,0:0:0:0:
256,192,85510,1,0,0:0:0:0:
256,192,85885,1,0,0:0:0:0:
256,192,86260,1,0,0:0:0:0:
256,192,86447,1,8,0:0:0:0:
256,192,86541,1,8,0:0:0:0:
256,192,86635,1,8,0:0:0:0:
256,192,86822,1,8,0:0:0:0:
256,192,87010,1,0,0:0:0:0:
256,192,87385,1,0,0:0:0:0:
256,192,87572,1,8,0:0:0:0:
256,192,87760,1,0,0:0:0:0:
256,192,88135,1,0,0:0:0:0:
256,192,88510,1,0,0:0:0:0:
256,192,88697,1,0,0:0:0:0:
256,192,88885,1,8,0:0:0:0:
256,192,89073,1,8,0:0:0:0:
256,192,89260,1,0,0:0:0:0:
256,192,89447,1,8,0:0:0:0:
256,192,89541,1,8,0:0:0:0:
256,192,89635,1,8,0:0:0:0:
256,192,89822,1,8,0:0:0:0:
256,192,90010,1,0,0:0:0:0:
256,192,90385,1,0,0:0:0:0:
256,192,90760,1,0,0:0:0:0:
256,192,91135,1,0,0:0:0:0:
256,192,91322,1,8,0:0:0:0:
256,192,91510,1,0,0:0:0:0:
256,192,91885,1,0,0:0:0:0:
256,192,92072,1,0,0:0:0:0:
256,192,92260,1,0,0:0:0:0:
256,192,92447,1,8,0:0:0:0:
256,192,92541,1,8,0:0:0:0:
256,192,92635,1,8,0:0:0:0:
256,192,92822,1,8,0:0:0:0:
256,192,93010,1,0,0:0:0:0:
256,192,93385,1,0,0:0:0:0:
256,192,93572,1,8,0:0:0:0:
256,192,93760,1,0,0:0:0:0:
256,192,94135,1,8,0:0:0:0:
256,192,94510,1,0,0:0:0:0:
256,192,94697,1,8,0:0:0:0:
256,192,94885,1,0,0:0:0:0:
256,192,95072,1,8,0:0:0:0:
256,192,95260,1,0,0:0:0:0:
256,192,95447,1,8,0:0:0:0:
256,192,95541,1,8,0:0:0:0:
256,192,95635,1,8,0:0:0:0:
256,192,95822,1,0,0:0:0:0:
256,192,96010,5,12,0:0:0:0:
256,192,96197,1,0,0:0:0:0:
256,192,96384,1,8,0:0:0:0:
256,192,96572,1,0,0:0:0:0:
256,192,96759,1,8,0:0:0:0:
256,192,96947,1,0,0:0:0:0:
256,192,97135,1,8,0:0:0:0:
256,192,97322,1,8,0:0:0:0:
256,192,97510,1,8,0:0:0:0:
256,192,97697,1,0,0:0:0:0:
256,192,97885,1,8,0:0:0:0:
256,192,98072,1,0,0:0:0:0:
256,192,98260,1,8,0:0:0:0:
256,192,98447,1,0,0:0:0:0:
256,192,98634,1,8,0:0:0:0:
256,192,98822,1,8,0:0:0:0:
256,192,99009,1,8,0:0:0:0:
256,192,99103,1,0,0:0:0:0:
256,192,99197,1,0,0:0:0:0:
256,192,99291,1,0,0:0:0:0:
256,192,99385,1,8,0:0:0:0:
256,192,99572,1,8,0:0:0:0:
256,192,99760,1,8,0:0:0:0:
256,192,99853,1,8,0:0:0:0:
256,192,99947,1,0,0:0:0:0:
256,192,100041,1,0,0:0:0:0:
256,192,100135,1,8,0:0:0:0:
256,192,100322,1,8,0:0:0:0:
256,192,100510,1,8,0:0:0:0:
256,192,100603,1,0,0:0:0:0:
256,192,100697,1,0,0:0:0:0:
256,192,100884,1,8,0:0:0:0:
256,192,100978,1,0,0:0:0:0:
256,192,101072,1,8,0:0:0:0:
256,192,101259,1,8,0:0:0:0:
256,192,101353,1,8,0:0:0:0:
256,192,101447,1,0,0:0:0:0:
256,192,101541,1,0,0:0:0:0:
256,192,101635,1,8,0:0:0:0:
256,192,101822,1,0,0:0:0:0:
256,192,102010,1,8,0:0:0:0:
256,192,102197,1,0,0:0:0:0:
256,192,102385,1,8,0:0:0:0:
256,192,102572,1,0,0:0:0:0:
256,192,102760,1,8,0:0:0:0:
256,192,102947,1,0,0:0:0:0:
256,192,103134,1,8,0:0:0:0:
256,192,103322,1,8,0:0:0:0:
256,192,103509,1,8,0:0:0:0:
256,192,103697,1,0,0:0:0:0:
256,192,103885,1,8,0:0:0:0:
256,192,104072,1,0,0:0:0:0:
256,192,104260,1,8,0:0:0:0:
256,192,104447,1,8,0:0:0:0:
256,192,104635,1,8,0:0:0:0:
256,192,104822,1,0,0:0:0:0:
256,192,105010,1,8,0:0:0:0:
263,187,105103,1,8,0:0:0:0:
256,192,105197,1,8,0:0:0:0:
256,192,105384,1,0,0:0:0:0:
256,192,105572,1,8,0:0:0:0:
256,192,105759,1,8,0:0:0:0:
256,192,105947,1,0,0:0:0:0:
256,192,106041,1,0,0:0:0:0:
256,192,106135,1,8,0:0:0:0:
256,192,106322,1,0,0:0:0:0:
256,192,106510,1,8,0:0:0:0:
256,192,106603,1,8,0:0:0:0:
256,192,106697,1,8,0:0:0:0:
256,192,106885,1,0,0:0:0:0:
256,192,107072,1,8,0:0:0:0:
256,192,107260,1,8,0:0:0:0:
256,192,107447,1,8,0:0:0:0:
256,192,107541,1,0,0:0:0:0:
256,192,107634,1,8,0:0:0:0:
256,192,107822,1,0,0:0:0:0:
256,192,108010,1,8,0:0:0:0:
256,192,108291,1,0,0:0:0:0:
252,195,108385,1,8,0:0:0:0:
251,191,108572,1,0,0:0:0:0:
256,192,108947,1,8,0:0:0:0:
256,192,109041,1,0,0:0:0:0:
256,192,109135,1,8,0:0:0:0:
256,192,109322,1,8,0:0:0:0:
256,192,109416,1,0,0:0:0:0:
256,192,109510,1,8,0:0:0:0:
256,192,109697,1,0,0:0:0:0:
256,192,109884,1,8,0:0:0:0:
256,192,110072,1,8,0:0:0:0:
256,192,110259,1,0,0:0:0:0:
256,192,110447,1,8,0:0:0:0:
256,192,110635,1,8,0:0:0:0:
256,192,110822,1,0,0:0:0:0:
256,192,111010,1,8,0:0:0:0:
256,192,111103,1,8,0:0:0:0:
256,192,111197,1,8,0:0:0:0:
256,192,111291,1,0,0:0:0:0:
256,192,111385,1,8,0:0:0:0:
256,192,111478,1,8,0:0:0:0:
256,192,111572,1,8,0:0:0:0:
256,192,111666,1,0,0:0:0:0:
256,192,111760,1,8,0:0:0:0:
256,192,111853,1,8,0:0:0:0:
256,192,111947,1,0,0:0:0:0:
256,192,112041,1,0,0:0:0:0:
256,192,112135,1,8,0:0:0:0:
256,192,112322,1,0,0:0:0:0:
256,192,112510,1,8,0:0:0:0:
256,192,112603,1,8,0:0:0:0:
256,192,112697,1,8,0:0:0:0:
256,192,112791,1,0,0:0:0:0:
256,192,112884,1,8,0:0:0:0:
256,192,112978,1,8,0:0:0:0:
256,192,113072,1,0,0:0:0:0:
256,192,113166,1,0,0:0:0:0:
256,192,113259,1,8,0:0:0:0:
256,192,113447,1,0,0:0:0:0:
256,192,113635,1,8,0:0:0:0:
256,192,114010,1,8,0:0:0:0:
256,192,114197,1,0,0:0:0:0:
256,192,114291,1,0,0:0:0:0:
256,192,114385,1,8,0:0:0:0:
256,192,114572,1,8,0:0:0:0:
256,192,114760,1,0,0:0:0:0:
256,192,114947,1,0,0:0:0:0:
256,192,115041,1,0,0:0:0:0:
256,192,115134,1,8,0:0:0:0:
256,192,115322,1,8,0:0:0:0:
256,192,115509,1,0,0:0:0:0:
256,192,115697,1,8,0:0:0:0:
256,192,115791,1,0,0:0:0:0:
256,192,115885,1,8,0:0:0:0:
256,192,116072,1,8,0:0:0:0:
256,192,116260,1,0,0:0:0:0:
256,192,116447,1,8,0:0:0:0:
256,192,116541,1,0,0:0:0:0:
256,192,116635,1,8,0:0:0:0:
256,192,116822,1,8,0:0:0:0:
256,192,117010,1,8,0:0:0:0:
256,192,117103,1,8,0:0:0:0:
256,192,117197,1,0,0:0:0:0:
256,192,117291,1,0,0:0:0:0:
256,192,117384,1,8,0:0:0:0:
256,192,117478,1,8,0:0:0:0:
256,192,117572,1,8,0:0:0:0:
256,192,117665,1,0,0:0:0:0:
256,192,117759,1,8,0:0:0:0:
256,192,117853,1,8,0:0:0:0:
256,192,117947,1,0,0:0:0:0:
256,192,118040,1,8,0:0:0:0:
256,192,118135,1,8,0:0:0:0:
256,192,118228,1,8,0:0:0:0:
256,192,118322,1,8,0:0:0:0:
256,192,118416,1,0,0:0:0:0:
256,192,118510,1,8,0:0:0:0:
256,192,118603,1,8,0:0:0:0:
256,192,118697,1,8,0:0:0:0:
256,192,118791,1,0,0:0:0:0:
256,192,118885,1,8,0:0:0:0:
256,192,118978,1,8,0:0:0:0:
256,192,119072,1,0,0:0:0:0:
256,192,119166,1,0,0:0:0:0:
256,192,119260,1,8,0:0:0:0:
256,192,119353,1,0,0:0:0:0:
256,192,119447,1,8,0:0:0:0:
256,192,119541,1,8,0:0:0:0:
256,192,119634,1,0,0:0:0:0:
256,192,119728,1,8,0:0:0:0:
256,192,119822,1,0,0:0:0:0:
256,192,119916,1,0,0:0:0:0:
256,192,120010,1,12,0:0:0:0:
256,192,120197,12,0,122635,0:0:0:0:
256,192,123385,5,8,0:0:0:0:
256,192,124135,1,8,0:0:0:0:
256,192,124885,1,8,0:0:0:0:
256,192,125260,1,0,0:0:0:0:
256,192,125635,1,8,0:0:0:0:
256,192,126385,1,8,0:0:0:0:
256,192,127135,1,8,0:0:0:0:
256,192,127885,1,8,0:0:0:0:
256,192,128260,1,0,0:0:0:0:
256,192,128635,1,8,0:0:0:0:
256,192,129010,1,0,0:0:0:0:
256,192,129385,1,8,0:0:0:0:
256,192,130135,1,8,0:0:0:0:
256,192,130885,1,8,0:0:0:0:
256,192,131447,1,8,0:0:0:0:
256,192,131635,1,8,0:0:0:0:
256,192,131822,1,8,0:0:0:0:
256,192,132010,1,0,0:0:0:0:
256,192,132385,1,0,0:0:0:0:
256,192,132572,1,0,0:0:0:0:
256,192,132760,1,8,0:0:0:0:
256,192,133135,1,8,0:0:0:0:
256,192,133322,1,0,0:0:0:0:
256,192,133510,1,8,0:0:0:0:
256,192,133885,1,0,0:0:0:0:
256,192,134072,1,8,0:0:0:0:
256,192,134260,1,8,0:0:0:0:
256,192,134635,1,8,0:0:0:0:
256,192,134822,1,8,0:0:0:0:
256,192,135010,1,8,0:0:0:0:
256,192,135385,1,0,0:0:0:0:
256,192,135572,1,0,0:0:0:0:
256,192,135760,1,8,0:0:0:0:
256,192,136135,1,8,0:0:0:0:
256,192,136322,1,0,0:0:0:0:
256,192,136510,1,8,0:0:0:0:
256,192,136885,1,0,0:0:0:0:
256,192,137072,1,0,0:0:0:0:
256,192,137260,1,8,0:0:0:0:
256,192,137635,1,8,0:0:0:0:
256,192,137822,1,0,0:0:0:0:
256,192,138010,1,0,0:0:0:0:
256,192,138385,1,8,0:0:0:0:
256,192,138572,1,0,0:0:0:0:
256,192,138760,1,8,0:0:0:0:
256,192,139135,1,0,0:0:0:0:
256,192,139322,1,8,0:0:0:0:
256,192,139510,1,8,0:0:0:0:
256,192,139885,1,8,0:0:0:0:
256,192,140072,1,0,0:0:0:0:
256,192,140260,1,8,0:0:0:0:
256,192,140447,1,0,0:0:0:0:
256,192,140635,1,8,0:0:0:0:
256,192,140822,1,0,0:0:0:0:
256,192,141010,1,0,0:0:0:0:
256,192,141385,1,8,0:0:0:0:
256,192,141572,1,0,0:0:0:0:
256,192,141760,1,0,0:0:0:0:
256,192,142135,1,0,0:0:0:0:
256,192,142322,1,8,0:0:0:0:
256,192,142510,1,0,0:0:0:0:
256,192,142885,1,8,0:0:0:0:
256,192,143072,1,0,0:0:0:0:
256,192,143260,1,0,0:0:0:0:
256,192,143447,1,8,0:0:0:0:
256,192,143635,1,8,0:0:0:0:
256,192,143822,1,8,0:0:0:0:
256,192,144010,5,4,0:0:0:0:
256,192,144197,1,8,0:0:0:0:
256,192,144385,1,0,0:0:0:0:
256,192,144478,1,0,0:0:0:0:
256,192,144572,1,0,0:0:0:0:
256,192,144760,1,0,0:0:0:0:
256,192,144947,1,8,0:0:0:0:
256,192,145135,1,0,0:0:0:0:
256,192,145228,1,0,0:0:0:0:
256,192,145322,1,0,0:0:0:0:
256,192,145510,1,0,0:0:0:0:
256,192,145697,1,8,0:0:0:0:
256,192,145885,1,0,0:0:0:0:
256,192,145978,1,0,0:0:0:0:
256,192,146072,1,0,0:0:0:0:
256,192,146260,1,0,0:0:0:0:
256,192,146447,1,8,0:0:0:0:
256,192,146635,1,8,0:0:0:0:
256,192,146728,1,8,0:0:0:0:
256,192,146822,1,8,0:0:0:0:
256,192,147010,1,0,0:0:0:0:
256,192,147197,1,8,0:0:0:0:
256,192,147385,1,0,0:0:0:0:
256,192,147478,1,0,0:0:0:0:
256,192,147572,1,0,0:0:0:0:
256,192,147760,1,0,0:0:0:0:
256,192,147947,1,8,0:0:0:0:
256,192,148135,1,0,0:0:0:0:
256,192,148228,1,0,0:0:0:0:
256,192,148322,1,0,0:0:0:0:
256,192,148510,1,0,0:0:0:0:
256,192,148697,1,8,0:0:0:0:
256,192,148885,1,0,0:0:0:0:
224,192,148978,1,0,0:0:0:0:
224,192,149072,1,0,0:0:0:0:
256,192,149260,1,0,0:0:0:0:
256,192,149447,1,8,0:0:0:0:
256,192,149635,1,8,0:0:0:0:
256,192,149728,1,8,0:0:0:0:
256,192,149822,1,8,0:0:0:0:
256,192,150010,1,8,0:0:0:0:
256,192,150197,1,0,0:0:0:0:
256,192,150385,1,8,0:0:0:0:
256,192,150478,1,8,0:0:0:0:
256,192,150572,1,8,0:0:0:0:
256,192,150760,1,8,0:0:0:0:
256,192,150947,1,0,0:0:0:0:
256,192,151135,1,8,0:0:0:0:
256,192,151228,1,8,0:0:0:0:
256,192,151322,1,8,0:0:0:0:
256,192,151510,1,8,0:0:0:0:
256,192,151697,1,0,0:0:0:0:
256,192,151885,1,8,0:0:0:0:
256,192,151978,1,8,0:0:0:0:
256,192,152072,1,8,0:0:0:0:
256,192,152260,1,8,0:0:0:0:
256,192,152447,1,0,0:0:0:0:
256,192,152635,1,8,0:0:0:0:
256,192,152822,1,8,0:0:0:0:
256,192,153010,1,0,0:0:0:0:
256,192,153197,1,8,0:0:0:0:
256,192,153385,1,0,0:0:0:0:
256,192,153478,1,0,0:0:0:0:
256,192,153572,1,0,0:0:0:0:
256,192,153760,1,0,0:0:0:0:
256,192,153947,1,8,0:0:0:0:
256,192,154135,1,0,0:0:0:0:
256,192,154228,1,0,0:0:0:0:
256,192,154322,1,0,0:0:0:0:
256,192,154510,1,0,0:0:0:0:
256,192,154885,1,0,0:0:0:0:
256,192,155260,1,8,0:0:0:0:
256,192,155447,1,8,0:0:0:0:
256,192,155635,1,8,0:0:0:0:
256,192,155728,1,8,0:0:0:0:
256,192,155822,1,8,0:0:0:0:
256,192,156010,5,4,0:0:0:0:
256,192,156385,1,0,0:0:0:0:
260,195,156478,1,0,0:0:0:0:
256,192,156572,1,0,0:0:0:0:
256,192,156760,1,8,0:0:0:0:
256,192,157135,1,8,0:0:0:0:
256,192,157228,1,0,0:0:0:0:
256,192,157322,1,0,0:0:0:0:
256,192,157510,1,8,0:0:0:0:
256,192,157885,1,8,0:0:0:0:
256,192,157978,1,0,0:0:0:0:
256,192,158072,1,0,0:0:0:0:
256,192,158260,1,8,0:0:0:0:
256,192,158635,1,0,0:0:0:0:
256,192,158728,1,0,0:0:0:0:
256,192,158822,1,0,0:0:0:0:
256,192,159010,1,8,0:0:0:0:
256,192,159385,1,0,0:0:0:0:
256,192,159478,1,0,0:0:0:0:
256,192,159572,1,0,0:0:0:0:
256,192,159760,1,8,0:0:0:0:
256,192,160135,1,8,0:0:0:0:
256,192,160228,1,0,0:0:0:0:
256,192,160322,1,0,0:0:0:0:
256,192,160510,1,8,0:0:0:0:
256,192,160885,1,8,0:0:0:0:
256,192,160978,1,0,0:0:0:0:
256,192,161072,1,0,0:0:0:0:
256,192,161260,1,8,0:0:0:0:
256,192,161635,1,0,0:0:0:0:
256,192,161728,1,0,0:0:0:0:
256,192,161822,1,0,0:0:0:0:
256,192,162010,1,8,0:0:0:0:
256,192,162385,1,8,0:0:0:0:
256,192,162478,1,0,0:0:0:0:
256,192,162572,1,8,0:0:0:0:
256,192,162760,1,0,0:0:0:0:
256,192,163135,1,0,0:0:0:0:
256,192,163228,1,0,0:0:0:0:
256,192,163322,1,0,0:0:0:0:
256,192,163510,1,8,0:0:0:0:
256,192,163885,1,8,0:0:0:0:
256,192,163978,1,0,0:0:0:0:
256,192,164072,1,0,0:0:0:0:
256,192,164260,1,8,0:0:0:0:
256,192,164635,1,8,0:0:0:0:
256,192,164728,1,0,0:0:0:0:
256,192,164822,1,0,0:0:0:0:
256,192,165010,1,0,0:0:0:0:
256,192,165385,1,0,0:0:0:0:
256,192,165478,1,0,0:0:0:0:
256,192,165572,1,0,0:0:0:0:
256,192,165760,1,8,0:0:0:0:
256,192,166135,1,8,0:0:0:0:
256,192,166228,1,0,0:0:0:0:
256,192,166322,1,0,0:0:0:0:
256,192,166510,1,8,0:0:0:0:
256,192,166885,1,8,0:0:0:0:
256,192,167072,1,0,0:0:0:0:
256,192,167260,1,8,0:0:0:0:
256,192,167353,1,0,0:0:0:0:
256,192,167447,1,8,0:0:0:0:
256,192,167634,1,8,0:0:0:0:
256,192,167728,1,8,0:0:0:0:
256,192,167822,1,0,0:0:0:0:
256,192,167916,1,0,0:0:0:0:
256,192,168010,1,12,0:0:0:0:
256,192,168197,1,0,0:0:0:0:
256,192,168385,1,0,0:0:0:0:
256,192,168478,1,0,0:0:0:0:
256,192,168572,1,0,0:0:0:0:
256,192,168666,1,0,0:0:0:0:
256,192,168760,1,8,0:0:0:0:
256,192,168947,1,0,0:0:0:0:
256,192,169135,1,0,0:0:0:0:
256,192,169228,1,0,0:0:0:0:
256,192,169322,1,8,0:0:0:0:
256,192,169416,1,0,0:0:0:0:
256,192,169510,1,8,0:0:0:0:
256,192,169697,1,0,0:0:0:0:
256,192,169885,1,8,0:0:0:0:
256,192,169978,1,0,0:0:0:0:
256,192,170072,1,8,0:0:0:0:
256,192,170166,1,0,0:0:0:0:
256,192,170260,1,8,0:0:0:0:
256,192,170447,1,0,0:0:0:0:
256,192,170635,1,8,0:0:0:0:
256,192,170728,1,0,0:0:0:0:
256,192,170822,1,0,0:0:0:0:
256,192,170916,1,0,0:0:0:0:
256,192,171010,1,8,0:0:0:0:
256,192,171197,1,0,0:0:0:0:
256,192,171385,1,8,0:0:0:0:
256,192,171478,1,0,0:0:0:0:
256,192,171572,1,8,0:0:0:0:
256,192,171666,1,0,0:0:0:0:
256,192,171760,1,8,0:0:0:0:
256,192,171947,1,0,0:0:0:0:
256,192,172135,1,0,0:0:0:0:
256,192,172228,1,0,0:0:0:0:
256,192,172322,1,8,0:0:0:0:
256,192,172416,1,0,0:0:0:0:
256,192,172510,1,8,0:0:0:0:
256,192,172697,1,0,0:0:0:0:
256,192,172885,1,8,0:0:0:0:
256,192,172978,1,0,0:0:0:0:
256,192,173072,1,0,0:0:0:0:
256,192,173166,1,0,0:0:0:0:
256,192,173260,1,8,0:0:0:0:
256,192,173447,1,0,0:0:0:0:
256,192,173635,1,8,0:0:0:0:
256,192,173728,1,8,0:0:0:0:
256,192,173822,1,8,0:0:0:0:
256,192,174010,1,0,0:0:0:0:
256,192,174197,1,0,0:0:0:0:
256,192,174385,1,8,0:0:0:0:
256,192,174478,1,0,0:0:0:0:
256,192,174572,1,0,0:0:0:0:
256,192,174666,1,0,0:0:0:0:
256,192,174760,1,0,0:0:0:0:
256,192,174947,1,0,0:0:0:0:
256,192,175135,1,8,0:0:0:0:
256,192,175228,1,0,0:0:0:0:
256,192,175322,1,0,0:0:0:0:
256,192,175416,1,0,0:0:0:0:
256,192,175510,1,8,0:0:0:0:
256,192,175697,1,0,0:0:0:0:
256,192,175885,1,8,0:0:0:0:
256,192,175978,1,0,0:0:0:0:
256,192,176072,1,0,0:0:0:0:
256,192,176166,1,0,0:0:0:0:
256,192,176260,1,8,0:0:0:0:
256,192,176447,1,0,0:0:0:0:
256,192,176635,1,0,0:0:0:0:
256,192,176728,1,0,0:0:0:0:
256,192,176822,1,0,0:0:0:0:
256,192,177010,1,0,0:0:0:0:
256,192,177197,1,0,0:0:0:0:
256,192,177385,1,8,0:0:0:0:
256,192,177478,1,0,0:0:0:0:
256,192,177572,1,0,0:0:0:0:
256,192,177760,1,8,0:0:0:0:
256,192,177947,1,0,0:0:0:0:
256,192,178135,1,8,0:0:0:0:
256,192,178228,1,0,0:0:0:0:
256,192,178322,1,8,0:0:0:0:
256,192,178416,1,0,0:0:0:0:
256,192,178510,1,8,0:0:0:0:
256,192,178697,1,0,0:0:0:0:
256,192,178885,1,8,0:0:0:0:
256,192,178978,1,0,0:0:0:0:
256,192,179072,1,0,0:0:0:0:
256,192,179260,1,8,0:0:0:0:
256,192,179447,1,8,0:0:0:0:
256,192,179634,1,8,0:0:0:0:
256,192,179728,1,8,0:0:0:0:
256,192,179822,1,8,0:0:0:0:
256,192,180010,5,8,0:0:0:0:
256,192,180103,1,8,0:0:0:0:
256,192,180197,1,8,0:0:0:0:
256,192,180291,1,8,0:0:0:0:
256,192,180385,1,0,0:0:0:0:
256,192,180478,1,0,0:0:0:0:
256,192,180572,1,0,0:0:0:0:
256,192,180666,1,0,0:0:0:0:
256,192,180760,1,8,0:0:0:0:
256,192,180853,1,8,0:0:0:0:
256,192,180947,1,8,0:0:0:0:
256,192,181041,1,8,0:0:0:0:
256,192,181135,1,0,0:0:0:0:
256,192,181228,1,0,0:0:0:0:
256,192,181321,1,0,0:0:0:0:
256,192,181415,1,0,0:0:0:0:
256,192,181509,1,8,0:0:0:0:
256,192,181603,1,8,0:0:0:0:
256,192,181696,1,0,0:0:0:0:
256,192,181790,1,0,0:0:0:0:
256,192,181884,1,8,0:0:0:0:
256,192,181978,1,8,0:0:0:0:
256,192,182071,1,0,0:0:0:0:
256,192,182165,1,0,0:0:0:0:
256,192,182259,1,8,0:0:0:0:
256,192,182353,1,8,0:0:0:0:
256,192,182447,1,8,0:0:0:0:
256,192,182541,1,0,0:0:0:0:
256,192,182634,1,8,0:0:0:0:
256,192,182728,1,8,0:0:0:0:
256,192,182822,1,8,0:0:0:0:
256,192,182916,1,0,0:0:0:0:
256,192,183010,1,8,0:0:0:0:
256,192,183103,1,8,0:0:0:0:
256,192,183197,1,8,0:0:0:0:
256,192,183290,1,8,0:0:0:0:
256,192,183384,1,0,0:0:0:0:
256,192,183478,1,0,0:0:0:0:
256,192,183572,1,0,0:0:0:0:
256,192,183666,1,0,0:0:0:0:
256,192,183759,1,8,0:0:0:0:
256,192,183853,1,8,0:0:0:0:
256,192,183947,1,8,0:0:0:0:
256,192,184041,1,8,0:0:0:0:
256,192,184134,1,0,0:0:0:0:
256,192,184228,1,0,0:0:0:0:
256,192,184322,1,0,0:0:0:0:
256,192,184416,1,0,0:0:0:0:
256,192,184509,1,8,0:0:0:0:
256,192,184603,1,8,0:0:0:0:
256,192,184697,1,8,0:0:0:0:
256,192,184791,1,0,0:0:0:0:
256,192,184885,1,8,0:0:0:0:
256,192,184978,1,8,0:0:0:0:
256,192,185072,1,8,0:0:0:0:
256,192,185166,1,0,0:0:0:0:
256,192,185260,1,8,0:0:0:0:
256,192,185353,1,8,0:0:0:0:
256,192,185447,1,8,0:0:0:0:
256,192,185541,1,0,0:0:0:0:
256,192,185635,1,8,0:0:0:0:
256,192,185728,1,0,0:0:0:0:
256,192,185822,1,8,0:0:0:0:
256,192,185916,1,0,0:0:0:0:
256,192,186010,1,8,0:0:0:0:
256,192,186103,1,8,0:0:0:0:
256,192,186196,1,8,0:0:0:0:
256,192,186290,1,0,0:0:0:0:
256,192,186384,1,8,0:0:0:0:
256,192,186478,1,8,0:0:0:0:
256,192,186571,1,8,0:0:0:0:
256,192,186665,1,0,0:0:0:0:
256,192,186759,1,8,0:0:0:0:
256,192,186853,1,8,0:0:0:0:
256,192,186946,1,8,0:0:0:0:
256,192,187040,1,0,0:0:0:0:
256,192,187134,1,8,0:0:0:0:
256,192,187228,1,8,0:0:0:0:
256,192,187322,1,8,0:0:0:0:
256,192,187415,1,0,0:0:0:0:
256,192,187509,1,8,0:0:0:0:
256,192,187603,1,8,0:0:0:0:
256,192,187697,1,0,0:0:0:0:
256,192,187790,1,0,0:0:0:0:
256,192,187884,1,8,0:0:0:0:
256,192,187978,1,8,0:0:0:0:
256,192,188072,1,0,0:0:0:0:
256,192,188165,1,0,0:0:0:0:
256,192,188259,1,8,0:0:0:0:
256,192,188353,1,8,0:0:0:0:
256,192,188447,1,0,0:0:0:0:
256,192,188541,1,0,0:0:0:0:
256,192,188634,1,8,0:0:0:0:
256,192,188728,1,0,0:0:0:0:
256,192,188822,1,8,0:0:0:0:
256,192,188916,1,0,0:0:0:0:
256,192,189009,1,8,0:0:0:0:
256,192,189103,1,8,0:0:0:0:
256,192,189197,1,8,0:0:0:0:
256,192,189291,1,0,0:0:0:0:
256,192,189384,1,8,0:0:0:0:
256,192,189478,1,8,0:0:0:0:
256,192,189572,1,8,0:0:0:0:
256,192,189666,1,0,0:0:0:0:
256,192,189760,1,8,0:0:0:0:
256,192,189853,1,8,0:0:0:0:
256,192,189947,1,8,0:0:0:0:
256,192,190041,1,0,0:0:0:0:
256,192,190135,1,8,0:0:0:0:
256,192,190228,1,8,0:0:0:0:
256,192,190322,1,8,0:0:0:0:
256,192,190416,1,0,0:0:0:0:
256,192,190511,1,8,0:0:0:0:
256,192,190604,1,8,0:0:0:0:
256,192,190697,1,0,0:0:0:0:
256,192,190791,1,0,0:0:0:0:
256,192,190886,1,8,0:0:0:0:
256,192,190979,1,8,0:0:0:0:
256,192,191072,1,0,0:0:0:0:
256,192,191166,1,8,0:0:0:0:
256,192,191259,1,0,0:0:0:0:
256,192,191353,1,0,0:0:0:0:
256,192,191447,1,8,0:0:0:0:
256,192,191540,1,0,0:0:0:0:
256,192,191634,1,8,0:0:0:0:
256,192,191728,1,0,0:0:0:0:
256,192,191821,1,8,0:0:0:0:
256,192,191916,1,0,0:0:0:0:
256,192,192009,1,8,0:0:0:0:
256,192,192103,1,8,0:0:0:0:
256,192,192196,1,8,0:0:0:0:
256,192,192290,1,8,0:0:0:0:
256,192,192384,1,0,0:0:0:0:
256,192,192478,1,0,0:0:0:0:
256,192,192572,1,0,0:0:0:0:
256,192,192665,1,0,0:0:0:0:
256,192,192759,1,8,0:0:0:0:
256,192,192853,1,8,0:0:0:0:
256,192,192947,1,8,0:0:0:0:
256,192,193040,1,8,0:0:0:0:
256,192,193134,1,0,0:0:0:0:
256,192,193228,1,0,0:0:0:0:
256,192,193322,1,0,0:0:0:0:
256,192,193416,1,0,0:0:0:0:
256,192,193509,1,8,0:0:0:0:
256,192,193603,1,8,0:0:0:0:
256,192,193697,1,0,0:0:0:0:
256,192,193791,1,0,0:0:0:0:
256,192,193884,1,8,0:0:0:0:
256,192,193978,1,8,0:0:0:0:
256,192,194072,1,0,0:0:0:0:
256,192,194166,1,0,0:0:0:0:
256,192,194259,1,8,0:0:0:0:
256,192,194353,1,8,0:0:0:0:
256,192,194447,1,0,0:0:0:0:
256,192,194541,1,0,0:0:0:0:
256,192,194635,1,8,0:0:0:0:
256,192,194728,1,8,0:0:0:0:
256,192,194822,1,0,0:0:0:0:
256,192,194916,1,0,0:0:0:0:
256,192,195010,1,8,0:0:0:0:
256,192,195103,1,8,0:0:0:0:
256,192,195197,1,8,0:0:0:0:
256,192,195291,1,0,0:0:0:0:
256,192,195385,1,8,0:0:0:0:
256,192,195478,1,8,0:0:0:0:
256,192,195572,1,8,0:0:0:0:
256,192,195666,1,0,0:0:0:0:
256,192,195760,1,8,0:0:0:0:
256,192,195853,1,8,0:0:0:0:
256,192,195946,1,8,0:0:0:0:
256,192,196040,1,0,0:0:0:0:
256,192,196134,1,8,0:0:0:0:
256,192,196228,1,8,0:0:0:0:
256,192,196321,1,8,0:0:0:0:
256,192,196415,1,0,0:0:0:0:
256,192,196510,1,8,0:0:0:0:
256,192,196604,1,8,0:0:0:0:
256,192,196696,1,0,0:0:0:0:
256,192,196790,1,0,0:0:0:0:
256,192,196885,1,8,0:0:0:0:
256,192,196978,1,8,0:0:0:0:
256,192,197072,1,0,0:0:0:0:
256,192,197165,1,0,0:0:0:0:
256,192,197259,1,8,0:0:0:0:
256,192,197353,1,8,0:0:0:0:
256,192,197447,1,0,0:0:0:0:
256,192,197540,1,0,0:0:0:0:
256,192,197634,1,8,0:0:0:0:
256,192,197728,1,8,0:0:0:0:
256,192,197822,1,8,0:0:0:0:
256,192,197916,1,8,0:0:0:0:
256,192,198009,1,0,0:0:0:0:
256,192,198196,1,8,0:0:0:0:
256,192,198385,1,0,0:0:0:0:
256,192,198571,1,8,0:0:0:0:
256,192,198760,1,0,0:0:0:0:
256,192,198947,1,8,0:0:0:0:
256,192,199135,1,0,0:0:0:0:
256,192,199322,1,8,0:0:0:0:
256,192,199511,1,0,0:0:0:0:
256,192,199697,1,8,0:0:0:0:
256,192,199885,1,0,0:0:0:0:
256,192,200073,1,8,0:0:0:0:
256,192,200260,1,0,0:0:0:0:
256,192,200447,1,0,0:0:0:0:
252,189,200541,1,0,0:0:0:0:
256,192,200635,1,8,0:0:0:0:
256,192,200822,1,0,0:0:0:0:
251,195,200916,1,0,0:0:0:0:
256,192,201009,1,8,0:0:0:0:
256,192,201198,1,0,0:0:0:0:
256,192,201385,1,8,0:0:0:0:
256,192,201572,1,0,0:0:0:0:
256,192,201760,1,8,0:0:0:0:
256,192,201948,1,0,0:0:0:0:
256,192,202135,1,8,0:0:0:0:
256,192,202323,1,0,0:0:0:0:
256,192,202511,1,8,0:0:0:0:
256,192,202697,1,0,0:0:0:0:
256,192,202885,1,8,0:0:0:0:
256,192,203073,1,0,0:0:0:0:
256,192,203260,1,8,0:0:0:0:
256,192,203447,1,8,0:0:0:0:
256,192,203635,1,8,0:0:0:0:
256,192,203728,1,8,0:0:0:0:
256,192,203822,1,8,0:0:0:0:
256,192,204010,1,4,0:0:0:0:
256,192,237401,5,4,0:0:0:0:
256,192,238444,1,4,0:0:0:0:
256,192,238705,1,0,0:0:0:0:
256,192,239488,1,0,0:0:0:0:
256,192,239749,1,8,0:0:0:0:
256,192,240010,1,8,0:0:0:0:
256,192,240531,1,0,0:0:0:0:
256,192,240792,1,8,0:0:0:0:
256,192,241053,1,8,0:0:0:0:
256,192,241575,1,4,0:0:0:0:
256,192,242618,1,4,0:0:0:0:
256,192,242879,1,0,0:0:0:0:
256,192,243662,1,0,0:0:0:0:
256,192,243923,1,8,0:0:0:0:
256,192,244183,1,8,0:0:0:0:
256,192,244705,1,0,0:0:0:0:
256,192,244966,1,0,0:0:0:0:
256,192,245227,1,0,0:0:0:0:
256,192,245357,1,0,0:0:0:0:
256,192,245488,1,0,0:0:0:0:
256,192,245749,1,4,0:0:0:0:
256,192,246792,1,4,0:0:0:0:
256,192,247053,1,0,0:0:0:0:
256,192,247836,1,0,0:0:0:0:
256,192,248096,1,8,0:0:0:0:
256,192,248357,1,8,0:0:0:0:
256,192,248879,1,0,0:0:0:0:
256,192,249140,1,8,0:0:0:0:
256,192,249401,1,8,0:0:0:0:
256,192,249923,1,4,0:0:0:0:
256,192,250966,1,4,0:0:0:0:
256,192,251227,1,0,0:0:0:0:
256,192,252010,1,0,0:0:0:0:
256,192,252270,1,8,0:0:0:0:
256,192,252531,1,8,0:0:0:0:
256,192,253053,1,0,0:0:0:0:
256,192,253314,1,8,0:0:0:0:
256,192,253575,1,8,0:0:0:0:
256,192,253705,1,8,0:0:0:0:
256,192,253836,1,8,0:0:0:0:
256,192,254096,1,8,0:0:0:0:
256,192,254227,1,8,0:0:0:0:
256,192,254357,1,0,0:0:0:0:
256,192,254487,1,8,0:0:0:0:
256,192,254618,1,8,0:0:0:0:
256,192,254749,1,0,0:0:0:0:
256,192,254879,1,8,0:0:0:0:
256,192,255010,1,8,0:0:0:0:
256,192,255141,1,0,0:0:0:0:
256,192,255270,1,8,0:0:0:0:
256,192,255401,1,8,0:0:0:0:
256,192,255532,1,0,0:0:0:0:
256,192,255662,1,8,0:0:0:0:
256,192,255793,1,8,0:0:0:0:
256,192,255923,1,8,0:0:0:0:
256,192,256053,1,0,0:0:0:0:
256,192,256184,1,8,0:0:0:0:
256,192,256314,1,8,0:0:0:0:
256,192,256445,1,0,0:0:0:0:
256,192,256575,1,8,0:0:0:0:
256,192,256705,1,8,0:0:0:0:
256,192,256836,1,0,0:0:0:0:
256,192,256966,1,8,0:0:0:0:
256,192,257097,1,8,0:0:0:0:
256,192,257227,1,0,0:0:0:0:
256,192,257357,1,8,0:0:0:0:
256,192,257488,1,8,0:0:0:0:
256,192,257618,1,0,0:0:0:0:
256,192,257749,1,8,0:0:0:0:
256,192,257879,1,8,0:0:0:0:
256,192,258010,1,8,0:0:0:0:
256,192,258141,1,0,0:0:0:0:
256,192,258271,1,8,0:0:0:0:
256,192,258402,1,0,0:0:0:0:
256,192,258532,1,0,0:0:0:0:
256,192,258662,1,8,0:0:0:0:
256,192,258792,1,0,0:0:0:0:
256,192,258922,1,0,0:0:0:0:
256,192,259053,1,8,0:0:0:0:
256,192,259183,1,0,0:0:0:0:
256,192,259314,1,0,0:0:0:0:
256,192,259444,1,8,0:0:0:0:
256,192,259574,1,0,0:0:0:0:
256,192,259705,1,0,0:0:0:0:
256,192,259835,1,8,0:0:0:0:
256,192,259966,1,8,0:0:0:0:
256,192,260096,1,8,0:0:0:0:
256,192,260226,1,0,0:0:0:0:
256,192,260357,1,8,0:0:0:0:
256,192,260487,1,0,0:0:0:0:
256,192,260618,1,0,0:0:0:0:
256,192,260748,1,8,0:0:0:0:
256,192,260879,1,0,0:0:0:0:
256,192,261010,1,0,0:0:0:0:
256,192,261140,1,8,0:0:0:0:
256,192,261271,1,0,0:0:0:0:
256,192,261401,1,0,0:0:0:0:
256,192,261531,1,8,0:0:0:0:
256,192,261661,1,0,0:0:0:0:
256,192,261791,1,0,0:0:0:0:
256,192,261922,1,8,0:0:0:0:
256,192,262052,1,8,0:0:0:0:
256,192,262183,1,8,0:0:0:0:
256,192,262443,1,8,0:0:0:0:
256,192,262575,1,8,0:0:0:0:
256,192,262705,1,0,0:0:0:0:
256,192,262835,1,8,0:0:0:0:
256,192,262966,1,8,0:0:0:0:
256,192,263095,1,0,0:0:0:0:
256,192,263227,1,8,0:0:0:0:
256,192,263356,1,8,0:0:0:0:
256,192,263487,1,0,0:0:0:0:
256,192,263618,1,8,0:0:0:0:
256,192,263749,1,8,0:0:0:0:
256,192,263878,1,0,0:0:0:0:
256,192,264010,1,8,0:0:0:0:
256,192,264139,1,8,0:0:0:0:
256,192,264269,1,8,0:0:0:0:
256,192,264401,1,0,0:0:0:0:
256,192,264530,1,8,0:0:0:0:
256,192,264662,1,8,0:0:0:0:
256,192,264791,1,0,0:0:0:0:
256,192,264923,1,8,0:0:0:0:
256,192,265053,1,8,0:0:0:0:
256,192,265182,1,0,0:0:0:0:
256,192,265314,1,8,0:0:0:0:
256,192,265443,1,8,0:0:0:0:
256,192,265575,1,0,0:0:0:0:
256,192,265705,1,8,0:0:0:0:
256,192,265836,1,8,0:0:0:0:
256,192,265966,1,0,0:0:0:0:
256,192,266095,1,8,0:0:0:0:
256,192,266227,1,8,0:0:0:0:
256,192,266356,1,8,0:0:0:0:
256,192,266487,1,0,0:0:0:0:
256,192,266617,1,8,0:0:0:0:
256,192,266748,1,0,0:0:0:0:
256,192,266878,1,0,0:0:0:0:
256,192,267010,1,8,0:0:0:0:
256,192,267140,1,0,0:0:0:0:
256,192,267270,1,0,0:0:0:0:
256,192,267401,1,8,0:0:0:0:
256,192,267531,1,0,0:0:0:0:
256,192,267662,1,0,0:0:0:0:
256,192,267792,1,8,0:0:0:0:
256,192,267922,1,0,0:0:0:0:
256,192,268053,1,0,0:0:0:0:
256,192,268183,1,8,0:0:0:0:
256,192,268314,1,0,0:0:0:0:
256,192,268444,1,8,0:0:0:0:
256,192,268574,1,0,0:0:0:0:
256,192,268705,1,8,0:0:0:0:
256,192,268835,1,8,0:0:0:0:
256,192,268965,1,8,0:0:0:0:
256,192,269096,1,0,0:0:0:0:
256,192,269227,1,8,0:0:0:0:
256,192,269356,1,8,0:0:0:0:
256,192,269488,1,8,0:0:0:0:
256,192,269617,1,0,0:0:0:0:
256,192,269749,1,8,0:0:0:0:
256,192,269879,1,8,0:0:0:0:
256,192,270009,1,0,0:0:0:0:
256,192,270139,1,8,0:0:0:0:
256,192,270270,1,0,0:0:0:0:
256,192,270400,1,0,0:0:0:0:
256,192,270531,1,0,0:0:0:0:
256,192,270793,1,0,0:0:0:0:
256,192,271053,1,0,0:0:0:0:
256,192,271314,1,8,0:0:0:0:
256,192,271575,1,8,0:0:0:0:
256,192,271835,1,8,0:0:0:0:
256,192,271965,1,8,0:0:0:0:
256,192,272096,1,8,0:0:0:0:
256,192,272226,1,0,0:0:0:0:
256,192,272357,1,8,0:0:0:0:
256,192,272488,1,0,0:0:0:0:
256,192,272618,1,8,0:0:0:0:
256,192,272878,1,0,0:0:0:0:
256,192,273139,1,0,0:0:0:0:
256,192,273270,1,8,0:0:0:0:
256,192,273400,1,0,0:0:0:0:
256,192,273661,1,8,0:0:0:0:
256,192,273922,1,0,0:0:0:0:
256,192,274183,1,8,0:0:0:0:
256,192,274445,1,8,0:0:0:0:
256,192,274575,1,8,0:0:0:0:
256,192,274705,1,8,0:0:0:0:
256,192,274836,1,8,0:0:0:0:
256,192,274966,1,0,0:0:0:0:
256,192,275227,1,0,0:0:0:0:
256,192,275357,1,0,0:0:0:0:
256,192,275488,1,8,0:0:0:0:
256,192,275749,1,0,0:0:0:0:
256,192,276010,1,8,0:0:0:0:
256,192,276270,1,0,0:0:0:0:
256,192,276531,1,8,0:0:0:0:
256,192,276662,1,0,0:0:0:0:
256,192,276792,1,8,0:0:0:0:
256,192,277053,1,8,0:0:0:0:
256,192,277183,1,8,0:0:0:0:
256,192,277314,1,0,0:0:0:0:
256,192,277444,1,8,0:0:0:0:
256,192,277575,1,0,0:0:0:0:
256,192,277836,1,0,0:0:0:0:
256,192,278097,1,8,0:0:0:0:
256,192,278358,1,0,0:0:0:0:
256,192,278618,1,0,0:0:0:0:
256,192,278749,1,0,0:0:0:0:
256,192,278879,1,0,0:0:0:0:
256,192,279140,1,4,0:0:0:0:
256,192,279401,1,0,0:0:0:0:
256,192,279662,1,8,0:0:0:0:
256,192,279923,1,0,0:0:0:0:
256,192,280183,1,8,0:0:0:0:
256,192,280444,1,0,0:0:0:0:
256,192,280705,1,8,0:0:0:0:
256,192,280836,1,8,0:0:0:0:
256,192,280966,1,0,0:0:0:0:
256,192,281096,1,0,0:0:0:0:
256,192,281227,1,8,0:0:0:0:
256,192,281488,1,0,0:0:0:0:
256,192,281618,1,8,0:0:0:0:
256,192,281749,1,0,0:0:0:0:
256,192,282010,1,8,0:0:0:0:
256,192,282270,1,0,0:0:0:0:
256,192,282531,1,8,0:0:0:0:
256,192,282792,1,0,0:0:0:0:
256,192,282923,1,8,0:0:0:0:
256,192,283053,1,8,0:0:0:0:
256,192,283183,1,8,0:0:0:0:
256,192,283314,1,0,0:0:0:0:
256,192,283575,1,0,0:0:0:0:
256,192,283836,1,8,0:0:0:0:
256,192,283966,1,8,0:0:0:0:
256,192,284097,1,0,0:0:0:0:
256,192,284227,1,8,0:0:0:0:
256,192,284357,1,8,0:0:0:0:
256,192,284488,1,0,0:0:0:0:
256,192,284618,1,8,0:0:0:0:
256,192,284749,1,8,0:0:0:0:
256,192,284879,1,0,0:0:0:0:
256,192,285140,1,8,0:0:0:0:
256,192,285401,1,8,0:0:0:0:
256,192,285662,1,0,0:0:0:0:
256,192,285923,1,0,0:0:0:0:
256,192,286184,1,0,0:0:0:0:
256,192,286444,1,8,0:0:0:0:
256,192,286705,1,8,0:0:0:0:
256,192,286966,1,0,0:0:0:0:
256,192,287096,1,0,0:0:0:0:
256,192,287227,1,0,0:0:0:0:
256,192,287488,1,8,0:0:0:0:
256,192,287618,1,0,0:0:0:0:
256,192,287749,1,8,0:0:0:0:
256,192,288010,1,0,0:0:0:0:
256,192,288140,1,8,0:0:0:0:
256,192,288401,1,0,0:0:0:0:
256,192,288531,1,8,0:0:0:0:
256,192,288792,1,0,0:0:0:0:
256,192,288923,1,8,0:0:0:0:
256,192,289053,1,8,0:0:0:0:
256,192,289183,1,8,0:0:0:0:
256,192,289314,1,0,0:0:0:0:
256,192,289444,1,8,0:0:0:0:
256,192,289575,1,8,0:0:0:0:
256,192,289836,1,0,0:0:0:0:
256,192,289966,1,8,0:0:0:0:
256,192,290227,1,0,0:0:0:0:
256,192,290358,1,8,0:0:0:0:
256,192,290618,1,0,0:0:0:0:
256,192,290749,1,8,0:0:0:0:
256,192,291010,1,8,0:0:0:0:
256,192,291140,1,8,0:0:0:0:
256,192,291270,1,0,0:0:0:0:
256,192,291401,1,8,0:0:0:0:
256,192,291531,1,0,0:0:0:0:
256,192,291662,1,8,0:0:0:0:
256,192,291923,1,0,0:0:0:0:
256,192,292053,1,8,0:0:0:0:
256,192,292314,1,0,0:0:0:0:
256,192,292445,1,8,0:0:0:0:
256,192,292705,1,0,0:0:0:0:
256,192,292836,1,8,0:0:0:0:
256,192,293096,1,8,0:0:0:0:
256,192,293227,1,8,0:0:0:0:
256,192,293357,1,0,0:0:0:0:
256,192,293488,1,8,0:0:0:0:
256,192,293618,1,0,0:0:0:0:
256,192,293749,1,8,0:0:0:0:
256,192,294010,1,0,0:0:0:0:
256,192,294140,1,0,0:0:0:0:
256,192,294401,1,0,0:0:0:0:
256,192,294532,1,8,0:0:0:0:
256,192,294792,1,0,0:0:0:0:
256,192,294923,1,0,0:0:0:0:
256,192,295183,1,8,0:0:0:0:
256,192,295314,1,8,0:0:0:0:
256,192,295444,1,0,0:0:0:0:
256,192,295575,1,8,0:0:0:0:
256,192,295705,1,0,0:0:0:0:
256,192,295836,1,8,0:0:0:0:
256,192,295966,1,8,0:0:0:0:
256,192,296096,1,8,0:0:0:0:
256,192,296357,1,0,0:0:0:0:
256,192,296488,1,8,0:0:0:0:
256,192,296749,1,0,0:0:0:0:
256,192,296879,1,8,0:0:0:0:
256,192,297140,1,0,0:0:0:0:
256,192,297270,1,8,0:0:0:0:
256,192,297401,1,8,0:0:0:0:
256,192,297531,1,8,0:0:0:0:
256,192,297661,1,0,0:0:0:0:
256,192,297792,1,0,0:0:0:0:
256,192,297922,1,8,0:0:0:0:
256,192,298183,1,0,0:0:0:0:
256,192,298314,1,8,0:0:0:0:
256,192,298575,1,0,0:0:0:0:
256,192,298705,1,8,0:0:0:0:
256,192,298966,1,0,0:0:0:0:
256,192,299096,1,8,0:0:0:0:
256,192,299356,1,8,0:0:0:0:
256,192,299487,1,8,0:0:0:0:
256,192,299617,1,0,0:0:0:0:
256,192,299748,1,8,0:0:0:0:
256,192,299878,1,0,0:0:0:0:
256,192,300009,1,8,0:0:0:0:
256,192,300269,1,0,0:0:0:0:
256,192,300400,1,0,0:0:0:0:
256,192,300661,1,0,0:0:0:0:
256,192,300792,1,0,0:0:0:0:
256,192,301052,1,0,0:0:0:0:
256,192,301183,1,0,0:0:0:0:
256,192,301575,1,8,0:0:0:0:
256,192,301836,1,8,0:0:0:0:
256,192,302097,1,8,0:0:0:0:
256,192,302227,1,0,0:0:0:0:
256,192,302358,1,8,0:0:0:0:
256,192,302488,1,8,0:0:0:0:
256,192,302618,1,0,0:0:0:0:
256,192,302749,1,8,0:0:0:0:
256,192,302880,1,8,0:0:0:0:
256,192,303010,1,8,0:0:0:0:
256,192,303141,1,8,0:0:0:0:
256,192,303270,1,0,0:0:0:0:
256,192,303401,1,8,0:0:0:0:
256,192,303531,1,0,0:0:0:0:
256,192,303662,1,8,0:0:0:0:
256,192,303792,1,8,0:0:0:0:
256,192,303923,1,8,0:0:0:0:
256,192,304053,1,8,0:0:0:0:
256,192,304184,1,0,0:0:0:0:
256,192,304314,1,0,0:0:0:0:
256,192,304444,1,0,0:0:0:0:
256,192,304705,1,8,0:0:0:0:
256,192,304966,1,0,0:0:0:0:
256,192,305097,1,0,0:0:0:0:
256,192,305227,1,0,0:0:0:0:
256,192,305358,1,0,0:0:0:0:
256,192,305488,1,8,0:0:0:0:
256,192,305749,1,8,0:0:0:0:
256,192,306010,1,8,0:0:0:0:
256,192,306270,1,0,0:0:0:0:
256,192,306401,1,0,0:0:0:0:
256,192,306531,1,8,0:0:0:0:
256,192,306792,1,8,0:0:0:0:
256,192,307053,1,0,0:0:0:0:
256,192,307183,1,0,0:0:0:0:
256,192,307314,1,8,0:0:0:0:
256,192,307444,1,0,0:0:0:0:
256,192,307575,1,8,0:0:0:0:
256,192,307836,1,8,0:0:0:0:
256,192,308096,1,8,0:0:0:0:
256,192,308357,1,0,0:0:0:0:
256,192,308488,1,0,0:0:0:0:
256,192,308618,1,0,0:0:0:0:
256,192,308879,1,8,0:0:0:0:
256,192,309140,1,0,0:0:0:0:
256,192,309270,1,0,0:0:0:0:
256,192,309401,1,8,0:0:0:0:
256,192,309531,1,0,0:0:0:0:
256,192,309662,1,8,0:0:0:0:
256,192,309923,1,8,0:0:0:0:
256,192,310053,1,8,0:0:0:0:
256,192,310183,1,8,0:0:0:0:
256,192,310444,1,0,0:0:0:0:
256,192,310574,1,0,0:0:0:0:
256,192,310705,1,0,0:0:0:0:
256,192,310835,1,0,0:0:0:0:
256,192,310966,1,8,0:0:0:0:
256,192,311227,1,0,0:0:0:0:
256,192,311357,1,0,0:0:0:0:
256,192,311488,1,8,0:0:0:0:
256,192,311618,1,0,0:0:0:0:
256,192,311749,1,8,0:0:0:0:
256,192,312010,1,8,0:0:0:0:
256,192,312531,1,0,0:0:0:0:
256,192,312661,1,0,0:0:0:0:
256,192,312792,1,0,0:0:0:0:
256,192,312922,1,0,0:0:0:0:
256,192,313053,1,8,0:0:0:0:
256,192,313314,1,0,0:0:0:0:
256,192,313444,1,0,0:0:0:0:
256,192,313575,1,0,0:0:0:0:
256,192,313705,1,0,0:0:0:0:
256,192,313836,1,8,0:0:0:0:
256,192,314096,1,8,0:0:0:0:
256,192,314357,1,8,0:0:0:0:
256,192,314618,1,0,0:0:0:0:
256,192,314748,1,0,0:0:0:0:
256,192,314879,1,0,0:0:0:0:
256,192,315009,1,0,0:0:0:0:
256,192,315140,1,8,0:0:0:0:
256,192,315401,1,0,0:0:0:0:
256,192,315531,1,0,0:0:0:0:
256,192,315662,1,0,0:0:0:0:
256,192,315792,1,0,0:0:0:0:
256,192,315923,1,8,0:0:0:0:
256,192,316183,1,8,0:0:0:0:
256,192,316444,1,8,0:0:0:0:
256,192,316705,1,0,0:0:0:0:
256,192,316835,1,0,0:0:0:0:
256,192,316966,1,0,0:0:0:0:
256,192,317096,1,0,0:0:0:0:
256,192,317227,1,8,0:0:0:0:
256,192,317488,1,0,0:0:0:0:
256,192,317618,1,0,0:0:0:0:
256,192,317749,1,0,0:0:0:0:
256,192,317879,1,0,0:0:0:0:
256,192,318010,1,8,0:0:0:0:
256,192,318270,1,0,0:0:0:0:
256,192,318400,1,0,0:0:0:0:
256,192,318531,1,8,0:0:0:0:
256,192,318792,1,0,0:0:0:0:
256,192,318923,1,0,0:0:0:0:
256,192,319053,1,8,0:0:0:0:
256,192,319314,1,0,0:0:0:0:
256,192,319445,1,0,0:0:0:0:
256,192,319575,1,8,0:0:0:0:
256,192,319836,1,8,0:0:0:0:
256,192,319966,1,8,0:0:0:0:
256,192,320227,1,8,0:0:0:0:
256,192,320357,1,0,0:0:0:0:
256,192,320488,1,0,0:0:0:0:
256,192,320618,1,8,0:0:0:0:
256,192,320749,1,8,0:0:0:0:
256,192,320870,5,0,0:0:0:0:
256,192,320981,1,0,0:0:0:0:
256,192,321092,1,8,0:0:0:0:
256,192,321203,1,8,0:0:0:0:
256,192,321315,1,0,0:0:0:0:
256,192,321426,1,0,0:0:0:0:
256,192,321537,1,8,0:0:0:0:
256,192,321648,1,8,0:0:0:0:
256,192,321759,1,0,0:0:0:0:
256,192,321870,1,0,0:0:0:0:
256,192,321982,1,0,0:0:0:0:
256,192,322093,1,8,0:0:0:0:
256,192,322204,1,0,0:0:0:0:
256,192,322314,1,0,0:0:0:0:
256,192,322425,1,8,0:0:0:0:
256,192,322536,1,0,0:0:0:0:
256,192,322647,1,0,0:0:0:0:
256,192,322758,1,0,0:0:0:0:
256,192,322870,1,8,0:0:0:0:
256,192,322981,1,8,0:0:0:0:
256,192,323092,1,0,0:0:0:0:
256,192,323203,1,0,0:0:0:0:
256,192,323314,1,8,0:0:0:0:
256,192,323425,1,8,0:0:0:0:
256,192,323536,1,0,0:0:0:0:
256,192,323647,1,0,0:0:0:0:
256,192,323758,1,0,0:0:0:0:
256,192,323870,1,8,0:0:0:0:
256,192,323981,1,0,0:0:0:0:
256,192,324092,1,0,0:0:0:0:
256,192,324203,1,8,0:0:0:0:
256,192,324314,1,0,0:0:0:0:
256,192,324425,5,8,0:0:0:0:
256,192,324536,1,8,0:0:0:0:
256,192,324647,1,8,0:0:0:0:
256,192,324759,1,0,0:0:0:0:
256,192,324870,1,8,0:0:0:0:
256,192,324981,1,8,0:0:0:0:
256,192,325092,1,0,0:0:0:0:
256,192,325203,1,0,0:0:0:0:
256,192,325315,1,8,0:0:0:0:
256,192,325426,1,0,0:0:0:0:
256,192,325536,1,0,0:0:0:0:
256,192,325648,1,8,0:0:0:0:
256,192,325759,1,0,0:0:0:0:
256,192,325870,1,0,0:0:0:0:
256,192,325981,1,8,0:0:0:0:
256,192,326092,1,0,0:0:0:0:
256,192,326203,5,8,0:0:0:0:
256,192,326314,1,8,0:0:0:0:
256,192,326425,1,8,0:0:0:0:
256,192,326537,1,0,0:0:0:0:
256,192,326648,1,8,0:0:0:0:
256,192,326759,1,8,0:0:0:0:
256,192,326870,1,0,0:0:0:0:
256,192,326981,1,0,0:0:0:0:
256,192,327093,1,8,0:0:0:0:
256,192,327204,1,0,0:0:0:0:
256,192,327314,1,0,0:0:0:0:
256,192,327426,1,8,0:0:0:0:
256,192,327537,1,0,0:0:0:0:
256,192,327648,1,0,0:0:0:0:
256,192,327759,1,8,0:0:0:0:
256,192,327870,1,8,0:0:0:0:
256,192,327981,1,0,0:0:0:0:
256,192,328092,1,0,0:0:0:0:
256,192,328203,1,8,0:0:0:0:
256,192,328314,1,8,0:0:0:0:
256,192,328426,1,0,0:0:0:0:
256,192,328537,1,0,0:0:0:0:
256,192,328648,1,8,0:0:0:0:
256,192,328759,1,8,0:0:0:0:
256,192,328870,1,0,0:0:0:0:
256,192,328981,1,0,0:0:0:0:
256,192,329093,1,0,0:0:0:0:
256,192,329204,1,8,0:0:0:0:
256,192,329315,1,0,0:0:0:0:
256,192,329425,1,0,0:0:0:0:
256,192,329536,1,8,0:0:0:0:
256,192,329647,1,0,0:0:0:0:
256,192,329758,1,0,0:0:0:0:
256,192,329869,1,0,0:0:0:0:
256,192,329981,1,8,0:0:0:0:
256,192,330092,1,8,0:0:0:0:
256,192,330203,1,0,0:0:0:0:
256,192,330314,1,0,0:0:0:0:
256,192,330425,1,8,0:0:0:0:
256,192,330536,1,8,0:0:0:0:
256,192,330647,1,0,0:0:0:0:
256,192,330758,1,0,0:0:0:0:
256,192,330869,1,0,0:0:0:0:
256,192,330981,1,8,0:0:0:0:
256,192,331092,1,0,0:0:0:0:
256,192,331203,1,0,0:0:0:0:
256,192,331314,1,8,0:0:0:0:
256,192,331425,1,0,0:0:0:0:
256,192,331536,5,8,0:0:0:0:
256,192,331647,1,8,0:0:0:0:
256,192,331758,1,8,0:0:0:0:
256,192,331870,1,0,0:0:0:0:
256,192,331981,1,8,0:0:0:0:
256,192,332092,1,8,0:0:0:0:
256,192,332203,1,0,0:0:0:0:
256,192,332314,1,0,0:0:0:0:
256,192,332426,1,8,0:0:0:0:
256,192,332537,1,0,0:0:0:0:
256,192,332647,1,0,0:0:0:0:
256,192,332759,1,8,0:0:0:0:
256,192,332870,1,0,0:0:0:0:
256,192,332981,1,0,0:0:0:0:
256,192,333092,1,8,0:0:0:0:
256,192,333203,1,0,0:0:0:0:
256,192,333314,5,8,0:0:0:0:
256,192,333425,1,8,0:0:0:0:
256,192,333536,1,8,0:0:0:0:
256,192,333648,1,0,0:0:0:0:
256,192,333759,1,8,0:0:0:0:
256,192,333870,1,8,0:0:0:0:
256,192,333981,1,0,0:0:0:0:
256,192,334092,1,0,0:0:0:0:
256,192,334204,1,8,0:0:0:0:
256,192,334315,1,0,0:0:0:0:
256,192,334425,1,0,0:0:0:0:
256,192,334537,1,8,0:0:0:0:
256,192,334648,1,0,0:0:0:0:
256,192,334759,1,0,0:0:0:0:
256,192,334870,1,8,0:0:0:0:
256,192,334981,1,8,0:0:0:0:
256,192,335093,5,8,0:0:0:0:
256,192,335204,1,0,0:0:0:0:
256,192,335315,1,0,0:0:0:0:
256,192,335426,1,0,0:0:0:0:
256,192,335537,1,8,0:0:0:0:
256,192,335648,1,8,0:0:0:0:
256,192,335759,1,0,0:0:0:0:
256,192,335869,1,0,0:0:0:0:
256,192,335981,1,8,0:0:0:0:
256,192,336092,1,0,0:0:0:0:
256,192,336203,1,0,0:0:0:0:
256,192,336314,1,0,0:0:0:0:
256,192,336425,1,8,0:0:0:0:
256,192,336536,1,8,0:0:0:0:
256,192,336647,1,8,0:0:0:0:
256,192,336758,1,0,0:0:0:0:
256,192,336869,1,8,0:0:0:0:
256,192,336981,1,0,0:0:0:0:
256,192,337092,1,0,0:0:0:0:
256,192,337203,1,0,0:0:0:0:
256,192,337315,1,8,0:0:0:0:
256,192,337426,1,8,0:0:0:0:
256,192,337537,1,0,0:0:0:0:
256,192,337647,1,0,0:0:0:0:
256,192,337758,1,8,0:0:0:0:
256,192,337871,1,0,0:0:0:0:
256,192,337982,1,0,0:0:0:0:
256,192,338093,1,0,0:0:0:0:
256,192,338204,1,8,0:0:0:0:
256,192,338315,1,8,0:0:0:0:
256,192,338426,1,8,0:0:0:0:
256,192,338537,1,0,0:0:0:0:
256,192,338647,5,8,0:0:0:0:
256,192,338759,1,8,0:0:0:0:
256,192,338870,1,0,0:0:0:0:
256,192,338981,1,0,0:0:0:0:
256,192,339093,1,8,0:0:0:0:
256,192,339204,1,8,0:0:0:0:
256,192,339315,1,8,0:0:0:0:
256,192,339426,1,0,0:0:0:0:
256,192,339537,1,8,0:0:0:0:
256,192,339647,1,8,0:0:0:0:
256,192,339759,1,0,0:0:0:0:
256,192,339870,1,0,0:0:0:0:
256,192,339981,1,8,0:0:0:0:
256,192,340092,1,8,0:0:0:0:
256,192,340204,1,8,0:0:0:0:
256,192,340315,1,0,0:0:0:0:
256,192,340426,1,8,0:0:0:0:
256,192,340537,1,8,0:0:0:0:
256,192,340648,1,0,0:0:0:0:
256,192,340759,1,0,0:0:0:0:
256,192,340870,1,8,0:0:0:0:
256,192,340982,1,0,0:0:0:0:
256,192,341093,1,0,0:0:0:0:
256,192,341204,1,0,0:0:0:0:
256,192,341315,1,8,0:0:0:0:
256,192,341426,1,0,0:0:0:0:
256,192,341537,1,8,0:0:0:0:
256,192,341648,1,0,0:0:0:0:
256,192,341759,1,8,0:0:0:0:
256,192,341870,1,8,0:0:0:0:
256,192,341981,1,8,0:0:0:0:
256,192,342092,1,0,0:0:0:0:
256,192,342203,5,8,0:0:0:0:
256,192,342314,1,0,0:0:0:0:
256,192,342425,1,0,0:0:0:0:
256,192,342536,1,0,0:0:0:0:
256,192,342647,1,8,0:0:0:0:
256,192,342758,1,8,0:0:0:0:
256,192,342869,1,0,0:0:0:0:
256,192,342981,1,0,0:0:0:0:
256,192,343091,1,8,0:0:0:0:
256,192,343202,1,0,0:0:0:0:
256,192,343313,1,0,0:0:0:0:
256,192,343424,1,0,0:0:0:0:
256,192,343535,1,8,0:0:0:0:
256,192,343646,1,8,0:0:0:0:
256,192,343757,1,8,0:0:0:0:
256,192,343870,1,0,0:0:0:0:
256,192,343981,1,8,0:0:0:0:
256,192,344091,1,0,0:0:0:0:
256,192,344202,1,0,0:0:0:0:
256,192,344313,1,0,0:0:0:0:
256,192,344425,1,8,0:0:0:0:
256,192,344536,1,8,0:0:0:0:
256,192,344647,1,0,0:0:0:0:
256,192,344757,1,0,0:0:0:0:
256,192,344870,1,8,0:0:0:0:
256,192,344981,1,0,0:0:0:0:
256,192,345092,1,0,0:0:0:0:
256,192,345203,1,0,0:0:0:0:
256,192,345314,1,8,0:0:0:0:
256,192,345425,1,8,0:0:0:0:
256,192,345536,1,8,0:0:0:0:
256,192,345647,1,0,0:0:0:0:
256,192,345757,5,8,0:0:0:0:
256,192,345869,1,8,0:0:0:0:
256,192,345980,1,0,0:0:0:0:
256,192,346091,1,0,0:0:0:0:
256,192,346203,1,8,0:0:0:0:
256,192,346314,1,8,0:0:0:0:
256,192,346425,1,8,0:0:0:0:
256,192,346536,1,0,0:0:0:0:
256,192,346647,1,8,0:0:0:0:
256,192,346757,1,8,0:0:0:0:
256,192,346869,1,0,0:0:0:0:
256,192,346980,1,0,0:0:0:0:
256,192,347091,1,8,0:0:0:0:
256,192,347202,1,8,0:0:0:0:
256,192,347314,1,8,0:0:0:0:
256,192,347425,1,0,0:0:0:0:
256,192,347536,1,8,0:0:0:0:
256,192,347647,1,8,0:0:0:0:
256,192,347758,1,0,0:0:0:0:
256,192,347869,1,0,0:0:0:0:
256,192,347980,1,8,0:0:0:0:
256,192,348092,1,0,0:0:0:0:
256,192,348203,1,0,0:0:0:0:
256,192,348314,1,0,0:0:0:0:
256,192,348425,1,8,0:0:0:0:
256,192,348536,1,0,0:0:0:0:
256,192,348647,1,8,0:0:0:0:
256,192,348758,1,0,0:0:0:0:
256,192,348869,1,8,0:0:0:0:
256,192,348980,1,8,0:0:0:0:
256,192,349091,1,8,0:0:0:0:
256,192,349314,5,4,0:0:0:0:
256,192,349536,1,0,0:0:0:0:
256,192,349647,1,8,0:0:0:0:
256,192,349870,1,8,0:0:0:0:
256,192,349981,1,0,0:0:0:0:
256,192,350203,1,0,0:0:0:0:
256,192,350425,1,0,0:0:0:0:
256,192,350536,1,8,0:0:0:0:
256,192,350759,1,8,0:0:0:0:
256,192,350870,1,0,0:0:0:0:
256,192,351092,1,0,0:0:0:0:
256,192,351314,1,0,0:0:0:0:
256,192,351425,1,8,0:0:0:0:
256,192,351648,1,8,0:0:0:0:
256,192,351759,1,0,0:0:0:0:
256,192,351981,1,0,0:0:0:0:
256,192,352203,1,0,0:0:0:0:
256,192,352425,1,8,0:0:0:0:
256,192,352647,1,0,0:0:0:0:
256,192,352870,1,8,0:0:0:0:
256,192,353092,1,8,0:0:0:0:
256,192,353203,1,0,0:0:0:0:
256,192,353426,1,0,0:0:0:0:
256,192,353537,1,8,0:0:0:0:
256,192,353759,1,0,0:0:0:0:
256,192,353981,1,8,0:0:0:0:
256,192,354092,1,0,0:0:0:0:
256,192,354315,1,0,0:0:0:0:
256,192,354426,1,8,0:0:0:0:
256,192,354648,1,0,0:0:0:0:
256,192,354870,1,8,0:0:0:0:
256,192,354981,1,8,0:0:0:0:
256,192,355204,1,0,0:0:0:0:
256,192,355315,1,0,0:0:0:0:
256,192,355537,1,8,0:0:0:0:
256,192,355759,1,0,0:0:0:0:
256,192,355870,1,0,0:0:0:0:
256,192,356093,1,8,0:0:0:0:
256,192,356204,1,8,0:0:0:0:
256,192,356425,1,0,0:0:0:0:
256,192,356647,1,0,0:0:0:0:
256,192,356758,1,8,0:0:0:0:
256,192,356981,1,8,0:0:0:0:
256,192,357092,1,0,0:0:0:0:
256,192,357314,1,0,0:0:0:0:
256,192,357536,1,0,0:0:0:0:
256,192,357647,1,8,0:0:0:0:
256,192,357870,1,8,0:0:0:0:
256,192,357981,1,0,0:0:0:0:
256,192,358203,1,0,0:0:0:0:
256,192,358425,1,0,0:0:0:0:
256,192,358536,1,8,0:0:0:0:
256,192,358759,1,8,0:0:0:0:
256,192,358870,1,0,0:0:0:0:
256,192,359092,1,0,0:0:0:0:
256,192,359314,1,0,0:0:0:0:
256,192,359425,1,0,0:0:0:0:
256,192,359536,1,8,0:0:0:0:
256,192,359758,1,0,0:0:0:0:
256,192,359981,1,8,0:0:0:0:
256,192,360203,1,8,0:0:0:0:
256,192,360314,1,0,0:0:0:0:
256,192,360537,1,0,0:0:0:0:
256,192,360648,1,8,0:0:0:0:
256,192,360869,1,0,0:0:0:0:
256,192,361092,1,8,0:0:0:0:
256,192,361203,1,0,0:0:0:0:
256,192,361426,1,0,0:0:0:0:
256,192,361537,1,8,0:0:0:0:
256,192,361759,1,0,0:0:0:0:
256,192,361981,1,8,0:0:0:0:
256,192,362092,1,8,0:0:0:0:
256,192,362315,1,0,0:0:0:0:
256,192,362426,1,0,0:0:0:0:
256,192,362647,1,8,0:0:0:0:
256,192,362869,1,8,0:0:0:0:
256,192,362982,1,8,0:0:0:0:
256,192,363204,1,0,0:0:0:0:
256,192,363315,1,0,0:0:0:0:
256,192,363537,5,12,0:0:0:0:
256,192,363759,1,8,0:0:0:0:
256,192,363869,1,0,0:0:0:0:
256,192,363982,1,8,0:0:0:0:
256,192,364425,1,0,0:0:0:0:
256,192,364647,1,0,0:0:0:0:
256,192,364869,1,0,0:0:0:0:
256,192,365092,1,8,0:0:0:0:
256,192,365203,1,0,0:0:0:0:
256,192,365314,1,8,0:0:0:0:
256,192,365536,1,8,0:0:0:0:
256,192,365647,1,8,0:0:0:0:
256,192,365982,1,0,0:0:0:0:
256,192,366203,1,8,0:0:0:0:
256,192,366425,1,0,0:0:0:0:
256,192,366647,1,0,0:0:0:0:
256,192,366758,1,8,0:0:0:0:
256,192,366869,1,0,0:0:0:0:
256,192,367092,1,8,0:0:0:0:
256,192,367315,1,0,0:0:0:0:
256,192,367426,1,8,0:0:0:0:
256,192,367648,1,0,0:0:0:0:
256,192,367759,1,8,0:0:0:0:
256,192,367982,1,8,0:0:0:0:
256,192,368204,1,0,0:0:0:0:
256,192,368426,1,8,0:0:0:0:
256,192,368536,1,8,0:0:0:0:
256,192,368869,1,8,0:0:0:0:
256,192,369092,1,0,0:0:0:0:
256,192,369203,1,8,0:0:0:0:
256,192,369426,1,0,0:0:0:0:
256,192,369537,1,8,0:0:0:0:
256,192,369758,1,8,0:0:0:0:
256,192,369982,1,0,0:0:0:0:
256,192,370204,1,8,0:0:0:0:
256,192,370314,1,8,0:0:0:0:
256,192,370426,1,0,0:0:0:0:
256,192,370648,1,8,0:0:0:0:
256,192,370870,1,8,0:0:0:0:
256,192,370981,1,0,0:0:0:0:
256,192,371092,1,8,0:0:0:0:
256,192,371536,1,0,0:0:0:0:
265,190,371869,1,0,0:0:0:0:
256,192,372092,1,0,0:0:0:0:
256,192,372203,1,8,0:0:0:0:
256,192,372314,1,0,0:0:0:0:
256,192,372425,1,8,0:0:0:0:
256,192,372647,1,8,0:0:0:0:
256,192,372758,1,8,0:0:0:0:
256,192,373092,1,0,0:0:0:0:
256,192,373314,1,8,0:0:0:0:
256,192,373536,1,0,0:0:0:0:
256,192,373758,1,0,0:0:0:0:
256,192,373869,1,8,0:0:0:0:
256,192,373981,1,0,0:0:0:0:
256,192,374092,1,0,0:0:0:0:
256,192,374203,1,8,0:0:0:0:
256,192,374425,1,0,0:0:0:0:
256,192,374536,1,8,0:0:0:0:
256,192,374758,1,0,0:0:0:0:
256,192,374869,1,8,0:0:0:0:
256,192,375092,1,8,0:0:0:0:
256,192,375314,1,0,0:0:0:0:
256,192,375536,1,8,0:0:0:0:
256,192,375982,1,8,0:0:0:0:
256,192,376203,1,0,0:0:0:0:
256,192,376314,1,8,0:0:0:0:
256,192,376536,1,0,0:0:0:0:
256,192,376647,1,8,0:0:0:0:
288,192,376869,1,8,0:0:0:0:
256,192,377093,1,0,0:0:0:0:
256,192,377314,1,8,0:0:0:0:
256,192,377425,1,8,0:0:0:0:
256,192,377536,1,8,0:0:0:0:
256,192,377758,5,0,0:0:0:0:
256,192,377981,1,8,0:0:0:0:
256,192,378203,1,0,0:0:0:0:
256,192,378648,1,0,0:0:0:0:
256,192,378870,1,8,0:0:0:0:
256,192,378981,1,8,0:0:0:0:
256,192,379092,1,0,0:0:0:0:
256,192,379314,1,8,0:0:0:0:
256,192,379537,1,0,0:0:0:0:
256,192,379759,1,8,0:0:0:0:
256,192,379869,1,8,0:0:0:0:
256,192,379981,1,0,0:0:0:0:
256,192,380425,1,0,0:0:0:0:
256,192,380648,1,8,0:0:0:0:
256,192,380758,1,8,0:0:0:0:
256,192,380870,1,0,0:0:0:0:
256,192,381092,1,8,0:0:0:0:
256,192,381314,1,0,0:0:0:0:
256,192,381536,1,0,0:0:0:0:
256,192,381648,1,8,0:0:0:0:
256,192,381870,1,0,0:0:0:0:
256,192,381981,1,8,0:0:0:0:
256,192,382203,1,0,0:0:0:0:
256,192,382425,1,8,0:0:0:0:
256,192,382647,1,0,0:0:0:0:
256,192,383092,1,0,0:0:0:0:
256,192,383314,1,0,0:0:0:0:
256,192,383425,1,8,0:0:0:0:
256,192,383647,1,0,0:0:0:0:
256,192,383758,1,8,0:0:0:0:
256,192,383981,1,0,0:0:0:0:
256,192,384203,1,8,0:0:0:0:
256,192,384425,1,0,0:0:0:0:
256,192,384536,1,8,0:0:0:0:
256,192,384647,1,8,0:0:0:0:
256,192,384869,1,0,0:0:0:0:
256,192,385092,1,8,0:0:0:0:
256,192,385314,1,0,0:0:0:0:
256,192,385758,1,0,0:0:0:0:
256,192,385981,1,8,0:0:0:0:
256,192,386093,1,8,0:0:0:0:
256,192,386204,1,0,0:0:0:0:
256,192,386426,1,8,0:0:0:0:
256,192,386648,1,0,0:0:0:0:
256,192,386870,1,8,0:0:0:0:
256,192,386981,1,8,0:0:0:0:
256,192,387093,1,0,0:0:0:0:
256,192,387536,1,0,0:0:0:0:
256,192,387758,1,8,0:0:0:0:
256,192,387869,1,8,0:0:0:0:
256,192,387981,1,0,0:0:0:0:
256,192,388203,1,8,0:0:0:0:
256,192,388426,1,0,0:0:0:0:
256,192,388648,1,0,0:0:0:0:
256,192,388758,1,8,0:0:0:0:
256,192,388981,1,0,0:0:0:0:
256,192,389092,1,8,0:0:0:0:
256,192,389314,1,0,0:0:0:0:
256,192,389537,1,8,0:0:0:0:
256,192,389759,1,0,0:0:0:0:
256,192,390203,1,0,0:0:0:0:
256,192,390425,1,0,0:0:0:0:
256,192,390536,1,8,0:0:0:0:
256,192,390758,1,0,0:0:0:0:
256,192,390870,1,8,0:0:0:0:
256,192,391092,1,0,0:0:0:0:
256,192,391314,1,8,0:0:0:0:
256,192,391536,1,0,0:0:0:0:
256,192,391647,1,8,0:0:0:0:
256,192,391759,1,0,0:0:0:0:
256,192,391869,1,0,0:0:0:0:
256,192,391981,5,8,0:0:0:0:
256,192,392203,1,0,0:0:0:0:
256,192,392314,1,8,0:0:0:0:
256,192,392536,1,0,0:0:0:0:
256,192,392647,1,8,0:0:0:0:
256,192,392869,1,8,0:0:0:0:
256,192,393093,1,0,0:0:0:0:
256,192,393204,1,8,0:0:0:0:
256,192,393426,1,0,0:0:0:0:
256,192,393537,1,8,0:0:0:0:
256,192,393758,1,8,0:0:0:0:
256,192,393982,1,8,0:0:0:0:
256,192,394093,1,0,0:0:0:0:
256,192,394204,1,8,0:0:0:0:
256,192,394426,1,0,0:0:0:0:
256,192,394648,1,8,0:0:0:0:
256,192,394869,1,0,0:0:0:0:
256,192,394982,1,0,0:0:0:0:
256,192,395093,1,8,0:0:0:0:
256,192,395314,1,0,0:0:0:0:
256,192,395536,1,8,0:0:0:0:
256,192,395758,1,8,0:0:0:0:
256,192,395869,1,8,0:0:0:0:
256,192,396093,1,8,0:0:0:0:
256,192,396204,1,8,0:0:0:0:
256,192,396425,1,8,0:0:0:0:
256,192,396647,1,8,0:0:0:0:
256,192,396758,1,0,0:0:0:0:
256,192,396869,1,8,0:0:0:0:
256,192,397092,1,0,0:0:0:0:
256,192,397314,1,8,0:0:0:0:
256,192,397536,1,8,0:0:0:0:
256,192,397647,1,8,0:0:0:0:
256,192,397869,1,8,0:0:0:0:
256,192,397982,1,8,0:0:0:0:
256,192,398203,1,8,0:0:0:0:
256,192,398425,1,0,0:0:0:0:
256,192,398536,1,0,0:0:0:0:
256,192,398647,1,8,0:0:0:0:
256,192,398869,1,8,0:0:0:0:
256,192,399092,1,8,0:0:0:0:
256,192,399314,1,0,0:0:0:0:
256,192,399425,1,8,0:0:0:0:
256,192,399647,1,0,0:0:0:0:
256,192,399758,1,8,0:0:0:0:
256,192,399869,1,0,0:0:0:0:
256,192,399981,1,8,0:0:0:0:
256,192,400203,1,0,0:0:0:0:
256,192,400314,1,8,0:0:0:0:
256,192,400536,1,0,0:0:0:0:
256,192,400647,1,8,0:0:0:0:
256,192,400758,1,0,0:0:0:0:
256,192,400869,1,8,0:0:0:0:
256,192,401092,1,0,0:0:0:0:
256,192,401203,1,8,0:0:0:0:
256,192,401425,1,0,0:0:0:0:
256,192,401536,1,8,0:0:0:0:
256,192,401647,1,0,0:0:0:0:
256,192,401758,1,8,0:0:0:0:
256,192,401981,1,0,0:0:0:0:
256,192,402093,1,8,0:0:0:0:
256,192,402314,1,0,0:0:0:0:
256,192,402425,1,0,0:0:0:0:
256,192,402536,1,0,0:0:0:0:
256,192,402647,1,8,0:0:0:0:
256,192,402870,1,8,0:0:0:0:
256,192,402982,1,8,0:0:0:0:
256,192,403315,1,0,0:0:0:0:
256,192,403537,1,8,0:0:0:0:
256,192,403759,1,0,0:0:0:0:
256,192,403981,1,8,0:0:0:0:
256,192,404425,1,8,0:0:0:0:
256,192,404647,1,8,0:0:0:0:
256,192,404758,1,8,0:0:0:0:
256,192,404981,1,8,0:0:0:0:
256,192,405093,1,8,0:0:0:0:
256,192,405314,1,8,0:0:0:0:
256,192,405536,1,8,0:0:0:0:
256,192,405758,1,0,0:0:0:0:
