osu file format v14

[General]
AudioFilename: audio.mp3
AudioLeadIn: 0
PreviewTime: 52371
Countdown: 0
SampleSet: Soft
StackLeniency: 0.7
Mode: 3
LetterboxInBreaks: 0
SpecialStyle: 0
WidescreenStoryboard: 0

[Editor]
Bookmarks: 52371,170189,181826,187644,193462,209462,221098,232735,266189,290917
DistanceSpacing: 0.8
BeatDivisor: 8
GridSize: 32
TimelineZoom: 1.6

[Metadata]
Title:Operation: Evolution
TitleUnicode:Operation: Evolution
Artist:Dimrain47
ArtistUnicode:Dimrain47
Creator:notBrandon
Version:ET
Source:
Tags:Featured Artist FA trance marathon newgrounds audio portal electronic techno instrumental The Dimrain47 Collection mg mpg mappers' guild
BeatmapID:4190186
BeatmapSetID:2013539

[Difficulty]
HPDrainRate:8
CircleSize:7
OverallDifficulty:8
ApproachRate:5
SliderMultiplier:1.4
SliderTickRate:1

[Events]
//Background and Video events
0,0,"lights_glow_freezelight_883214_1920x1200.jpg",0,0
//Break Periods
//Storyboard Layer 0 (Background)
//Storyboard Layer 1 (Fail)
//Storyboard Layer 2 (Pass)
//Storyboard Layer 3 (Foreground)
//Storyboard Layer 4 (Overlay)
//Storyboard Sound Samples

[TimingPoints]
55,363.636363636363,4,2,1,35,1,0

[HitObjects]
475,192,55,5,0,0:0:0:0:
256,192,145,1,0,0:0:0:0:
475,192,327,1,0,0:0:0:0:
256,192,418,1,0,0:0:0:0:
475,192,600,1,0,0:0:0:0:
256,192,691,1,0,0:0:0:0:
402,192,782,1,0,0:0:0:0:
109,192,873,1,0,0:0:0:0:
329,192,964,1,0,0:0:0:0:
109,192,1054,1,0,0:0:0:0:
256,192,1145,1,0,0:0:0:0:
109,192,1236,1,0,0:0:0:0:
329,192,1327,1,0,0:0:0:0:
109,192,1418,1,0,0:0:0:0:
475,192,1509,5,0,0:0:0:0:
256,192,1600,1,0,0:0:0:0:
475,192,1782,1,0,0:0:0:0:
256,192,1873,1,0,0:0:0:0:
475,192,2054,1,0,0:0:0:0:
256,192,2145,1,0,0:0:0:0:
402,192,2236,1,0,0:0:0:0:
36,192,2327,1,0,0:0:0:0:
329,192,2418,1,0,0:0:0:0:
36,192,2509,1,0,0:0:0:0:
256,192,2600,1,0,0:0:0:0:
36,192,2691,1,0,0:0:0:0:
329,192,2782,1,0,0:0:0:0:
36,192,2873,1,0,0:0:0:0:
475,192,2964,5,0,0:0:0:0:
256,192,3054,1,0,0:0:0:0:
475,192,3236,1,0,0:0:0:0:
256,192,3327,1,0,0:0:0:0:
475,192,3509,1,0,0:0:0:0:
256,192,3600,1,0,0:0:0:0:
402,192,3691,1,0,0:0:0:0:
109,192,3782,1,0,0:0:0:0:
329,192,3873,1,0,0:0:0:0:
109,192,3964,1,0,0:0:0:0:
256,192,4054,1,0,0:0:0:0:
109,192,4145,1,0,0:0:0:0:
329,192,4236,1,0,0:0:0:0:
109,192,4327,1,0,0:0:0:0:
475,192,4418,5,0,0:0:0:0:
256,192,4509,1,0,0:0:0:0:
475,192,4691,1,0,0:0:0:0:
256,192,4782,1,0,0:0:0:0:
475,192,4964,1,0,0:0:0:0:
256,192,5054,1,0,0:0:0:0:
329,192,5145,1,0,0:0:0:0:
182,192,5236,1,0,0:0:0:0:
402,192,5327,1,0,0:0:0:0:
182,192,5418,1,0,0:0:0:0:
256,192,5509,1,0,0:0:0:0:
182,192,5600,1,0,0:0:0:0:
475,192,5691,1,0,0:0:0:0:
182,192,5782,1,0,0:0:0:0:
475,192,5873,5,0,0:0:0:0:
256,192,5964,1,0,0:0:0:0:
475,192,6145,1,0,0:0:0:0:
256,192,6236,1,0,0:0:0:0:
475,192,6418,1,0,0:0:0:0:
256,192,6509,1,0,0:0:0:0:
402,192,6600,1,0,0:0:0:0:
109,192,6691,1,0,0:0:0:0:
329,192,6782,1,0,0:0:0:0:
109,192,6873,1,0,0:0:0:0:
256,192,6964,1,0,0:0:0:0:
109,192,7054,1,0,0:0:0:0:
329,192,7145,1,0,0:0:0:0:
109,192,7236,1,0,0:0:0:0:
475,192,7327,5,0,0:0:0:0:
256,192,7418,1,0,0:0:0:0:
475,192,7600,1,0,0:0:0:0:
256,192,7691,1,0,0:0:0:0:
475,192,7873,1,0,0:0:0:0:
256,192,7964,1,0,0:0:0:0:
402,192,8054,1,0,0:0:0:0:
36,192,8145,1,0,0:0:0:0:
329,192,8236,1,0,0:0:0:0:
36,192,8327,1,0,0:0:0:0:
256,192,8418,1,0,0:0:0:0:
36,192,8509,1,0,0:0:0:0:
329,192,8600,1,0,0:0:0:0:
36,192,8691,1,0,0:0:0:0:
475,192,8782,5,0,0:0:0:0:
256,192,8873,1,0,0:0:0:0:
475,192,9054,1,0,0:0:0:0:
256,192,9145,1,0,0:0:0:0:
475,192,9327,1,0,0:0:0:0:
256,192,9418,1,0,0:0:0:0:
402,192,9509,1,0,0:0:0:0:
109,192,9600,1,0,0:0:0:0:
329,192,9691,1,0,0:0:0:0:
109,192,9782,1,0,0:0:0:0:
256,192,9873,1,0,0:0:0:0:
109,192,9964,1,0,0:0:0:0:
329,192,10054,1,0,0:0:0:0:
109,192,10145,1,0,0:0:0:0:
475,192,10236,5,0,0:0:0:0:
256,192,10327,1,0,0:0:0:0:
475,192,10509,1,0,0:0:0:0:
256,192,10600,1,0,0:0:0:0:
475,192,10782,1,0,0:0:0:0:
256,192,10873,1,0,0:0:0:0:
329,192,10964,1,0,0:0:0:0:
182,192,11054,1,0,0:0:0:0:
402,192,11145,1,0,0:0:0:0:
182,192,11236,1,0,0:0:0:0:
256,192,11327,1,0,0:0:0:0:
182,192,11418,1,0,0:0:0:0:
475,192,11509,1,0,0:0:0:0:
182,192,11600,1,0,0:0:0:0:
475,192,11691,5,0,0:0:0:0:
256,192,11782,1,0,0:0:0:0:
475,192,11964,1,0,0:0:0:0:
256,192,12054,1,0,0:0:0:0:
475,192,12236,1,0,0:0:0:0:
256,192,12327,1,0,0:0:0:0:
329,192,12418,1,0,0:0:0:0:
182,192,12509,1,0,0:0:0:0:
402,192,12600,1,0,0:0:0:0:
182,192,12691,1,0,0:0:0:0:
256,192,12782,1,0,0:0:0:0:
182,192,12873,1,0,0:0:0:0:
475,192,12964,1,0,0:0:0:0:
182,192,13054,1,0,0:0:0:0:
475,192,13145,5,0,0:0:0:0:
329,192,13145,1,0,0:0:0:0:
256,192,13236,1,0,0:0:0:0:
109,192,13236,1,0,0:0:0:0:
475,192,13418,1,0,0:0:0:0:
329,192,13418,1,0,0:0:0:0:
256,192,13509,1,0,0:0:0:0:
109,192,13509,1,0,0:0:0:0:
475,192,13691,1,0,0:0:0:0:
329,192,13691,1,0,0:0:0:0:
256,192,13782,1,0,0:0:0:0:
109,192,13782,1,0,0:0:0:0:
329,192,13873,1,0,0:0:0:0:
402,192,13873,1,0,0:0:0:0:
182,192,13964,1,0,0:0:0:0:
36,192,13964,1,0,0:0:0:0:
402,192,14054,1,0,0:0:0:0:
475,192,14054,1,0,0:0:0:0:
182,192,14145,1,0,0:0:0:0:
36,192,14145,1,0,0:0:0:0:
256,192,14236,1,0,0:0:0:0:
329,192,14236,1,0,0:0:0:0:
182,192,14327,1,0,0:0:0:0:
36,192,14327,1,0,0:0:0:0:
475,192,14418,1,0,0:0:0:0:
402,192,14418,1,0,0:0:0:0:
182,192,14509,1,0,0:0:0:0:
36,192,14509,1,0,0:0:0:0:
475,192,14600,5,0,0:0:0:0:
256,192,14600,1,0,0:0:0:0:
475,192,15691,1,0,0:0:0:0:
36,192,15691,1,0,0:0:0:0:
402,192,15782,1,0,0:0:0:0:
109,192,15782,1,0,0:0:0:0:
329,192,15873,1,0,0:0:0:0:
182,192,15873,1,0,0:0:0:0:
256,192,15964,1,0,0:0:0:0:
36,192,16054,1,0,0:0:0:0:
475,192,16054,1,0,0:0:0:0:
402,192,16054,1,0,0:0:0:0:
329,192,16145,1,0,0:0:0:0:
182,192,16236,1,0,0:0:0:0:
109,192,16327,1,0,0:0:0:0:
36,192,16418,1,0,0:0:0:0:
475,192,16418,1,0,0:0:0:0:
329,192,16418,1,0,0:0:0:0:
402,192,16509,1,0,0:0:0:0:
256,192,16600,1,0,0:0:0:0:
182,192,16691,1,0,0:0:0:0:
475,192,16782,1,0,0:0:0:0:
36,192,16782,1,0,0:0:0:0:
329,192,16782,1,0,0:0:0:0:
109,192,16873,1,0,0:0:0:0:
256,192,16964,1,0,0:0:0:0:
402,192,17054,1,0,0:0:0:0:
36,192,17145,1,0,0:0:0:0:
475,192,17145,1,0,0:0:0:0:
182,192,17145,1,0,0:0:0:0:
329,192,17236,1,0,0:0:0:0:
256,192,17327,1,0,0:0:0:0:
109,192,17418,1,0,0:0:0:0:
36,192,17509,1,0,0:0:0:0:
475,192,17509,1,0,0:0:0:0:
329,192,17509,1,0,0:0:0:0:
182,192,17600,1,0,0:0:0:0:
402,192,17691,1,0,0:0:0:0:
109,192,17782,1,0,0:0:0:0:
36,192,17873,1,0,0:0:0:0:
475,192,17873,1,0,0:0:0:0:
329,192,17873,1,0,0:0:0:0:
182,192,17964,1,0,0:0:0:0:
402,192,18054,1,0,0:0:0:0:
109,192,18145,1,0,0:0:0:0:
36,192,18236,1,0,0:0:0:0:
475,192,18236,1,0,0:0:0:0:
329,192,18236,1,0,0:0:0:0:
182,192,18327,1,0,0:0:0:0:
402,192,18418,1,0,0:0:0:0:
256,192,18509,1,0,0:0:0:0:
475,192,18600,1,0,0:0:0:0:
36,192,18600,1,0,0:0:0:0:
182,192,18600,1,0,0:0:0:0:
329,192,18691,1,0,0:0:0:0:
109,192,18782,1,0,0:0:0:0:
256,192,18873,1,0,0:0:0:0:
475,192,18964,1,0,0:0:0:0:
36,192,18964,1,0,0:0:0:0:
329,192,18964,1,0,0:0:0:0:
182,192,19054,1,0,0:0:0:0:
402,192,19145,1,0,0:0:0:0:
256,192,19236,1,0,0:0:0:0:
475,192,19327,1,0,0:0:0:0:
36,192,19327,1,0,0:0:0:0:
182,192,19327,1,0,0:0:0:0:
329,192,19418,1,0,0:0:0:0:
256,192,19509,1,0,0:0:0:0:
109,192,19600,1,0,0:0:0:0:
475,192,19691,1,0,0:0:0:0:
36,192,19691,1,0,0:0:0:0:
182,192,19691,1,0,0:0:0:0:
329,192,19782,1,0,0:0:0:0:
256,192,19873,1,0,0:0:0:0:
109,192,19964,1,0,0:0:0:0:
36,192,20054,1,0,0:0:0:0:
475,192,20054,1,0,0:0:0:0:
182,192,20054,1,0,0:0:0:0:
256,192,20145,1,0,0:0:0:0:
402,192,20236,1,0,0:0:0:0:
329,192,20327,1,0,0:0:0:0:
36,192,20418,1,0,0:0:0:0:
475,192,20418,1,0,0:0:0:0:
182,192,20418,1,0,0:0:0:0:
109,192,20509,1,0,0:0:0:0:
256,192,20600,1,0,0:0:0:0:
402,192,20691,1,0,0:0:0:0:
36,192,20782,1,0,0:0:0:0:
475,192,20782,1,0,0:0:0:0:
256,192,20782,1,0,0:0:0:0:
329,192,20873,1,0,0:0:0:0:
182,192,20964,1,0,0:0:0:0:
109,192,21054,1,0,0:0:0:0:
36,192,21145,1,0,0:0:0:0:
475,192,21145,1,0,0:0:0:0:
256,192,21145,1,0,0:0:0:0:
329,192,21145,1,0,0:0:0:0:
182,192,21236,1,0,0:0:0:0:
402,192,21327,1,0,0:0:0:0:
329,192,21327,1,0,0:0:0:0:
256,192,21418,1,0,0:0:0:0:
475,192,21509,1,0,0:0:0:0:
36,192,21509,1,0,0:0:0:0:
109,192,21600,1,0,0:0:0:0:
402,192,21600,1,0,0:0:0:0:
329,192,21691,1,0,0:0:0:0:
182,192,21691,1,0,0:0:0:0:
256,192,21782,1,0,0:0:0:0:
475,192,21873,1,0,0:0:0:0:
36,192,21873,1,0,0:0:0:0:
182,192,21873,1,0,0:0:0:0:
329,192,21873,1,0,0:0:0:0:
109,192,21964,1,0,0:0:0:0:
402,192,22054,1,0,0:0:0:0:
329,192,22145,1,0,0:0:0:0:
475,192,22236,1,0,0:0:0:0:
36,192,22236,1,0,0:0:0:0:
182,192,22236,1,0,0:0:0:0:
109,192,22327,1,0,0:0:0:0:
402,192,22418,1,0,0:0:0:0:
329,192,22509,1,0,0:0:0:0:
475,192,22600,1,0,0:0:0:0:
36,192,22600,1,0,0:0:0:0:
256,192,22600,1,0,0:0:0:0:
109,192,22691,1,0,0:0:0:0:
182,192,22782,1,0,0:0:0:0:
329,192,22873,1,0,0:0:0:0:
36,192,22964,1,0,0:0:0:0:
475,192,22964,1,0,0:0:0:0:
109,192,22964,1,0,0:0:0:0:
402,192,23054,1,0,0:0:0:0:
256,192,23145,1,0,0:0:0:0:
109,192,23236,1,0,0:0:0:0:
36,192,23327,1,0,0:0:0:0:
475,192,23327,1,0,0:0:0:0:
329,192,23327,1,0,0:0:0:0:
402,192,23418,1,0,0:0:0:0:
109,192,23509,1,0,0:0:0:0:
182,192,23600,1,0,0:0:0:0:
36,192,23691,1,0,0:0:0:0:
475,192,23691,1,0,0:0:0:0:
329,192,23691,1,0,0:0:0:0:
402,192,23782,1,0,0:0:0:0:
109,192,23873,1,0,0:0:0:0:
182,192,23964,1,0,0:0:0:0:
36,192,24054,1,0,0:0:0:0:
475,192,24054,1,0,0:0:0:0:
256,192,24054,1,0,0:0:0:0:
402,192,24145,1,0,0:0:0:0:
329,192,24236,1,0,0:0:0:0:
182,192,24327,1,0,0:0:0:0:
475,192,24418,1,0,0:0:0:0:
36,192,24418,1,0,0:0:0:0:
402,192,24418,1,0,0:0:0:0:
109,192,24509,1,0,0:0:0:0:
256,192,24600,1,0,0:0:0:0:
402,192,24691,1,0,0:0:0:0:
475,192,24782,1,0,0:0:0:0:
36,192,24782,1,0,0:0:0:0:
329,192,24782,1,0,0:0:0:0:
256,192,24873,1,0,0:0:0:0:
182,192,24964,1,0,0:0:0:0:
402,192,24964,1,0,0:0:0:0:
109,192,25054,1,0,0:0:0:0:
475,192,25145,1,0,0:0:0:0:
36,192,25145,1,0,0:0:0:0:
402,192,25145,1,0,0:0:0:0:
329,192,25236,1,0,0:0:0:0:
256,192,25327,1,0,0:0:0:0:
109,192,25327,1,0,0:0:0:0:
182,192,25418,1,0,0:0:0:0:
475,192,25509,1,0,0:0:0:0:
36,192,25509,1,0,0:0:0:0:
329,192,25509,1,0,0:0:0:0:
256,192,25600,1,0,0:0:0:0:
182,192,25691,1,0,0:0:0:0:
402,192,25691,1,0,0:0:0:0:
109,192,25782,1,0,0:0:0:0:
36,192,25873,1,0,0:0:0:0:
475,192,25873,1,0,0:0:0:0:
402,192,25873,1,0,0:0:0:0:
329,192,25964,1,0,0:0:0:0:
256,192,26054,1,0,0:0:0:0:
109,192,26054,1,0,0:0:0:0:
182,192,26145,1,0,0:0:0:0:
36,192,26236,1,0,0:0:0:0:
475,192,26236,1,0,0:0:0:0:
109,192,26327,1,0,0:0:0:0:
256,192,26418,1,0,0:0:0:0:
402,192,26509,1,0,0:0:0:0:
36,192,26600,1,0,0:0:0:0:
475,192,26600,1,0,0:0:0:0:
109,192,26691,1,0,0:0:0:0:
182,192,26782,1,0,0:0:0:0:
329,192,26782,1,0,0:0:0:0:
402,192,26873,1,0,0:0:0:0:
36,192,26964,1,0,0:0:0:0:
475,192,26964,1,0,0:0:0:0:
256,192,26964,1,0,0:0:0:0:
329,192,27054,1,0,0:0:0:0:
109,192,27054,1,0,0:0:0:0:
182,192,27145,1,0,0:0:0:0:
402,192,27145,1,0,0:0:0:0:
256,192,27236,1,0,0:0:0:0:
475,192,27236,1,0,0:0:0:0:
329,192,27327,1,0,0:0:0:0:
36,192,27327,1,0,0:0:0:0:
109,192,27418,1,0,0:0:0:0:
402,192,27418,1,0,0:0:0:0:
182,192,27509,1,0,0:0:0:0:
475,192,27509,1,0,0:0:0:0:
256,192,27600,1,0,0:0:0:0:
36,192,27600,1,0,0:0:0:0:
329,192,27691,1,0,0:0:0:0:
109,192,27691,1,0,0:0:0:0:
329,192,28054,1,0,0:0:0:0:
182,192,28418,1,0,0:0:0:0:
36,192,28782,1,0,0:0:0:0:
329,192,29145,1,0,0:0:0:0:
402,192,29145,1,0,0:0:0:0:
475,192,29327,1,0,0:0:0:0:
182,192,29327,1,0,0:0:0:0:
256,192,29509,1,0,0:0:0:0:
329,192,29509,1,0,0:0:0:0:
402,192,29691,1,0,0:0:0:0:
109,192,29691,1,0,0:0:0:0:
182,192,29873,1,0,0:0:0:0:
256,192,29873,1,0,0:0:0:0:
36,192,30054,1,0,0:0:0:0:
329,192,30054,1,0,0:0:0:0:
109,192,30236,1,0,0:0:0:0:
182,192,30236,1,0,0:0:0:0:
36,192,30418,1,0,0:0:0:0:
475,192,30418,1,0,0:0:0:0:
329,192,30600,1,0,0:0:0:0:
402,192,30600,1,0,0:0:0:0:
182,192,30782,1,0,0:0:0:0:
475,192,30782,1,0,0:0:0:0:
256,192,30964,1,0,0:0:0:0:
329,192,30964,1,0,0:0:0:0:
402,192,31145,1,0,0:0:0:0:
36,192,31145,1,0,0:0:0:0:
182,192,31327,1,0,0:0:0:0:
109,192,31327,1,0,0:0:0:0:
329,192,31509,1,0,0:0:0:0:
36,192,31509,1,0,0:0:0:0:
256,192,31691,1,0,0:0:0:0:
182,192,31691,1,0,0:0:0:0:
109,192,31873,1,0,0:0:0:0:
475,192,31873,1,0,0:0:0:0:
402,192,32054,1,0,0:0:0:0:
329,192,32054,1,0,0:0:0:0:
182,192,32236,1,0,0:0:0:0:
475,192,32236,1,0,0:0:0:0:
329,192,32418,1,0,0:0:0:0:
256,192,32418,1,0,0:0:0:0:
402,192,32600,1,0,0:0:0:0:
109,192,32600,1,0,0:0:0:0:
256,192,32782,1,0,0:0:0:0:
182,192,32782,1,0,0:0:0:0:
329,192,32964,1,0,0:0:0:0:
36,192,32964,1,0,0:0:0:0:
182,192,33145,1,0,0:0:0:0:
109,192,33145,1,0,0:0:0:0:
36,192,33327,1,0,0:0:0:0:
475,192,33327,1,0,0:0:0:0:
329,192,33509,1,0,0:0:0:0:
402,192,33509,1,0,0:0:0:0:
182,192,33691,1,0,0:0:0:0:
475,192,33691,1,0,0:0:0:0:
256,192,33873,1,0,0:0:0:0:
329,192,33873,1,0,0:0:0:0:
402,192,34054,1,0,0:0:0:0:
36,192,34054,1,0,0:0:0:0:
182,192,34236,1,0,0:0:0:0:
109,192,34236,1,0,0:0:0:0:
36,192,34418,1,0,0:0:0:0:
329,192,34418,1,0,0:0:0:0:
256,192,34600,1,0,0:0:0:0:
182,192,34600,1,0,0:0:0:0:
109,192,34782,1,0,0:0:0:0:
475,192,34782,1,0,0:0:0:0:
402,192,34964,1,0,0:0:0:0:
329,192,34964,1,0,0:0:0:0:
182,192,35145,1,0,0:0:0:0:
475,192,35145,1,0,0:0:0:0:
329,192,35327,1,0,0:0:0:0:
256,192,35327,1,0,0:0:0:0:
402,192,35509,1,0,0:0:0:0:
109,192,35509,1,0,0:0:0:0:
256,192,35691,1,0,0:0:0:0:
182,192,35691,1,0,0:0:0:0:
329,192,35873,1,0,0:0:0:0:
36,192,35873,1,0,0:0:0:0:
182,192,36054,1,0,0:0:0:0:
109,192,36054,1,0,0:0:0:0:
36,192,36236,1,0,0:0:0:0:
475,192,36236,1,0,0:0:0:0:
329,192,36418,1,0,0:0:0:0:
402,192,36418,1,0,0:0:0:0:
182,192,36600,1,0,0:0:0:0:
475,192,36600,1,0,0:0:0:0:
256,192,36782,1,0,0:0:0:0:
329,192,36782,1,0,0:0:0:0:
402,192,36964,1,0,0:0:0:0:
36,192,36964,1,0,0:0:0:0:
182,192,37145,1,0,0:0:0:0:
109,192,37145,1,0,0:0:0:0:
36,192,37327,1,0,0:0:0:0:
329,192,37327,1,0,0:0:0:0:
182,192,37509,1,0,0:0:0:0:
256,192,37509,1,0,0:0:0:0:
109,192,37691,1,0,0:0:0:0:
402,192,37691,1,0,0:0:0:0:
256,192,37873,1,0,0:0:0:0:
329,192,37873,1,0,0:0:0:0:
182,192,38054,1,0,0:0:0:0:
475,192,38054,1,0,0:0:0:0:
329,192,38236,1,0,0:0:0:0:
402,192,38236,1,0,0:0:0:0:
182,192,38418,1,0,0:0:0:0:
475,192,38418,1,0,0:0:0:0:
256,192,38600,1,0,0:0:0:0:
329,192,38600,1,0,0:0:0:0:
402,192,38782,1,0,0:0:0:0:
36,192,38782,1,0,0:0:0:0:
109,192,38964,1,0,0:0:0:0:
182,192,38964,1,0,0:0:0:0:
36,192,39145,1,0,0:0:0:0:
329,192,39145,1,0,0:0:0:0:
402,192,39327,1,0,0:0:0:0:
475,192,39327,1,0,0:0:0:0:
256,192,39509,1,0,0:0:0:0:
36,192,39509,1,0,0:0:0:0:
329,192,39691,1,0,0:0:0:0:
402,192,39691,1,0,0:0:0:0:
182,192,39873,1,0,0:0:0:0:
475,192,39873,1,0,0:0:0:0:
256,192,40054,1,0,0:0:0:0:
329,192,40054,1,0,0:0:0:0:
475,192,40236,1,0,0:0:0:0:
109,192,40236,1,0,0:0:0:0:
329,192,40418,1,0,0:0:0:0:
402,192,40418,1,0,0:0:0:0:
475,192,40600,1,0,0:0:0:0:
36,192,40600,1,0,0:0:0:0:
109,192,40782,1,0,0:0:0:0:
256,192,40782,1,0,0:0:0:0:
402,192,40873,1,0,0:0:0:0:
182,192,40964,1,0,0:0:0:0:
36,192,40964,1,0,0:0:0:0:
475,192,41054,1,0,0:0:0:0:
329,192,41145,1,0,0:0:0:0:
109,192,41145,1,0,0:0:0:0:
256,192,41145,1,0,0:0:0:0:
402,192,41145,1,0,0:0:0:0:
182,192,41236,1,0,0:0:0:0:
36,192,41327,1,0,0:0:0:0:
475,192,41327,1,0,0:0:0:0:
329,192,41418,1,0,0:0:0:0:
109,192,41509,1,0,0:0:0:0:
256,192,41509,1,0,0:0:0:0:
402,192,41600,1,0,0:0:0:0:
182,192,41691,1,0,0:0:0:0:
36,192,41691,1,0,0:0:0:0:
329,192,41782,1,0,0:0:0:0:
109,192,41873,1,0,0:0:0:0:
256,192,41873,1,0,0:0:0:0:
402,192,41873,1,0,0:0:0:0:
475,192,41873,1,0,0:0:0:0:
182,192,41964,1,0,0:0:0:0:
36,192,42054,1,0,0:0:0:0:
329,192,42054,1,0,0:0:0:0:
109,192,42145,1,0,0:0:0:0:
402,192,42236,1,0,0:0:0:0:
256,192,42236,1,0,0:0:0:0:
182,192,42327,1,0,0:0:0:0:
475,192,42418,1,0,0:0:0:0:
36,192,42418,1,0,0:0:0:0:
109,192,42509,1,0,0:0:0:0:
402,192,42600,1,0,0:0:0:0:
256,192,42600,1,0,0:0:0:0:
329,192,42600,1,0,0:0:0:0:
36,192,42600,1,0,0:0:0:0:
182,192,42691,1,0,0:0:0:0:
475,192,42782,1,0,0:0:0:0:
109,192,42782,1,0,0:0:0:0:
256,192,42873,1,0,0:0:0:0:
402,192,42964,1,0,0:0:0:0:
36,192,42964,1,0,0:0:0:0:
182,192,43054,1,0,0:0:0:0:
475,192,43145,1,0,0:0:0:0:
329,192,43145,1,0,0:0:0:0:
256,192,43236,1,0,0:0:0:0:
402,192,43327,1,0,0:0:0:0:
109,192,43327,1,0,0:0:0:0:
36,192,43327,1,0,0:0:0:0:
182,192,43327,1,0,0:0:0:0:
329,192,43418,1,0,0:0:0:0:
475,192,43509,1,0,0:0:0:0:
256,192,43509,1,0,0:0:0:0:
402,192,43600,1,0,0:0:0:0:
109,192,43691,1,0,0:0:0:0:
256,192,43691,1,0,0:0:0:0:
329,192,43782,1,0,0:0:0:0:
182,192,43873,1,0,0:0:0:0:
36,192,43873,1,0,0:0:0:0:
475,192,43964,1,0,0:0:0:0:
329,192,44054,1,0,0:0:0:0:
109,192,44054,1,0,0:0:0:0:
256,192,44054,1,0,0:0:0:0:
402,192,44054,1,0,0:0:0:0:
182,192,44145,1,0,0:0:0:0:
36,192,44236,1,0,0:0:0:0:
475,192,44236,1,0,0:0:0:0:
329,192,44327,1,0,0:0:0:0:
109,192,44418,1,0,0:0:0:0:
256,192,44418,1,0,0:0:0:0:
402,192,44509,1,0,0:0:0:0:
182,192,44600,1,0,0:0:0:0:
36,192,44600,1,0,0:0:0:0:
329,192,44691,1,0,0:0:0:0:
109,192,44782,1,0,0:0:0:0:
256,192,44782,1,0,0:0:0:0:
402,192,44782,1,0,0:0:0:0:
475,192,44782,1,0,0:0:0:0:
182,192,44873,1,0,0:0:0:0:
36,192,44964,1,0,0:0:0:0:
329,192,44964,1,0,0:0:0:0:
109,192,45054,1,0,0:0:0:0:
402,192,45145,1,0,0:0:0:0:
256,192,45145,1,0,0:0:0:0:
182,192,45236,1,0,0:0:0:0:
475,192,45327,1,0,0:0:0:0:
36,192,45327,1,0,0:0:0:0:
109,192,45418,1,0,0:0:0:0:
402,192,45509,1,0,0:0:0:0:
256,192,45509,1,0,0:0:0:0:
329,192,45509,1,0,0:0:0:0:
36,192,45509,1,0,0:0:0:0:
182,192,45600,1,0,0:0:0:0:
475,192,45691,1,0,0:0:0:0:
109,192,45691,1,0,0:0:0:0:
256,192,45782,1,0,0:0:0:0:
402,192,45873,1,0,0:0:0:0:
36,192,45873,1,0,0:0:0:0:
182,192,45964,1,0,0:0:0:0:
475,192,46054,1,0,0:0:0:0:
329,192,46054,1,0,0:0:0:0:
256,192,46145,1,0,0:0:0:0:
402,192,46236,1,0,0:0:0:0:
109,192,46236,1,0,0:0:0:0:
36,192,46236,1,0,0:0:0:0:
182,192,46236,1,0,0:0:0:0:
329,192,46327,1,0,0:0:0:0:
475,192,46418,1,0,0:0:0:0:
256,192,46418,1,0,0:0:0:0:
402,192,46509,1,0,0:0:0:0:
256,192,46600,1,0,0:0:0:0:
109,192,46600,1,0,0:0:0:0:
329,192,46691,1,0,0:0:0:0:
36,192,46782,1,0,0:0:0:0:
182,192,46782,1,0,0:0:0:0:
475,192,46873,1,0,0:0:0:0:
256,192,46964,1,0,0:0:0:0:
402,192,46964,1,0,0:0:0:0:
329,192,46964,1,0,0:0:0:0:
109,192,46964,1,0,0:0:0:0:
182,192,47054,1,0,0:0:0:0:
475,192,47145,1,0,0:0:0:0:
36,192,47145,1,0,0:0:0:0:
329,192,47236,1,0,0:0:0:0:
256,192,47327,1,0,0:0:0:0:
109,192,47327,1,0,0:0:0:0:
402,192,47418,1,0,0:0:0:0:
36,192,47509,1,0,0:0:0:0:
182,192,47509,1,0,0:0:0:0:
329,192,47600,1,0,0:0:0:0:
402,192,47691,1,0,0:0:0:0:
475,192,47691,1,0,0:0:0:0:
109,192,47691,1,0,0:0:0:0:
256,192,47691,1,0,0:0:0:0:
182,192,47782,1,0,0:0:0:0:
329,192,47873,1,0,0:0:0:0:
36,192,47873,1,0,0:0:0:0:
109,192,47964,1,0,0:0:0:0:
256,192,48054,1,0,0:0:0:0:
402,192,48054,1,0,0:0:0:0:
182,192,48145,1,0,0:0:0:0:
36,192,48236,1,0,0:0:0:0:
475,192,48236,1,0,0:0:0:0:
109,192,48327,1,0,0:0:0:0:
329,192,48418,1,0,0:0:0:0:
36,192,48418,1,0,0:0:0:0:
402,192,48418,1,0,0:0:0:0:
256,192,48418,1,0,0:0:0:0:
182,192,48509,1,0,0:0:0:0:
109,192,48600,1,0,0:0:0:0:
475,192,48600,1,0,0:0:0:0:
256,192,48691,1,0,0:0:0:0:
36,192,48782,1,0,0:0:0:0:
402,192,48782,1,0,0:0:0:0:
182,192,48873,1,0,0:0:0:0:
329,192,48964,1,0,0:0:0:0:
475,192,48964,1,0,0:0:0:0:
256,192,49054,1,0,0:0:0:0:
36,192,49145,1,0,0:0:0:0:
182,192,49145,1,0,0:0:0:0:
402,192,49145,1,0,0:0:0:0:
109,192,49145,1,0,0:0:0:0:
329,192,49236,1,0,0:0:0:0:
256,192,49327,1,0,0:0:0:0:
475,192,49327,1,0,0:0:0:0:
109,192,49418,1,0,0:0:0:0:
402,192,49509,1,0,0:0:0:0:
256,192,49509,1,0,0:0:0:0:
182,192,49600,1,0,0:0:0:0:
329,192,49691,1,0,0:0:0:0:
475,192,49691,1,0,0:0:0:0:
36,192,49782,1,0,0:0:0:0:
182,192,49873,1,0,0:0:0:0:
402,192,49873,1,0,0:0:0:0:
256,192,49873,1,0,0:0:0:0:
109,192,49873,1,0,0:0:0:0:
329,192,49964,1,0,0:0:0:0:
475,192,50054,1,0,0:0:0:0:
36,192,50054,1,0,0:0:0:0:
182,192,50145,1,0,0:0:0:0:
402,192,50236,1,0,0:0:0:0:
256,192,50236,1,0,0:0:0:0:
109,192,50327,1,0,0:0:0:0:
329,192,50418,1,0,0:0:0:0:
475,192,50418,1,0,0:0:0:0:
182,192,50509,1,0,0:0:0:0:
402,192,50600,1,0,0:0:0:0:
256,192,50600,1,0,0:0:0:0:
109,192,50600,1,0,0:0:0:0:
36,192,50600,1,0,0:0:0:0:
329,192,50691,1,0,0:0:0:0:
475,192,50782,1,0,0:0:0:0:
182,192,50782,1,0,0:0:0:0:
402,192,50873,1,0,0:0:0:0:
109,192,50964,1,0,0:0:0:0:
256,192,50964,1,0,0:0:0:0:
329,192,51054,1,0,0:0:0:0:
36,192,51145,1,0,0:0:0:0:
475,192,51145,1,0,0:0:0:0:
182,192,51145,1,0,0:0:0:0:
402,192,51236,1,0,0:0:0:0:
109,192,51327,1,0,0:0:0:0:
256,192,51327,1,0,0:0:0:0:
182,192,51327,1,0,0:0:0:0:
475,192,51327,1,0,0:0:0:0:
329,192,51418,1,0,0:0:0:0:
36,192,51509,1,0,0:0:0:0:
402,192,51509,1,0,0:0:0:0:
256,192,51600,1,0,0:0:0:0:
182,192,51691,1,0,0:0:0:0:
475,192,51691,1,0,0:0:0:0:
402,192,51691,1,0,0:0:0:0:
329,192,51782,1,0,0:0:0:0:
36,192,51873,1,0,0:0:0:0:
182,192,51873,1,0,0:0:0:0:
109,192,51873,1,0,0:0:0:0:
256,192,51964,1,0,0:0:0:0:
109,192,52054,1,0,0:0:0:0:
402,192,52054,1,0,0:0:0:0:
475,192,52054,1,0,0:0:0:0:
329,192,52054,1,0,0:0:0:0:
182,192,52145,1,0,0:0:0:0:
36,192,52236,1,0,0:0:0:0:
256,192,52236,1,0,0:0:0:0:
475,192,52236,1,0,0:0:0:0:
109,192,52327,1,0,0:0:0:0:
402,192,52418,1,0,0:0:0:0:
182,192,52418,1,0,0:0:0:0:
329,192,52418,1,0,0:0:0:0:
256,192,52782,1,0,0:0:0:0:
36,192,52964,1,0,0:0:0:0:
109,192,53024,1,0,0:0:0:0:
182,192,53085,1,0,0:0:0:0:
329,192,53145,1,0,0:0:0:0:
256,192,53327,1,0,0:0:0:0:
329,192,53509,1,0,0:0:0:0:
475,192,53691,1,0,0:0:0:0:
402,192,53873,1,0,0:0:0:0:
109,192,53964,1,0,0:0:0:0:
182,192,54236,1,0,0:0:0:0:
256,192,54600,1,0,0:0:0:0:
36,192,54600,1,0,0:0:0:0:
475,192,54600,1,0,0:0:0:0:
182,192,54782,1,0,0:0:0:0:
402,192,54782,1,0,0:0:0:0:
109,192,54782,1,0,0:0:0:0:
256,192,54964,1,0,0:0:0:0:
475,192,54964,1,0,0:0:0:0:
36,192,54964,1,0,0:0:0:0:
329,192,55145,1,0,0:0:0:0:
109,192,55145,1,0,0:0:0:0:
402,192,55145,1,0,0:0:0:0:
36,192,55327,1,0,0:0:0:0:
256,192,55327,1,0,0:0:0:0:
475,192,55327,1,0,0:0:0:0:
182,192,55691,1,0,0:0:0:0:
36,192,55873,1,0,0:0:0:0:
109,192,55933,1,0,0:0:0:0:
256,192,55994,1,0,0:0:0:0:
402,192,56054,1,0,0:0:0:0:
329,192,56236,1,0,0:0:0:0:
402,192,56418,1,0,0:0:0:0:
475,192,56600,1,0,0:0:0:0:
402,192,56782,1,0,0:0:0:0:
329,192,56873,1,0,0:0:0:0:
402,192,56964,1,0,0:0:0:0:
109,192,57327,1,0,0:0:0:0:
402,192,57509,1,0,0:0:0:0:
256,192,57691,1,0,0:0:0:0:
475,192,57873,1,0,0:0:0:0:
402,192,57964,1,0,0:0:0:0:
475,192,58054,1,0,0:0:0:0:
475,192,58236,1,0,0:0:0:0:
402,192,58600,1,0,0:0:0:0:
329,192,58964,1,0,0:0:0:0:
256,192,59327,1,0,0:0:0:0:
182,192,59509,1,0,0:0:0:0:
256,192,59691,1,0,0:0:0:0:
402,192,59873,1,0,0:0:0:0:
256,192,60054,1,0,0:0:0:0:
109,192,60236,1,0,0:0:0:0:
109,192,60600,1,0,0:0:0:0:
182,192,60782,1,0,0:0:0:0:
256,192,60964,1,0,0:0:0:0:
109,192,61145,1,0,0:0:0:0:
182,192,61327,1,0,0:0:0:0:
256,192,61509,1,0,0:0:0:0:
109,192,61691,1,0,0:0:0:0:
256,192,61873,1,0,0:0:0:0:
329,192,62054,1,0,0:0:0:0:
109,192,62236,1,0,0:0:0:0:
329,192,62418,1,0,0:0:0:0:
475,192,62600,1,0,0:0:0:0:
256,192,62964,5,0,0:0:0:0:
475,192,63327,1,0,0:0:0:0:
36,192,63327,1,0,0:0:0:0:
36,192,63509,1,0,0:0:0:0:
36,192,63691,1,0,0:0:0:0:
36,192,63873,1,0,0:0:0:0:
475,192,64054,5,0,0:0:0:0:
36,192,64054,1,0,0:0:0:0:
402,192,64236,1,0,0:0:0:0:
256,192,64327,1,0,0:0:0:0:
402,192,64418,1,0,0:0:0:0:
329,192,64600,1,0,0:0:0:0:
182,192,64691,1,0,0:0:0:0:
329,192,64782,1,0,0:0:0:0:
256,192,64964,1,0,0:0:0:0:
109,192,65054,1,0,0:0:0:0:
256,192,65145,1,0,0:0:0:0:
475,192,65327,1,0,0:0:0:0:
329,192,65418,1,0,0:0:0:0:
475,192,65509,1,0,0:0:0:0:
402,192,65691,1,0,0:0:0:0:
256,192,65782,1,0,0:0:0:0:
402,192,65873,1,0,0:0:0:0:
256,192,66054,1,0,0:0:0:0:
109,192,66145,1,0,0:0:0:0:
256,192,66236,1,0,0:0:0:0:
36,192,66418,1,0,0:0:0:0:
402,192,66418,1,0,0:0:0:0:
256,192,66600,1,0,0:0:0:0:
36,192,66600,1,0,0:0:0:0:
475,192,66782,1,0,0:0:0:0:
36,192,66782,1,0,0:0:0:0:
329,192,66873,1,0,0:0:0:0:
475,192,66964,1,0,0:0:0:0:
402,192,67145,1,0,0:0:0:0:
256,192,67236,1,0,0:0:0:0:
402,192,67327,1,0,0:0:0:0:
329,192,67509,1,0,0:0:0:0:
182,192,67600,1,0,0:0:0:0:
329,192,67691,1,0,0:0:0:0:
256,192,67873,1,0,0:0:0:0:
109,192,67964,1,0,0:0:0:0:
256,192,68054,1,0,0:0:0:0:
402,192,68236,1,0,0:0:0:0:
256,192,68327,1,0,0:0:0:0:
402,192,68418,1,0,0:0:0:0:
329,192,68600,1,0,0:0:0:0:
182,192,68691,1,0,0:0:0:0:
329,192,68782,1,0,0:0:0:0:
256,192,68964,1,0,0:0:0:0:
109,192,69054,1,0,0:0:0:0:
256,192,69145,1,0,0:0:0:0:
36,192,69327,1,0,0:0:0:0:
402,192,69327,1,0,0:0:0:0:
36,192,69509,1,0,0:0:0:0:
256,192,69509,1,0,0:0:0:0:
36,192,69691,1,0,0:0:0:0:
402,192,69691,1,0,0:0:0:0:
402,192,69873,1,0,0:0:0:0:
182,192,69873,1,0,0:0:0:0:
36,192,70054,1,0,0:0:0:0:
402,192,70236,1,0,0:0:0:0:
109,192,70236,1,0,0:0:0:0:
182,192,70418,1,0,0:0:0:0:
402,192,70600,1,0,0:0:0:0:
256,192,70600,1,0,0:0:0:0:
36,192,70782,1,0,0:0:0:0:
402,192,70964,1,0,0:0:0:0:
182,192,70964,1,0,0:0:0:0:
36,192,71145,1,0,0:0:0:0:
475,192,71327,1,0,0:0:0:0:
329,192,71327,1,0,0:0:0:0:
36,192,71509,1,0,0:0:0:0:
475,192,71691,1,0,0:0:0:0:
256,192,71691,1,0,0:0:0:0:
36,192,71873,1,0,0:0:0:0:
402,192,72054,1,0,0:0:0:0:
182,192,72054,1,0,0:0:0:0:
36,192,72236,1,0,0:0:0:0:
475,192,72418,1,0,0:0:0:0:
109,192,72418,1,0,0:0:0:0:
36,192,72600,1,0,0:0:0:0:
475,192,72782,1,0,0:0:0:0:
109,192,72782,1,0,0:0:0:0:
36,192,72964,1,0,0:0:0:0:
475,192,73145,1,0,0:0:0:0:
109,192,73145,1,0,0:0:0:0:
182,192,73327,1,0,0:0:0:0:
475,192,73509,1,0,0:0:0:0:
256,192,73509,1,0,0:0:0:0:
329,192,73691,1,0,0:0:0:0:
36,192,73691,1,0,0:0:0:0:
402,192,73873,1,0,0:0:0:0:
182,192,73873,1,0,0:0:0:0:
475,192,74054,1,0,0:0:0:0:
475,192,74236,1,0,0:0:0:0:
109,192,74236,1,0,0:0:0:0:
402,192,74600,1,0,0:0:0:0:
182,192,74600,1,0,0:0:0:0:
329,192,74964,1,0,0:0:0:0:
109,192,74964,1,0,0:0:0:0:
182,192,75145,1,0,0:0:0:0:
402,192,75145,1,0,0:0:0:0:
256,192,75327,1,0,0:0:0:0:
36,192,75327,1,0,0:0:0:0:
475,192,75327,1,0,0:0:0:0:
109,192,75509,1,0,0:0:0:0:
402,192,75509,1,0,0:0:0:0:
329,192,75691,1,0,0:0:0:0:
182,192,75691,1,0,0:0:0:0:
36,192,75691,1,0,0:0:0:0:
475,192,75691,1,0,0:0:0:0:
109,192,75873,1,0,0:0:0:0:
256,192,75873,1,0,0:0:0:0:
182,192,76054,1,0,0:0:0:0:
36,192,76054,1,0,0:0:0:0:
402,192,76054,1,0,0:0:0:0:
475,192,76054,1,0,0:0:0:0:
256,192,76236,1,0,0:0:0:0:
109,192,76236,1,0,0:0:0:0:
182,192,76418,1,0,0:0:0:0:
329,192,76418,1,0,0:0:0:0:
256,192,76600,1,0,0:0:0:0:
402,192,76600,1,0,0:0:0:0:
329,192,76782,1,0,0:0:0:0:
475,192,76782,1,0,0:0:0:0:
36,192,76782,1,0,0:0:0:0:
109,192,76782,1,0,0:0:0:0:
475,192,77145,1,0,0:0:0:0:
329,192,77145,1,0,0:0:0:0:
402,192,77327,1,0,0:0:0:0:
256,192,77327,1,0,0:0:0:0:
329,192,77509,1,0,0:0:0:0:
475,192,77509,1,0,0:0:0:0:
36,192,77509,1,0,0:0:0:0:
109,192,77509,1,0,0:0:0:0:
402,192,77691,1,0,0:0:0:0:
256,192,77691,1,0,0:0:0:0:
329,192,77873,1,0,0:0:0:0:
182,192,77873,1,0,0:0:0:0:
256,192,78054,1,0,0:0:0:0:
109,192,78054,1,0,0:0:0:0:
475,192,78054,1,0,0:0:0:0:
182,192,78236,1,0,0:0:0:0:
36,192,78236,1,0,0:0:0:0:
402,192,78236,1,0,0:0:0:0:
475,192,78236,1,0,0:0:0:0:
475,192,78418,1,0,0:0:0:0:
256,192,78418,1,0,0:0:0:0:
182,192,78600,1,0,0:0:0:0:
36,192,78600,1,0,0:0:0:0:
109,192,78782,1,0,0:0:0:0:
256,192,78782,1,0,0:0:0:0:
329,192,78964,1,0,0:0:0:0:
475,192,78964,1,0,0:0:0:0:
182,192,78964,1,0,0:0:0:0:
36,192,78964,1,0,0:0:0:0:
402,192,79145,1,0,0:0:0:0:
256,192,79145,1,0,0:0:0:0:
329,192,79327,1,0,0:0:0:0:
36,192,79327,1,0,0:0:0:0:
109,192,79509,1,0,0:0:0:0:
402,192,79509,1,0,0:0:0:0:
182,192,79691,1,0,0:0:0:0:
475,192,79691,1,0,0:0:0:0:
36,192,79691,1,0,0:0:0:0:
329,192,79691,1,0,0:0:0:0:
329,192,80054,1,0,0:0:0:0:
475,192,80054,1,0,0:0:0:0:
402,192,80236,1,0,0:0:0:0:
256,192,80236,1,0,0:0:0:0:
182,192,80418,1,0,0:0:0:0:
36,192,80418,1,0,0:0:0:0:
329,192,80418,1,0,0:0:0:0:
475,192,80418,1,0,0:0:0:0:
109,192,80600,1,0,0:0:0:0:
256,192,80600,1,0,0:0:0:0:
182,192,80782,1,0,0:0:0:0:
475,192,80782,1,0,0:0:0:0:
402,192,80964,1,0,0:0:0:0:
109,192,80964,1,0,0:0:0:0:
256,192,80964,1,0,0:0:0:0:
36,192,81145,1,0,0:0:0:0:
475,192,81145,1,0,0:0:0:0:
182,192,81145,1,0,0:0:0:0:
256,192,81145,1,0,0:0:0:0:
256,192,81327,1,0,0:0:0:0:
402,192,81327,1,0,0:0:0:0:
109,192,81509,1,0,0:0:0:0:
36,192,81509,1,0,0:0:0:0:
329,192,81509,1,0,0:0:0:0:
182,192,81691,1,0,0:0:0:0:
402,192,81691,1,0,0:0:0:0:
256,192,81873,1,0,0:0:0:0:
475,192,81873,1,0,0:0:0:0:
109,192,81873,1,0,0:0:0:0:
36,192,82054,1,0,0:0:0:0:
182,192,82054,1,0,0:0:0:0:
402,192,82054,1,0,0:0:0:0:
329,192,82236,1,0,0:0:0:0:
475,192,82236,1,0,0:0:0:0:
256,192,82236,1,0,0:0:0:0:
182,192,82418,1,0,0:0:0:0:
36,192,82418,1,0,0:0:0:0:
329,192,82600,1,0,0:0:0:0:
109,192,82600,1,0,0:0:0:0:
402,192,82600,1,0,0:0:0:0:
256,192,82782,1,0,0:0:0:0:
36,192,82782,1,0,0:0:0:0:
329,192,82964,1,0,0:0:0:0:
402,192,82964,1,0,0:0:0:0:
475,192,82964,1,0,0:0:0:0:
182,192,83145,1,0,0:0:0:0:
109,192,83145,1,0,0:0:0:0:
256,192,83327,1,0,0:0:0:0:
329,192,83327,1,0,0:0:0:0:
402,192,83327,1,0,0:0:0:0:
36,192,83509,1,0,0:0:0:0:
475,192,83509,1,0,0:0:0:0:
256,192,83691,1,0,0:0:0:0:
182,192,83691,1,0,0:0:0:0:
109,192,83691,1,0,0:0:0:0:
402,192,83873,1,0,0:0:0:0:
182,192,84054,1,0,0:0:0:0:
329,192,84054,1,0,0:0:0:0:
256,192,84054,1,0,0:0:0:0:
475,192,84236,1,0,0:0:0:0:
402,192,84418,1,0,0:0:0:0:
256,192,84418,1,0,0:0:0:0:
36,192,84418,1,0,0:0:0:0:
109,192,84600,1,0,0:0:0:0:
402,192,84782,1,0,0:0:0:0:
256,192,84782,1,0,0:0:0:0:
36,192,84782,1,0,0:0:0:0:
329,192,84964,1,0,0:0:0:0:
475,192,84964,1,0,0:0:0:0:
109,192,84964,1,0,0:0:0:0:
182,192,85145,1,0,0:0:0:0:
402,192,85145,1,0,0:0:0:0:
256,192,85145,1,0,0:0:0:0:
36,192,85327,1,0,0:0:0:0:
109,192,85509,1,0,0:0:0:0:
182,192,85509,1,0,0:0:0:0:
329,192,85509,1,0,0:0:0:0:
36,192,85691,1,0,0:0:0:0:
329,192,85873,1,0,0:0:0:0:
402,192,85873,1,0,0:0:0:0:
475,192,85873,1,0,0:0:0:0:
182,192,86054,1,0,0:0:0:0:
402,192,86236,1,0,0:0:0:0:
329,192,86236,1,0,0:0:0:0:
256,192,86236,1,0,0:0:0:0:
109,192,86418,1,0,0:0:0:0:
329,192,86600,1,0,0:0:0:0:
256,192,86600,1,0,0:0:0:0:
182,192,86600,1,0,0:0:0:0:
475,192,86600,1,0,0:0:0:0:
475,192,86782,1,0,0:0:0:0:
36,192,86782,1,0,0:0:0:0:
182,192,86964,1,0,0:0:0:0:
256,192,86964,1,0,0:0:0:0:
109,192,86964,1,0,0:0:0:0:
475,192,86964,1,0,0:0:0:0:
475,192,87145,1,0,0:0:0:0:
329,192,87145,1,0,0:0:0:0:
475,192,87327,1,0,0:0:0:0:
402,192,87327,1,0,0:0:0:0:
36,192,87327,1,0,0:0:0:0:
109,192,87327,1,0,0:0:0:0:
182,192,87509,1,0,0:0:0:0:
329,192,87509,1,0,0:0:0:0:
36,192,87691,1,0,0:0:0:0:
256,192,87691,1,0,0:0:0:0:
475,192,87691,1,0,0:0:0:0:
182,192,87873,1,0,0:0:0:0:
329,192,87873,1,0,0:0:0:0:
36,192,88054,1,0,0:0:0:0:
475,192,88054,1,0,0:0:0:0:
402,192,88236,1,0,0:0:0:0:
109,192,88236,1,0,0:0:0:0:
402,192,88418,1,0,0:0:0:0:
109,192,88418,1,0,0:0:0:0:
256,192,88418,1,0,0:0:0:0:
475,192,88782,1,0,0:0:0:0:
182,192,88782,1,0,0:0:0:0:
109,192,88964,1,0,0:0:0:0:
402,192,88964,1,0,0:0:0:0:
256,192,89145,1,0,0:0:0:0:
475,192,89145,1,0,0:0:0:0:
182,192,89145,1,0,0:0:0:0:
402,192,89327,1,0,0:0:0:0:
109,192,89327,1,0,0:0:0:0:
182,192,89509,1,0,0:0:0:0:
475,192,89509,1,0,0:0:0:0:
402,192,89691,1,0,0:0:0:0:
109,192,89691,1,0,0:0:0:0:
256,192,89873,1,0,0:0:0:0:
402,192,89873,1,0,0:0:0:0:
109,192,89873,1,0,0:0:0:0:
329,192,90236,1,0,0:0:0:0:
182,192,90236,1,0,0:0:0:0:
475,192,90418,1,0,0:0:0:0:
36,192,90418,1,0,0:0:0:0:
256,192,90600,1,0,0:0:0:0:
109,192,90600,1,0,0:0:0:0:
402,192,90600,1,0,0:0:0:0:
329,192,90782,1,0,0:0:0:0:
182,192,90782,1,0,0:0:0:0:
109,192,90964,1,0,0:0:0:0:
402,192,90964,1,0,0:0:0:0:
475,192,91145,1,0,0:0:0:0:
36,192,91145,1,0,0:0:0:0:
256,192,91327,1,0,0:0:0:0:
36,192,91327,1,0,0:0:0:0:
475,192,91327,1,0,0:0:0:0:
329,192,91691,1,0,0:0:0:0:
36,192,91691,1,0,0:0:0:0:
109,192,91873,1,0,0:0:0:0:
402,192,91873,1,0,0:0:0:0:
256,192,92054,1,0,0:0:0:0:
329,192,92054,1,0,0:0:0:0:
36,192,92054,1,0,0:0:0:0:
109,192,92236,1,0,0:0:0:0:
402,192,92236,1,0,0:0:0:0:
475,192,92418,1,0,0:0:0:0:
182,192,92418,1,0,0:0:0:0:
109,192,92600,1,0,0:0:0:0:
402,192,92600,1,0,0:0:0:0:
256,192,92782,1,0,0:0:0:0:
36,192,92782,1,0,0:0:0:0:
329,192,92782,1,0,0:0:0:0:
329,192,93145,1,0,0:0:0:0:
36,192,93145,1,0,0:0:0:0:
109,192,93327,1,0,0:0:0:0:
402,192,93327,1,0,0:0:0:0:
256,192,93509,1,0,0:0:0:0:
36,192,93509,1,0,0:0:0:0:
329,192,93509,1,0,0:0:0:0:
402,192,93691,1,0,0:0:0:0:
109,192,93691,1,0,0:0:0:0:
182,192,93873,1,0,0:0:0:0:
475,192,93873,1,0,0:0:0:0:
109,192,94054,1,0,0:0:0:0:
402,192,94054,1,0,0:0:0:0:
256,192,94236,1,0,0:0:0:0:
36,192,94236,1,0,0:0:0:0:
329,192,94236,1,0,0:0:0:0:
402,192,94418,1,0,0:0:0:0:
109,192,94418,1,0,0:0:0:0:
475,192,94600,1,0,0:0:0:0:
182,192,94600,1,0,0:0:0:0:
402,192,94782,1,0,0:0:0:0:
109,192,94782,1,0,0:0:0:0:
256,192,94964,1,0,0:0:0:0:
329,192,94964,1,0,0:0:0:0:
36,192,94964,1,0,0:0:0:0:
182,192,95145,1,0,0:0:0:0:
475,192,95145,1,0,0:0:0:0:
36,192,95327,1,0,0:0:0:0:
329,192,95327,1,0,0:0:0:0:
256,192,95691,1,0,0:0:0:0:
36,192,95691,1,0,0:0:0:0:
182,192,95691,1,0,0:0:0:0:
109,192,96054,1,0,0:0:0:0:
402,192,96054,1,0,0:0:0:0:
256,192,96418,1,0,0:0:0:0:
329,192,96418,1,0,0:0:0:0:
475,192,96418,1,0,0:0:0:0:
402,192,96600,1,0,0:0:0:0:
109,192,96600,1,0,0:0:0:0:
182,192,96782,1,0,0:0:0:0:
36,192,96782,1,0,0:0:0:0:
256,192,97145,1,0,0:0:0:0:
402,192,97145,1,0,0:0:0:0:
109,192,97145,1,0,0:0:0:0:
329,192,97509,1,0,0:0:0:0:
475,192,97509,1,0,0:0:0:0:
109,192,97691,1,0,0:0:0:0:
402,192,97873,1,0,0:0:0:0:
109,192,97873,1,0,0:0:0:0:
256,192,97873,1,0,0:0:0:0:
329,192,98236,1,0,0:0:0:0:
402,192,98236,1,0,0:0:0:0:
475,192,98236,1,0,0:0:0:0:
182,192,98418,1,0,0:0:0:0:
109,192,98418,1,0,0:0:0:0:
256,192,98600,1,0,0:0:0:0:
36,192,98600,1,0,0:0:0:0:
402,192,98600,1,0,0:0:0:0:
182,192,98782,1,0,0:0:0:0:
329,192,98782,1,0,0:0:0:0:
256,192,98964,1,0,0:0:0:0:
475,192,98964,1,0,0:0:0:0:
36,192,98964,1,0,0:0:0:0:
256,192,99327,1,0,0:0:0:0:
256,192,99873,1,0,0:0:0:0:
256,192,100236,1,0,0:0:0:0:
475,192,100418,1,0,0:0:0:0:
256,192,100782,1,0,0:0:0:0:
329,192,101145,1,0,0:0:0:0:
256,192,101327,1,0,0:0:0:0:
402,192,101418,1,0,0:0:0:0:
256,192,101509,1,0,0:0:0:0:
256,192,101691,1,0,0:0:0:0:
182,192,101873,1,0,0:0:0:0:
256,192,101873,1,0,0:0:0:0:
256,192,102236,1,0,0:0:0:0:
256,192,102782,1,0,0:0:0:0:
256,192,103145,1,0,0:0:0:0:
256,192,103691,1,0,0:0:0:0:
256,192,104236,1,0,0:0:0:0:
402,192,104327,1,0,0:0:0:0:
256,192,104418,1,0,0:0:0:0:
182,192,104782,1,0,0:0:0:0:
256,192,104782,1,0,0:0:0:0:
256,192,105145,1,0,0:0:0:0:
256,192,105691,1,0,0:0:0:0:
256,192,106054,1,0,0:0:0:0:
475,192,106236,1,0,0:0:0:0:
256,192,106600,1,0,0:0:0:0:
329,192,106964,1,0,0:0:0:0:
256,192,107145,1,0,0:0:0:0:
402,192,107236,1,0,0:0:0:0:
256,192,107327,1,0,0:0:0:0:
256,192,107509,1,0,0:0:0:0:
182,192,107691,1,0,0:0:0:0:
256,192,107691,1,0,0:0:0:0:
256,192,108054,1,0,0:0:0:0:
329,192,108600,1,0,0:0:0:0:
256,192,108600,1,0,0:0:0:0:
182,192,108782,1,0,0:0:0:0:
256,192,108964,1,0,0:0:0:0:
109,192,108964,1,0,0:0:0:0:
475,192,109145,1,0,0:0:0:0:
256,192,109509,1,0,0:0:0:0:
256,192,109691,1,0,0:0:0:0:
402,192,109782,1,0,0:0:0:0:
256,192,109873,1,0,0:0:0:0:
256,192,110054,1,0,0:0:0:0:
182,192,110054,1,0,0:0:0:0:
402,192,110145,1,0,0:0:0:0:
256,192,110236,1,0,0:0:0:0:
109,192,110236,1,0,0:0:0:0:
36,192,110418,1,0,0:0:0:0:
402,192,110600,1,0,0:0:0:0:
182,192,110600,1,0,0:0:0:0:
475,192,110782,1,0,0:0:0:0:
402,192,110964,1,0,0:0:0:0:
36,192,110964,1,0,0:0:0:0:
475,192,111145,1,0,0:0:0:0:
402,192,111327,1,0,0:0:0:0:
475,192,111509,1,0,0:0:0:0:
256,192,111509,1,0,0:0:0:0:
36,192,111691,1,0,0:0:0:0:
402,192,111691,1,0,0:0:0:0:
475,192,111873,1,0,0:0:0:0:
256,192,111873,1,0,0:0:0:0:
109,192,112054,1,0,0:0:0:0:
402,192,112054,1,0,0:0:0:0:
329,192,112054,1,0,0:0:0:0:
36,192,112236,1,0,0:0:0:0:
109,192,112418,1,0,0:0:0:0:
329,192,112418,1,0,0:0:0:0:
36,192,112600,1,0,0:0:0:0:
109,192,112782,1,0,0:0:0:0:
256,192,112782,1,0,0:0:0:0:
36,192,112964,1,0,0:0:0:0:
475,192,112964,1,0,0:0:0:0:
402,192,113054,1,0,0:0:0:0:
109,192,113145,1,0,0:0:0:0:
329,192,113145,1,0,0:0:0:0:
475,192,113145,1,0,0:0:0:0:
36,192,113327,1,0,0:0:0:0:
475,192,113327,1,0,0:0:0:0:
109,192,113509,1,0,0:0:0:0:
402,192,113509,1,0,0:0:0:0:
182,192,113509,1,0,0:0:0:0:
475,192,113691,1,0,0:0:0:0:
36,192,113873,1,0,0:0:0:0:
256,192,113873,1,0,0:0:0:0:
475,192,114054,1,0,0:0:0:0:
36,192,114236,1,0,0:0:0:0:
475,192,114418,1,0,0:0:0:0:
402,192,114418,1,0,0:0:0:0:
36,192,114600,1,0,0:0:0:0:
256,192,114600,1,0,0:0:0:0:
475,192,114782,1,0,0:0:0:0:
402,192,114782,1,0,0:0:0:0:
329,192,114964,1,0,0:0:0:0:
109,192,115145,1,0,0:0:0:0:
329,192,115327,1,0,0:0:0:0:
36,192,115327,1,0,0:0:0:0:
109,192,115509,1,0,0:0:0:0:
329,192,115691,1,0,0:0:0:0:
109,192,115873,1,0,0:0:0:0:
475,192,115873,1,0,0:0:0:0:
402,192,115964,1,0,0:0:0:0:
329,192,116054,1,0,0:0:0:0:
36,192,116054,1,0,0:0:0:0:
475,192,116054,1,0,0:0:0:0:
109,192,116236,1,0,0:0:0:0:
329,192,116418,1,0,0:0:0:0:
182,192,116418,1,0,0:0:0:0:
36,192,116600,1,0,0:0:0:0:
182,192,116782,1,0,0:0:0:0:
475,192,116782,1,0,0:0:0:0:
36,192,116964,1,0,0:0:0:0:
182,192,117145,1,0,0:0:0:0:
36,192,117327,1,0,0:0:0:0:
329,192,117327,1,0,0:0:0:0:
182,192,117509,1,0,0:0:0:0:
475,192,117509,1,0,0:0:0:0:
36,192,117691,1,0,0:0:0:0:
329,192,117691,1,0,0:0:0:0:
402,192,117873,1,0,0:0:0:0:
329,192,117873,1,0,0:0:0:0:
475,192,118054,1,0,0:0:0:0:
402,192,118236,1,0,0:0:0:0:
109,192,118236,1,0,0:0:0:0:
475,192,118418,1,0,0:0:0:0:
402,192,118600,1,0,0:0:0:0:
256,192,118600,1,0,0:0:0:0:
475,192,118782,1,0,0:0:0:0:
182,192,118782,1,0,0:0:0:0:
256,192,118873,1,0,0:0:0:0:
402,192,118964,1,0,0:0:0:0:
109,192,118964,1,0,0:0:0:0:
182,192,118964,1,0,0:0:0:0:
475,192,119145,1,0,0:0:0:0:
182,192,119145,1,0,0:0:0:0:
329,192,119327,1,0,0:0:0:0:
36,192,119327,1,0,0:0:0:0:
109,192,119327,1,0,0:0:0:0:
256,192,119509,1,0,0:0:0:0:
329,192,119691,1,0,0:0:0:0:
475,192,119691,1,0,0:0:0:0:
256,192,119873,1,0,0:0:0:0:
329,192,120054,1,0,0:0:0:0:
256,192,120236,1,0,0:0:0:0:
36,192,120236,1,0,0:0:0:0:
329,192,120418,1,0,0:0:0:0:
475,192,120418,1,0,0:0:0:0:
256,192,120600,1,0,0:0:0:0:
36,192,120600,1,0,0:0:0:0:
109,192,120782,1,0,0:0:0:0:
182,192,120964,1,0,0:0:0:0:
109,192,121145,1,0,0:0:0:0:
475,192,121145,1,0,0:0:0:0:
182,192,121327,1,0,0:0:0:0:
402,192,121327,1,0,0:0:0:0:
329,192,121418,1,0,0:0:0:0:
402,192,121509,1,0,0:0:0:0:
256,192,121509,1,0,0:0:0:0:
109,192,121509,1,0,0:0:0:0:
109,192,121691,1,0,0:0:0:0:
402,192,121691,1,0,0:0:0:0:
329,192,121782,1,0,0:0:0:0:
36,192,121873,1,0,0:0:0:0:
256,192,121873,1,0,0:0:0:0:
475,192,121873,1,0,0:0:0:0:
36,192,122054,1,0,0:0:0:0:
182,192,122236,128,0,123327:0:0:0:0:
475,192,122236,128,0,123327:0:0:0:0:
329,192,122236,128,0,125145:0:0:0:0:
36,192,123327,128,0,123691:0:0:0:0:
402,192,123327,128,0,123691:0:0:0:0:
182,192,123691,128,0,124782:0:0:0:0:
475,192,123691,128,0,124054:0:0:0:0:
402,192,124054,128,0,124418:0:0:0:0:
256,192,124418,128,0,124782:0:0:0:0:
109,192,124782,128,0,125145:0:0:0:0:
402,192,124782,128,0,126236:0:0:0:0:
182,192,125145,128,0,127691:0:0:0:0:
475,192,125145,128,0,127691:0:0:0:0:
256,192,126236,128,0,126600:0:0:0:0:
109,192,126600,128,0,127691:0:0:0:0:
402,192,127691,128,0,128054:0:0:0:0:
256,192,128054,5,0,0:0:0:0:
36,192,128054,1,0,0:0:0:0:
109,192,128054,1,0,0:0:0:0:
329,192,128054,1,0,0:0:0:0:
475,192,128054,1,0,0:0:0:0:
402,192,128236,1,0,0:0:0:0:
109,192,128236,1,0,0:0:0:0:
36,192,128418,1,0,0:0:0:0:
329,192,128418,1,0,0:0:0:0:
256,192,128418,1,0,0:0:0:0:
475,192,128418,1,0,0:0:0:0:
329,192,128600,1,0,0:0:0:0:
109,192,128600,1,0,0:0:0:0:
182,192,128782,1,0,0:0:0:0:
402,192,128782,1,0,0:0:0:0:
256,192,128964,1,0,0:0:0:0:
36,192,128964,1,0,0:0:0:0:
109,192,129145,1,0,0:0:0:0:
475,192,129145,1,0,0:0:0:0:
329,192,129145,1,0,0:0:0:0:
182,192,129145,1,0,0:0:0:0:
475,192,129327,1,0,0:0:0:0:
256,192,129327,1,0,0:0:0:0:
402,192,129509,1,0,0:0:0:0:
182,192,129509,1,0,0:0:0:0:
329,192,129691,1,0,0:0:0:0:
109,192,129691,1,0,0:0:0:0:
36,192,129873,1,0,0:0:0:0:
182,192,129873,1,0,0:0:0:0:
256,192,129873,1,0,0:0:0:0:
475,192,129873,1,0,0:0:0:0:
182,192,130054,1,0,0:0:0:0:
402,192,130054,1,0,0:0:0:0:
256,192,130236,1,0,0:0:0:0:
36,192,130236,1,0,0:0:0:0:
182,192,130418,1,0,0:0:0:0:
475,192,130418,1,0,0:0:0:0:
402,192,130600,1,0,0:0:0:0:
109,192,130600,1,0,0:0:0:0:
256,192,130600,1,0,0:0:0:0:
36,192,130600,1,0,0:0:0:0:
329,192,130782,1,0,0:0:0:0:
36,192,130782,1,0,0:0:0:0:
109,192,130964,1,0,0:0:0:0:
402,192,130964,1,0,0:0:0:0:
256,192,131145,1,0,0:0:0:0:
475,192,131145,1,0,0:0:0:0:
402,192,131327,1,0,0:0:0:0:
182,192,131327,1,0,0:0:0:0:
329,192,131327,1,0,0:0:0:0:
36,192,131327,1,0,0:0:0:0:
402,192,131509,1,0,0:0:0:0:
109,192,131509,1,0,0:0:0:0:
329,192,131691,1,0,0:0:0:0:
36,192,131691,1,0,0:0:0:0:
182,192,131873,1,0,0:0:0:0:
402,192,131873,1,0,0:0:0:0:
256,192,132054,1,0,0:0:0:0:
475,192,132054,1,0,0:0:0:0:
329,192,132054,1,0,0:0:0:0:
109,192,132054,1,0,0:0:0:0:
329,192,132236,1,0,0:0:0:0:
36,192,132236,1,0,0:0:0:0:
109,192,132418,1,0,0:0:0:0:
402,192,132418,1,0,0:0:0:0:
182,192,132600,1,0,0:0:0:0:
475,192,132600,1,0,0:0:0:0:
256,192,132782,1,0,0:0:0:0:
329,192,132782,1,0,0:0:0:0:
109,192,132782,1,0,0:0:0:0:
402,192,132782,1,0,0:0:0:0:
36,192,132964,1,0,0:0:0:0:
329,192,132964,1,0,0:0:0:0:
109,192,133145,1,0,0:0:0:0:
402,192,133145,1,0,0:0:0:0:
182,192,133327,1,0,0:0:0:0:
475,192,133327,1,0,0:0:0:0:
256,192,133509,1,0,0:0:0:0:
402,192,133509,1,0,0:0:0:0:
109,192,133509,1,0,0:0:0:0:
36,192,133509,1,0,0:0:0:0:
402,192,133691,1,0,0:0:0:0:
182,192,133691,1,0,0:0:0:0:
329,192,133873,1,0,0:0:0:0:
109,192,133873,1,0,0:0:0:0:
475,192,134054,1,0,0:0:0:0:
402,192,134100,1,0,0:0:0:0:
329,192,134145,1,0,0:0:0:0:
256,192,134191,1,0,0:0:0:0:
182,192,134236,1,0,0:0:0:0:
109,192,134282,1,0,0:0:0:0:
36,192,134327,1,0,0:0:0:0:
109,192,134373,1,0,0:0:0:0:
182,192,134418,1,0,0:0:0:0:
256,192,134464,1,0,0:0:0:0:
329,192,134509,1,0,0:0:0:0:
402,192,134554,1,0,0:0:0:0:
475,192,134600,128,0,135236:0:0:0:0:
475,192,135327,1,0,0:0:0:0:
36,192,135327,1,0,0:0:0:0:
329,192,135418,1,0,0:0:0:0:
182,192,135509,1,0,0:0:0:0:
402,192,135509,1,0,0:0:0:0:
256,192,135600,1,0,0:0:0:0:
36,192,135691,1,0,0:0:0:0:
475,192,135691,1,0,0:0:0:0:
182,192,135782,1,0,0:0:0:0:
109,192,135873,1,0,0:0:0:0:
329,192,135873,1,0,0:0:0:0:
256,192,135964,1,0,0:0:0:0:
475,192,136054,1,0,0:0:0:0:
36,192,136054,1,0,0:0:0:0:
329,192,136145,1,0,0:0:0:0:
402,192,136236,1,0,0:0:0:0:
182,192,136236,1,0,0:0:0:0:
256,192,136327,1,0,0:0:0:0:
475,192,136418,1,0,0:0:0:0:
36,192,136418,1,0,0:0:0:0:
182,192,136509,1,0,0:0:0:0:
109,192,136600,1,0,0:0:0:0:
329,192,136600,1,0,0:0:0:0:
256,192,136691,1,0,0:0:0:0:
475,192,136782,1,0,0:0:0:0:
36,192,136782,1,0,0:0:0:0:
329,192,136873,1,0,0:0:0:0:
182,192,136964,1,0,0:0:0:0:
402,192,136964,1,0,0:0:0:0:
256,192,137054,1,0,0:0:0:0:
36,192,137145,1,0,0:0:0:0:
475,192,137145,1,0,0:0:0:0:
182,192,137236,1,0,0:0:0:0:
109,192,137327,1,0,0:0:0:0:
329,192,137327,1,0,0:0:0:0:
256,192,137418,1,0,0:0:0:0:
475,192,137509,1,0,0:0:0:0:
36,192,137509,1,0,0:0:0:0:
329,192,137600,1,0,0:0:0:0:
402,192,137691,1,0,0:0:0:0:
182,192,137691,1,0,0:0:0:0:
256,192,137782,1,0,0:0:0:0:
475,192,137873,1,0,0:0:0:0:
36,192,137873,1,0,0:0:0:0:
182,192,137964,1,0,0:0:0:0:
109,192,138054,1,0,0:0:0:0:
329,192,138054,1,0,0:0:0:0:
256,192,138145,1,0,0:0:0:0:
36,192,138236,1,0,0:0:0:0:
475,192,138236,1,0,0:0:0:0:
329,192,138327,1,0,0:0:0:0:
402,192,138418,1,0,0:0:0:0:
182,192,138418,1,0,0:0:0:0:
256,192,138509,1,0,0:0:0:0:
475,192,138600,1,0,0:0:0:0:
36,192,138600,1,0,0:0:0:0:
182,192,138691,1,0,0:0:0:0:
329,192,138782,1,0,0:0:0:0:
109,192,138782,1,0,0:0:0:0:
256,192,138873,1,0,0:0:0:0:
36,192,138964,1,0,0:0:0:0:
475,192,138964,1,0,0:0:0:0:
329,192,139054,1,0,0:0:0:0:
182,192,139145,1,0,0:0:0:0:
402,192,139145,1,0,0:0:0:0:
256,192,139236,1,0,0:0:0:0:
36,192,139327,1,0,0:0:0:0:
475,192,139327,1,0,0:0:0:0:
182,192,139418,1,0,0:0:0:0:
329,192,139509,1,0,0:0:0:0:
109,192,139509,1,0,0:0:0:0:
256,192,139600,1,0,0:0:0:0:
475,192,139691,1,0,0:0:0:0:
36,192,139691,1,0,0:0:0:0:
329,192,139782,1,0,0:0:0:0:
182,192,139873,1,0,0:0:0:0:
402,192,139873,1,0,0:0:0:0:
256,192,139964,1,0,0:0:0:0:
36,192,140054,1,0,0:0:0:0:
475,192,140054,1,0,0:0:0:0:
182,192,140145,1,0,0:0:0:0:
109,192,140236,1,0,0:0:0:0:
329,192,140236,1,0,0:0:0:0:
256,192,140327,1,0,0:0:0:0:
475,192,140418,1,0,0:0:0:0:
36,192,140418,1,0,0:0:0:0:
329,192,140509,1,0,0:0:0:0:
402,192,140600,1,0,0:0:0:0:
182,192,140600,1,0,0:0:0:0:
256,192,140691,1,0,0:0:0:0:
475,192,140782,1,0,0:0:0:0:
36,192,140782,1,0,0:0:0:0:
182,192,140873,1,0,0:0:0:0:
109,192,140964,1,0,0:0:0:0:
329,192,140964,1,0,0:0:0:0:
256,192,141054,1,0,0:0:0:0:
36,192,141145,1,0,0:0:0:0:
475,192,141145,1,0,0:0:0:0:
402,192,141145,1,0,0:0:0:0:
329,192,141236,1,0,0:0:0:0:
402,192,141327,1,0,0:0:0:0:
182,192,141327,1,0,0:0:0:0:
256,192,141418,1,0,0:0:0:0:
475,192,141509,1,0,0:0:0:0:
36,192,141509,1,0,0:0:0:0:
182,192,141600,1,0,0:0:0:0:
329,192,141691,1,0,0:0:0:0:
109,192,141691,1,0,0:0:0:0:
402,192,141691,1,0,0:0:0:0:
256,192,141782,1,0,0:0:0:0:
36,192,141873,1,0,0:0:0:0:
475,192,141873,1,0,0:0:0:0:
329,192,141964,1,0,0:0:0:0:
182,192,142054,1,0,0:0:0:0:
402,192,142054,1,0,0:0:0:0:
256,192,142145,1,0,0:0:0:0:
36,192,142236,1,0,0:0:0:0:
475,192,142236,1,0,0:0:0:0:
329,192,142236,1,0,0:0:0:0:
182,192,142327,1,0,0:0:0:0:
329,192,142418,1,0,0:0:0:0:
109,192,142418,1,0,0:0:0:0:
256,192,142509,1,0,0:0:0:0:
475,192,142600,1,0,0:0:0:0:
36,192,142600,1,0,0:0:0:0:
329,192,142691,1,0,0:0:0:0:
182,192,142782,1,0,0:0:0:0:
402,192,142782,1,0,0:0:0:0:
109,192,142782,1,0,0:0:0:0:
256,192,142873,1,0,0:0:0:0:
36,192,142964,1,0,0:0:0:0:
475,192,142964,1,0,0:0:0:0:
182,192,143054,1,0,0:0:0:0:
109,192,143145,1,0,0:0:0:0:
329,192,143145,1,0,0:0:0:0:
256,192,143236,1,0,0:0:0:0:
475,192,143327,1,0,0:0:0:0:
36,192,143327,1,0,0:0:0:0:
402,192,143327,1,0,0:0:0:0:
329,192,143418,1,0,0:0:0:0:
402,192,143509,1,0,0:0:0:0:
182,192,143509,1,0,0:0:0:0:
256,192,143600,1,0,0:0:0:0:
475,192,143691,1,0,0:0:0:0:
36,192,143691,1,0,0:0:0:0:
329,192,143691,1,0,0:0:0:0:
182,192,143782,1,0,0:0:0:0:
109,192,143873,1,0,0:0:0:0:
329,192,143873,1,0,0:0:0:0:
256,192,143964,1,0,0:0:0:0:
475,192,144054,1,0,0:0:0:0:
36,192,144054,1,0,0:0:0:0:
182,192,144054,1,0,0:0:0:0:
329,192,144145,1,0,0:0:0:0:
402,192,144236,1,0,0:0:0:0:
182,192,144236,1,0,0:0:0:0:
256,192,144327,1,0,0:0:0:0:
475,192,144418,1,0,0:0:0:0:
36,192,144418,1,0,0:0:0:0:
182,192,144509,1,0,0:0:0:0:
329,192,144600,1,0,0:0:0:0:
109,192,144600,1,0,0:0:0:0:
402,192,144600,1,0,0:0:0:0:
256,192,144691,1,0,0:0:0:0:
36,192,144782,1,0,0:0:0:0:
475,192,144782,1,0,0:0:0:0:
329,192,144873,1,0,0:0:0:0:
182,192,144964,1,0,0:0:0:0:
402,192,144964,1,0,0:0:0:0:
256,192,145054,1,0,0:0:0:0:
36,192,145145,1,0,0:0:0:0:
109,192,145145,1,0,0:0:0:0:
475,192,145145,1,0,0:0:0:0:
182,192,145236,1,0,0:0:0:0:
329,192,145327,1,0,0:0:0:0:
109,192,145327,1,0,0:0:0:0:
256,192,145418,1,0,0:0:0:0:
475,192,145509,1,0,0:0:0:0:
36,192,145509,1,0,0:0:0:0:
329,192,145600,1,0,0:0:0:0:
182,192,145691,1,0,0:0:0:0:
402,192,145691,1,0,0:0:0:0:
109,192,145691,1,0,0:0:0:0:
256,192,145782,1,0,0:0:0:0:
36,192,145873,1,0,0:0:0:0:
475,192,145873,1,0,0:0:0:0:
182,192,145964,1,0,0:0:0:0:
109,192,146054,1,0,0:0:0:0:
329,192,146054,1,0,0:0:0:0:
256,192,146145,1,0,0:0:0:0:
475,192,146236,1,0,0:0:0:0:
36,192,146236,1,0,0:0:0:0:
402,192,146236,1,0,0:0:0:0:
329,192,146327,1,0,0:0:0:0:
402,192,146418,1,0,0:0:0:0:
182,192,146418,1,0,0:0:0:0:
256,192,146509,1,0,0:0:0:0:
475,192,146600,1,0,0:0:0:0:
36,192,146600,1,0,0:0:0:0:
109,192,146600,1,0,0:0:0:0:
329,192,146691,1,0,0:0:0:0:
36,192,146782,1,0,0:0:0:0:
182,192,146782,1,0,0:0:0:0:
329,192,146873,1,0,0:0:0:0:
182,192,146964,1,0,0:0:0:0:
475,192,146964,1,0,0:0:0:0:
36,192,146964,1,0,0:0:0:0:
402,192,147009,1,0,0:0:0:0:
329,192,147054,1,0,0:0:0:0:
256,192,147100,1,0,0:0:0:0:
182,192,147145,1,0,0:0:0:0:
109,192,147191,1,0,0:0:0:0:
36,192,147236,1,0,0:0:0:0:
109,192,147282,1,0,0:0:0:0:
182,192,147327,1,0,0:0:0:0:
256,192,147373,1,0,0:0:0:0:
329,192,147418,1,0,0:0:0:0:
402,192,147464,1,0,0:0:0:0:
475,192,147509,1,0,0:0:0:0:
36,192,147509,1,0,0:0:0:0:
109,192,147600,1,0,0:0:0:0:
329,192,147691,1,0,0:0:0:0:
402,192,147691,1,0,0:0:0:0:
256,192,147691,1,0,0:0:0:0:
182,192,147782,1,0,0:0:0:0:
109,192,147873,1,0,0:0:0:0:
475,192,147873,1,0,0:0:0:0:
402,192,147964,1,0,0:0:0:0:
329,192,148054,1,0,0:0:0:0:
36,192,148054,1,0,0:0:0:0:
475,192,148054,1,0,0:0:0:0:
182,192,148054,1,0,0:0:0:0:
256,192,148145,1,0,0:0:0:0:
109,192,148236,1,0,0:0:0:0:
402,192,148236,1,0,0:0:0:0:
182,192,148327,1,0,0:0:0:0:
256,192,148418,1,0,0:0:0:0:
36,192,148418,1,0,0:0:0:0:
402,192,148418,1,0,0:0:0:0:
475,192,148509,1,0,0:0:0:0:
109,192,148600,1,0,0:0:0:0:
329,192,148600,1,0,0:0:0:0:
182,192,148691,1,0,0:0:0:0:
36,192,148782,1,0,0:0:0:0:
475,192,148782,1,0,0:0:0:0:
256,192,148782,1,0,0:0:0:0:
329,192,148782,1,0,0:0:0:0:
402,192,148873,1,0,0:0:0:0:
329,192,148964,1,0,0:0:0:0:
182,192,148964,1,0,0:0:0:0:
109,192,149054,1,0,0:0:0:0:
256,192,149145,1,0,0:0:0:0:
475,192,149145,1,0,0:0:0:0:
36,192,149145,1,0,0:0:0:0:
329,192,149236,1,0,0:0:0:0:
402,192,149327,1,0,0:0:0:0:
109,192,149327,1,0,0:0:0:0:
256,192,149418,1,0,0:0:0:0:
182,192,149509,1,0,0:0:0:0:
36,192,149509,1,0,0:0:0:0:
475,192,149509,1,0,0:0:0:0:
109,192,149509,1,0,0:0:0:0:
329,192,149600,1,0,0:0:0:0:
402,192,149691,1,0,0:0:0:0:
36,192,149691,1,0,0:0:0:0:
256,192,149782,1,0,0:0:0:0:
329,192,149873,1,0,0:0:0:0:
475,192,149873,1,0,0:0:0:0:
182,192,149873,1,0,0:0:0:0:
109,192,149964,1,0,0:0:0:0:
36,192,150054,1,0,0:0:0:0:
256,192,150054,1,0,0:0:0:0:
329,192,150145,1,0,0:0:0:0:
402,192,150236,1,0,0:0:0:0:
182,192,150236,1,0,0:0:0:0:
475,192,150236,1,0,0:0:0:0:
36,192,150236,1,0,0:0:0:0:
256,192,150327,1,0,0:0:0:0:
109,192,150418,1,0,0:0:0:0:
475,192,150418,1,0,0:0:0:0:
36,192,150509,1,0,0:0:0:0:
182,192,150600,1,0,0:0:0:0:
402,192,150600,1,0,0:0:0:0:
256,192,150600,1,0,0:0:0:0:
329,192,150691,1,0,0:0:0:0:
475,192,150782,1,0,0:0:0:0:
36,192,150782,1,0,0:0:0:0:
109,192,150873,1,0,0:0:0:0:
329,192,150964,1,0,0:0:0:0:
402,192,150964,1,0,0:0:0:0:
182,192,150964,1,0,0:0:0:0:
36,192,150964,1,0,0:0:0:0:
475,192,151054,1,0,0:0:0:0:
256,192,151145,1,0,0:0:0:0:
109,192,151145,1,0,0:0:0:0:
402,192,151236,1,0,0:0:0:0:
329,192,151327,1,0,0:0:0:0:
182,192,151327,1,0,0:0:0:0:
475,192,151327,1,0,0:0:0:0:
36,192,151418,1,0,0:0:0:0:
109,192,151509,1,0,0:0:0:0:
256,192,151509,1,0,0:0:0:0:
182,192,151600,1,0,0:0:0:0:
329,192,151691,1,0,0:0:0:0:
402,192,151691,1,0,0:0:0:0:
475,192,151691,1,0,0:0:0:0:
36,192,151691,1,0,0:0:0:0:
109,192,151873,1,0,0:0:0:0:
256,192,151873,1,0,0:0:0:0:
402,192,151873,1,0,0:0:0:0:
329,192,152054,1,0,0:0:0:0:
475,192,152054,1,0,0:0:0:0:
329,192,152236,1,0,0:0:0:0:
182,192,152327,1,0,0:0:0:0:
36,192,152327,1,0,0:0:0:0:
329,192,152418,1,0,0:0:0:0:
475,192,152418,1,0,0:0:0:0:
109,192,152418,1,0,0:0:0:0:
256,192,152418,1,0,0:0:0:0:
182,192,152782,1,0,0:0:0:0:
36,192,152782,1,0,0:0:0:0:
475,192,152782,1,0,0:0:0:0:
256,192,152873,1,0,0:0:0:0:
402,192,152964,1,0,0:0:0:0:
109,192,152964,1,0,0:0:0:0:
329,192,153054,1,0,0:0:0:0:
182,192,153145,1,0,0:0:0:0:
36,192,153145,1,0,0:0:0:0:
256,192,153145,1,0,0:0:0:0:
475,192,153145,1,0,0:0:0:0:
329,192,153236,1,0,0:0:0:0:
402,192,153327,1,0,0:0:0:0:
109,192,153327,1,0,0:0:0:0:
256,192,153418,1,0,0:0:0:0:
36,192,153509,1,0,0:0:0:0:
475,192,153509,1,0,0:0:0:0:
329,192,153509,1,0,0:0:0:0:
182,192,153600,1,0,0:0:0:0:
402,192,153691,1,0,0:0:0:0:
256,192,153691,1,0,0:0:0:0:
36,192,153782,1,0,0:0:0:0:
182,192,153873,1,0,0:0:0:0:
329,192,153873,1,0,0:0:0:0:
109,192,153873,1,0,0:0:0:0:
402,192,153873,1,0,0:0:0:0:
475,192,153964,1,0,0:0:0:0:
256,192,154054,1,0,0:0:0:0:
36,192,154054,1,0,0:0:0:0:
329,192,154145,1,0,0:0:0:0:
402,192,154236,1,0,0:0:0:0:
182,192,154236,1,0,0:0:0:0:
36,192,154236,1,0,0:0:0:0:
256,192,154327,1,0,0:0:0:0:
329,192,154418,1,0,0:0:0:0:
475,192,154418,1,0,0:0:0:0:
109,192,154418,1,0,0:0:0:0:
256,192,154509,1,0,0:0:0:0:
402,192,154600,1,0,0:0:0:0:
182,192,154600,1,0,0:0:0:0:
36,192,154600,1,0,0:0:0:0:
256,192,154691,1,0,0:0:0:0:
109,192,154782,1,0,0:0:0:0:
475,192,154782,1,0,0:0:0:0:
329,192,154782,1,0,0:0:0:0:
256,192,154873,1,0,0:0:0:0:
402,192,154964,1,0,0:0:0:0:
182,192,154964,1,0,0:0:0:0:
36,192,154964,1,0,0:0:0:0:
475,192,155054,1,0,0:0:0:0:
256,192,155145,1,0,0:0:0:0:
109,192,155145,1,0,0:0:0:0:
36,192,155236,1,0,0:0:0:0:
182,192,155327,1,0,0:0:0:0:
402,192,155327,1,0,0:0:0:0:
329,192,155327,1,0,0:0:0:0:
475,192,155327,1,0,0:0:0:0:
109,192,155418,1,0,0:0:0:0:
256,192,155509,1,0,0:0:0:0:
475,192,155509,1,0,0:0:0:0:
329,192,155600,1,0,0:0:0:0:
182,192,155691,1,0,0:0:0:0:
36,192,155691,1,0,0:0:0:0:
109,192,155691,1,0,0:0:0:0:
402,192,155782,1,0,0:0:0:0:
256,192,155873,1,0,0:0:0:0:
475,192,155873,1,0,0:0:0:0:
109,192,155964,1,0,0:0:0:0:
182,192,156054,1,0,0:0:0:0:
36,192,156054,1,0,0:0:0:0:
475,192,156054,1,0,0:0:0:0:
402,192,156054,1,0,0:0:0:0:
329,192,156145,1,0,0:0:0:0:
256,192,156236,1,0,0:0:0:0:
109,192,156236,1,0,0:0:0:0:
329,192,156327,1,0,0:0:0:0:
402,192,156418,1,0,0:0:0:0:
36,192,156418,1,0,0:0:0:0:
475,192,156418,1,0,0:0:0:0:
182,192,156509,1,0,0:0:0:0:
36,192,156600,1,0,0:0:0:0:
256,192,156600,1,0,0:0:0:0:
109,192,156691,1,0,0:0:0:0:
475,192,156691,1,0,0:0:0:0:
182,192,156782,1,0,0:0:0:0:
402,192,156782,1,0,0:0:0:0:
329,192,156782,1,0,0:0:0:0:
36,192,156782,1,0,0:0:0:0:
256,192,156873,1,0,0:0:0:0:
402,192,156964,1,0,0:0:0:0:
109,192,156964,1,0,0:0:0:0:
36,192,157054,5,0,0:0:0:0:
109,192,157145,5,0,0:0:0:0:
329,192,157145,1,0,0:0:0:0:
475,192,157145,1,0,0:0:0:0:
256,192,157236,1,0,0:0:0:0:
182,192,157327,1,0,0:0:0:0:
36,192,157327,1,0,0:0:0:0:
402,192,157327,1,0,0:0:0:0:
256,192,157418,1,0,0:0:0:0:
109,192,157509,1,0,0:0:0:0:
329,192,157509,1,0,0:0:0:0:
475,192,157509,1,0,0:0:0:0:
256,192,157600,1,0,0:0:0:0:
182,192,157691,1,0,0:0:0:0:
36,192,157691,1,0,0:0:0:0:
402,192,157691,1,0,0:0:0:0:
256,192,157782,1,0,0:0:0:0:
109,192,157873,1,0,0:0:0:0:
329,192,157873,1,0,0:0:0:0:
475,192,157873,1,0,0:0:0:0:
36,192,158236,5,0,0:0:0:0:
109,192,158236,1,0,0:0:0:0:
182,192,158236,1,0,0:0:0:0:
329,192,158236,1,0,0:0:0:0:
402,192,158236,1,0,0:0:0:0:
475,192,158236,1,0,0:0:0:0:
256,192,158600,1,0,0:0:0:0:
182,192,158600,1,0,0:0:0:0:
329,192,158600,1,0,0:0:0:0:
475,192,158600,1,0,0:0:0:0:
36,192,158600,1,0,0:0:0:0:
402,192,158691,1,0,0:0:0:0:
109,192,158782,1,0,0:0:0:0:
329,192,158782,1,0,0:0:0:0:
182,192,158873,1,0,0:0:0:0:
256,192,158964,1,0,0:0:0:0:
36,192,158964,1,0,0:0:0:0:
329,192,158964,1,0,0:0:0:0:
475,192,158964,1,0,0:0:0:0:
182,192,159054,1,0,0:0:0:0:
109,192,159145,1,0,0:0:0:0:
402,192,159145,1,0,0:0:0:0:
475,192,159145,1,0,0:0:0:0:
329,192,159236,1,0,0:0:0:0:
256,192,159327,1,0,0:0:0:0:
36,192,159327,1,0,0:0:0:0:
402,192,159327,1,0,0:0:0:0:
109,192,159418,1,0,0:0:0:0:
475,192,159509,1,0,0:0:0:0:
182,192,159509,1,0,0:0:0:0:
329,192,159600,1,0,0:0:0:0:
256,192,159691,1,0,0:0:0:0:
109,192,159691,1,0,0:0:0:0:
36,192,159691,1,0,0:0:0:0:
402,192,159691,1,0,0:0:0:0:
475,192,159691,1,0,0:0:0:0:
182,192,159782,1,0,0:0:0:0:
329,192,159873,1,0,0:0:0:0:
36,192,159873,1,0,0:0:0:0:
402,192,159964,1,0,0:0:0:0:
475,192,160054,1,0,0:0:0:0:
256,192,160054,1,0,0:0:0:0:
109,192,160054,1,0,0:0:0:0:
329,192,160145,1,0,0:0:0:0:
256,192,160236,1,0,0:0:0:0:
402,192,160236,1,0,0:0:0:0:
36,192,160236,1,0,0:0:0:0:
182,192,160327,1,0,0:0:0:0:
256,192,160418,1,0,0:0:0:0:
109,192,160418,1,0,0:0:0:0:
475,192,160418,1,0,0:0:0:0:
329,192,160418,1,0,0:0:0:0:
36,192,160509,1,0,0:0:0:0:
182,192,160600,1,0,0:0:0:0:
402,192,160600,1,0,0:0:0:0:
329,192,160691,1,0,0:0:0:0:
256,192,160782,1,0,0:0:0:0:
109,192,160782,1,0,0:0:0:0:
36,192,160782,1,0,0:0:0:0:
182,192,160873,1,0,0:0:0:0:
256,192,160964,1,0,0:0:0:0:
402,192,160964,1,0,0:0:0:0:
475,192,160964,1,0,0:0:0:0:
329,192,161054,1,0,0:0:0:0:
256,192,161145,1,0,0:0:0:0:
109,192,161145,1,0,0:0:0:0:
475,192,161145,1,0,0:0:0:0:
36,192,161145,1,0,0:0:0:0:
402,192,161236,1,0,0:0:0:0:
329,192,161327,1,0,0:0:0:0:
182,192,161327,1,0,0:0:0:0:
36,192,161418,1,0,0:0:0:0:
256,192,161509,1,0,0:0:0:0:
475,192,161509,1,0,0:0:0:0:
109,192,161509,1,0,0:0:0:0:
329,192,161600,1,0,0:0:0:0:
402,192,161691,1,0,0:0:0:0:
182,192,161691,1,0,0:0:0:0:
109,192,161782,1,0,0:0:0:0:
256,192,161873,1,0,0:0:0:0:
329,192,161873,1,0,0:0:0:0:
475,192,161873,1,0,0:0:0:0:
36,192,161873,1,0,0:0:0:0:
182,192,161964,1,0,0:0:0:0:
109,192,162054,1,0,0:0:0:0:
402,192,162054,1,0,0:0:0:0:
329,192,162145,1,0,0:0:0:0:
256,192,162236,1,0,0:0:0:0:
182,192,162236,1,0,0:0:0:0:
109,192,162236,1,0,0:0:0:0:
329,192,162327,1,0,0:0:0:0:
402,192,162418,1,0,0:0:0:0:
36,192,162418,1,0,0:0:0:0:
109,192,162509,1,0,0:0:0:0:
182,192,162600,1,0,0:0:0:0:
475,192,162600,1,0,0:0:0:0:
329,192,162600,1,0,0:0:0:0:
36,192,162691,1,0,0:0:0:0:
256,192,162782,1,0,0:0:0:0:
402,192,162782,1,0,0:0:0:0:
109,192,162782,1,0,0:0:0:0:
182,192,162873,1,0,0:0:0:0:
329,192,162964,1,0,0:0:0:0:
475,192,162964,1,0,0:0:0:0:
402,192,162964,1,0,0:0:0:0:
182,192,163054,1,0,0:0:0:0:
36,192,163054,1,0,0:0:0:0:
329,192,163145,1,0,0:0:0:0:
475,192,163145,1,0,0:0:0:0:
182,192,163236,1,0,0:0:0:0:
36,192,163236,1,0,0:0:0:0:
329,192,163327,1,0,0:0:0:0:
475,192,163327,1,0,0:0:0:0:
402,192,163327,1,0,0:0:0:0:
256,192,163327,1,0,0:0:0:0:
36,192,163418,1,0,0:0:0:0:
109,192,163509,1,0,0:0:0:0:
256,192,163509,1,0,0:0:0:0:
402,192,163509,1,0,0:0:0:0:
475,192,163600,1,0,0:0:0:0:
329,192,163691,1,0,0:0:0:0:
182,192,163691,1,0,0:0:0:0:
36,192,163691,1,0,0:0:0:0:
475,192,163782,1,0,0:0:0:0:
329,192,163873,1,0,0:0:0:0:
182,192,163873,1,0,0:0:0:0:
36,192,163873,1,0,0:0:0:0:
402,192,163964,1,0,0:0:0:0:
475,192,164054,1,0,0:0:0:0:
256,192,164054,1,0,0:0:0:0:
109,192,164054,1,0,0:0:0:0:
36,192,164054,1,0,0:0:0:0:
329,192,164145,1,0,0:0:0:0:
402,192,164236,1,0,0:0:0:0:
182,192,164236,1,0,0:0:0:0:
256,192,164327,1,0,0:0:0:0:
329,192,164418,1,0,0:0:0:0:
475,192,164418,1,0,0:0:0:0:
109,192,164418,1,0,0:0:0:0:
36,192,164509,1,0,0:0:0:0:
182,192,164600,1,0,0:0:0:0:
402,192,164600,1,0,0:0:0:0:
329,192,164691,1,0,0:0:0:0:
475,192,164782,1,0,0:0:0:0:
256,192,164782,1,0,0:0:0:0:
109,192,164782,1,0,0:0:0:0:
36,192,164782,1,0,0:0:0:0:
402,192,164873,1,0,0:0:0:0:
182,192,164964,1,0,0:0:0:0:
329,192,164964,1,0,0:0:0:0:
109,192,165054,1,0,0:0:0:0:
402,192,165145,1,0,0:0:0:0:
256,192,165145,1,0,0:0:0:0:
36,192,165145,1,0,0:0:0:0:
475,192,165236,1,0,0:0:0:0:
329,192,165327,1,0,0:0:0:0:
109,192,165327,1,0,0:0:0:0:
182,192,165418,1,0,0:0:0:0:
256,192,165509,1,0,0:0:0:0:
402,192,165509,1,0,0:0:0:0:
475,192,165509,1,0,0:0:0:0:
36,192,165509,1,0,0:0:0:0:
109,192,165600,1,0,0:0:0:0:
182,192,165691,1,0,0:0:0:0:
402,192,165691,1,0,0:0:0:0:
475,192,165782,1,0,0:0:0:0:
329,192,165873,1,0,0:0:0:0:
256,192,165873,1,0,0:0:0:0:
109,192,165873,1,0,0:0:0:0:
36,192,165964,1,0,0:0:0:0:
256,192,166054,1,0,0:0:0:0:
182,192,166054,1,0,0:0:0:0:
402,192,166054,1,0,0:0:0:0:
475,192,166145,1,0,0:0:0:0:
256,192,166236,1,0,0:0:0:0:
329,192,166236,1,0,0:0:0:0:
109,192,166236,1,0,0:0:0:0:
36,192,166236,1,0,0:0:0:0:
402,192,166327,1,0,0:0:0:0:
475,192,166418,1,0,0:0:0:0:
182,192,166418,1,0,0:0:0:0:
36,192,166509,1,0,0:0:0:0:
256,192,166600,1,0,0:0:0:0:
182,192,166600,1,0,0:0:0:0:
402,192,166600,1,0,0:0:0:0:
475,192,166691,1,0,0:0:0:0:
256,192,166782,1,0,0:0:0:0:
109,192,166782,1,0,0:0:0:0:
329,192,166782,1,0,0:0:0:0:
36,192,166873,1,0,0:0:0:0:
256,192,166964,1,0,0:0:0:0:
182,192,166964,1,0,0:0:0:0:
402,192,166964,1,0,0:0:0:0:
475,192,166964,1,0,0:0:0:0:
109,192,167054,1,0,0:0:0:0:
36,192,167145,1,0,0:0:0:0:
329,192,167145,1,0,0:0:0:0:
402,192,167236,1,0,0:0:0:0:
475,192,167327,1,0,0:0:0:0:
256,192,167327,1,0,0:0:0:0:
109,192,167327,1,0,0:0:0:0:
36,192,167418,1,0,0:0:0:0:
329,192,167509,1,0,0:0:0:0:
182,192,167509,1,0,0:0:0:0:
402,192,167600,1,0,0:0:0:0:
475,192,167691,1,0,0:0:0:0:
109,192,167691,1,0,0:0:0:0:
36,192,167691,1,0,0:0:0:0:
256,192,167691,1,0,0:0:0:0:
329,192,167782,1,0,0:0:0:0:
182,192,167873,1,0,0:0:0:0:
402,192,167873,1,0,0:0:0:0:
109,192,167964,1,0,0:0:0:0:
36,192,168054,1,0,0:0:0:0:
256,192,168054,1,0,0:0:0:0:
329,192,168054,1,0,0:0:0:0:
402,192,168145,1,0,0:0:0:0:
475,192,168236,1,0,0:0:0:0:
182,192,168236,1,0,0:0:0:0:
109,192,168327,1,0,0:0:0:0:
329,192,168418,1,0,0:0:0:0:
36,192,168418,1,0,0:0:0:0:
256,192,168418,1,0,0:0:0:0:
475,192,168418,1,0,0:0:0:0:
109,192,168509,1,0,0:0:0:0:
256,192,168600,1,0,0:0:0:0:
182,192,168600,1,0,0:0:0:0:
329,192,168691,1,0,0:0:0:0:
402,192,168782,1,0,0:0:0:0:
109,192,168782,1,0,0:0:0:0:
256,192,168873,1,0,0:0:0:0:
475,192,168964,1,0,0:0:0:0:
36,192,168964,1,0,0:0:0:0:
109,192,169054,1,0,0:0:0:0:
402,192,169054,1,0,0:0:0:0:
182,192,169145,1,0,0:0:0:0:
36,192,169145,1,0,0:0:0:0:
329,192,169145,1,0,0:0:0:0:
475,192,169145,1,0,0:0:0:0:
36,192,169327,1,0,0:0:0:0:
182,192,169327,1,0,0:0:0:0:
329,192,169327,1,0,0:0:0:0:
475,192,169327,1,0,0:0:0:0:
182,192,169509,1,0,0:0:0:0:
36,192,169509,1,0,0:0:0:0:
329,192,169509,1,0,0:0:0:0:
475,192,169509,1,0,0:0:0:0:
182,192,169873,1,0,0:0:0:0:
256,192,169873,1,0,0:0:0:0:
329,192,169873,1,0,0:0:0:0:
475,192,169873,1,0,0:0:0:0:
402,192,169873,1,0,0:0:0:0:
36,192,169873,1,0,0:0:0:0:
109,192,169873,1,0,0:0:0:0:
256,192,170236,1,0,0:0:0:0:
402,192,170236,1,0,0:0:0:0:
109,192,170236,1,0,0:0:0:0:
329,192,170327,1,0,0:0:0:0:
182,192,170327,1,0,0:0:0:0:
256,192,170418,1,0,0:0:0:0:
109,192,170418,1,0,0:0:0:0:
182,192,170509,1,0,0:0:0:0:
36,192,170509,1,0,0:0:0:0:
256,192,170600,1,0,0:0:0:0:
475,192,170600,1,0,0:0:0:0:
402,192,170691,1,0,0:0:0:0:
182,192,170691,1,0,0:0:0:0:
329,192,170782,1,0,0:0:0:0:
109,192,170782,1,0,0:0:0:0:
256,192,170873,1,0,0:0:0:0:
36,192,170873,1,0,0:0:0:0:
329,192,170964,1,0,0:0:0:0:
475,192,170964,1,0,0:0:0:0:
402,192,171054,1,0,0:0:0:0:
256,192,171054,1,0,0:0:0:0:
329,192,171145,1,0,0:0:0:0:
182,192,171145,1,0,0:0:0:0:
256,192,171236,1,0,0:0:0:0:
109,192,171236,1,0,0:0:0:0:
475,192,171327,1,0,0:0:0:0:
36,192,171327,1,0,0:0:0:0:
402,192,171418,1,0,0:0:0:0:
109,192,171418,1,0,0:0:0:0:
182,192,171509,1,0,0:0:0:0:
329,192,171509,1,0,0:0:0:0:
256,192,171600,1,0,0:0:0:0:
182,192,171691,1,0,0:0:0:0:
475,192,171691,1,0,0:0:0:0:
402,192,171782,1,0,0:0:0:0:
109,192,171782,1,0,0:0:0:0:
329,192,171873,1,0,0:0:0:0:
36,192,171873,1,0,0:0:0:0:
256,192,171964,1,0,0:0:0:0:
475,192,171964,1,0,0:0:0:0:
182,192,172054,1,0,0:0:0:0:
36,192,172054,1,0,0:0:0:0:
329,192,172145,1,0,0:0:0:0:
475,192,172145,1,0,0:0:0:0:
256,192,172236,1,0,0:0:0:0:
109,192,172236,1,0,0:0:0:0:
475,192,172327,1,0,0:0:0:0:
36,192,172327,1,0,0:0:0:0:
329,192,172418,1,0,0:0:0:0:
182,192,172418,1,0,0:0:0:0:
475,192,172509,1,0,0:0:0:0:
36,192,172509,1,0,0:0:0:0:
256,192,172600,1,0,0:0:0:0:
402,192,172691,1,0,0:0:0:0:
109,192,172691,1,0,0:0:0:0:
256,192,172782,1,0,0:0:0:0:
475,192,172873,1,0,0:0:0:0:
36,192,172873,1,0,0:0:0:0:
182,192,172964,1,0,0:0:0:0:
329,192,172964,1,0,0:0:0:0:
402,192,173054,1,0,0:0:0:0:
109,192,173054,1,0,0:0:0:0:
36,192,173145,1,0,0:0:0:0:
475,192,173145,1,0,0:0:0:0:
256,192,173145,1,0,0:0:0:0:
402,192,173236,1,0,0:0:0:0:
182,192,173236,1,0,0:0:0:0:
329,192,173327,1,0,0:0:0:0:
109,192,173327,1,0,0:0:0:0:
256,192,173418,1,0,0:0:0:0:
36,192,173418,1,0,0:0:0:0:
329,192,173509,1,0,0:0:0:0:
475,192,173509,1,0,0:0:0:0:
402,192,173600,1,0,0:0:0:0:
256,192,173600,1,0,0:0:0:0:
329,192,173691,1,0,0:0:0:0:
182,192,173691,1,0,0:0:0:0:
256,192,173782,1,0,0:0:0:0:
109,192,173782,1,0,0:0:0:0:
36,192,173873,1,0,0:0:0:0:
329,192,173873,1,0,0:0:0:0:
256,192,173964,1,0,0:0:0:0:
475,192,173964,1,0,0:0:0:0:
182,192,174054,1,0,0:0:0:0:
402,192,174054,1,0,0:0:0:0:
109,192,174145,1,0,0:0:0:0:
329,192,174145,1,0,0:0:0:0:
256,192,174236,1,0,0:0:0:0:
402,192,174236,1,0,0:0:0:0:
329,192,174327,1,0,0:0:0:0:
182,192,174327,1,0,0:0:0:0:
256,192,174418,1,0,0:0:0:0:
109,192,174418,1,0,0:0:0:0:
182,192,174509,1,0,0:0:0:0:
36,192,174509,1,0,0:0:0:0:
256,192,174600,1,0,0:0:0:0:
109,192,174600,1,0,0:0:0:0:
329,192,174691,1,0,0:0:0:0:
475,192,174691,1,0,0:0:0:0:
256,192,174782,1,0,0:0:0:0:
109,192,174782,1,0,0:0:0:0:
329,192,174873,1,0,0:0:0:0:
475,192,174873,1,0,0:0:0:0:
182,192,174964,1,0,0:0:0:0:
36,192,174964,1,0,0:0:0:0:
329,192,175054,1,0,0:0:0:0:
475,192,175054,1,0,0:0:0:0:
182,192,175145,1,0,0:0:0:0:
36,192,175145,1,0,0:0:0:0:
329,192,175236,1,0,0:0:0:0:
475,192,175236,1,0,0:0:0:0:
36,192,175327,1,0,0:0:0:0:
182,192,175327,1,0,0:0:0:0:
402,192,175418,1,0,0:0:0:0:
256,192,175418,1,0,0:0:0:0:
475,192,175509,1,0,0:0:0:0:
109,192,175509,1,0,0:0:0:0:
36,192,175600,1,0,0:0:0:0:
329,192,175600,1,0,0:0:0:0:
182,192,175691,1,0,0:0:0:0:
402,192,175691,1,0,0:0:0:0:
109,192,175782,1,0,0:0:0:0:
329,192,175782,1,0,0:0:0:0:
182,192,175873,1,0,0:0:0:0:
402,192,175873,1,0,0:0:0:0:
109,192,175964,1,0,0:0:0:0:
329,192,175964,1,0,0:0:0:0:
256,192,176054,1,0,0:0:0:0:
36,192,176054,1,0,0:0:0:0:
475,192,176054,1,0,0:0:0:0:
475,192,176418,1,0,0:0:0:0:
256,192,176418,1,0,0:0:0:0:
109,192,176418,1,0,0:0:0:0:
329,192,176509,1,0,0:0:0:0:
36,192,176509,1,0,0:0:0:0:
475,192,176600,1,0,0:0:0:0:
182,192,176600,1,0,0:0:0:0:
329,192,176691,1,0,0:0:0:0:
36,192,176691,1,0,0:0:0:0:
256,192,176782,1,0,0:0:0:0:
109,192,176782,1,0,0:0:0:0:
402,192,176782,1,0,0:0:0:0:
402,192,176964,1,0,0:0:0:0:
256,192,176964,1,0,0:0:0:0:
109,192,176964,1,0,0:0:0:0:
329,192,177145,1,0,0:0:0:0:
36,192,177145,1,0,0:0:0:0:
475,192,177145,1,0,0:0:0:0:
109,192,177236,1,0,0:0:0:0:
329,192,177327,1,0,0:0:0:0:
182,192,177327,1,0,0:0:0:0:
402,192,177418,1,0,0:0:0:0:
475,192,177509,1,0,0:0:0:0:
256,192,177509,1,0,0:0:0:0:
109,192,177509,1,0,0:0:0:0:
36,192,177600,1,0,0:0:0:0:
329,192,177600,1,0,0:0:0:0:
182,192,177691,1,0,0:0:0:0:
475,192,177691,1,0,0:0:0:0:
329,192,177782,1,0,0:0:0:0:
36,192,177782,1,0,0:0:0:0:
402,192,177873,1,0,0:0:0:0:
182,192,177873,1,0,0:0:0:0:
329,192,177964,1,0,0:0:0:0:
109,192,177964,1,0,0:0:0:0:
402,192,178054,1,0,0:0:0:0:
182,192,178054,1,0,0:0:0:0:
329,192,178145,1,0,0:0:0:0:
109,192,178145,1,0,0:0:0:0:
256,192,178236,1,0,0:0:0:0:
36,192,178236,1,0,0:0:0:0:
475,192,178236,1,0,0:0:0:0:
475,192,178418,1,0,0:0:0:0:
256,192,178418,1,0,0:0:0:0:
36,192,178418,1,0,0:0:0:0:
402,192,178600,1,0,0:0:0:0:
329,192,178600,1,0,0:0:0:0:
182,192,178600,1,0,0:0:0:0:
109,192,178691,1,0,0:0:0:0:
36,192,178782,1,0,0:0:0:0:
475,192,178782,1,0,0:0:0:0:
402,192,178873,1,0,0:0:0:0:
329,192,178964,1,0,0:0:0:0:
256,192,178964,1,0,0:0:0:0:
36,192,178964,1,0,0:0:0:0:
109,192,179054,1,0,0:0:0:0:
182,192,179145,1,0,0:0:0:0:
475,192,179145,1,0,0:0:0:0:
402,192,179145,1,0,0:0:0:0:
109,192,179236,1,0,0:0:0:0:
36,192,179327,1,0,0:0:0:0:
256,192,179327,1,0,0:0:0:0:
329,192,179327,1,0,0:0:0:0:
402,192,179418,1,0,0:0:0:0:
475,192,179509,1,0,0:0:0:0:
109,192,179509,1,0,0:0:0:0:
36,192,179509,1,0,0:0:0:0:
182,192,179600,1,0,0:0:0:0:
256,192,179691,1,0,0:0:0:0:
329,192,179691,1,0,0:0:0:0:
402,192,179691,1,0,0:0:0:0:
182,192,179782,1,0,0:0:0:0:
109,192,179873,1,0,0:0:0:0:
475,192,179873,1,0,0:0:0:0:
402,192,179873,1,0,0:0:0:0:
182,192,179964,1,0,0:0:0:0:
256,192,180054,1,0,0:0:0:0:
329,192,180054,1,0,0:0:0:0:
475,192,180054,1,0,0:0:0:0:
36,192,180145,1,0,0:0:0:0:
109,192,180236,1,0,0:0:0:0:
402,192,180236,1,0,0:0:0:0:
329,192,180327,1,0,0:0:0:0:
182,192,180418,1,0,0:0:0:0:
475,192,180418,1,0,0:0:0:0:
36,192,180418,1,0,0:0:0:0:
256,192,180600,1,0,0:0:0:0:
402,192,180600,1,0,0:0:0:0:
402,192,180691,1,0,0:0:0:0:
256,192,180691,1,0,0:0:0:0:
329,192,180782,1,0,0:0:0:0:
475,192,180782,1,0,0:0:0:0:
109,192,180782,1,0,0:0:0:0:
36,192,180782,1,0,0:0:0:0:
182,192,180964,1,0,0:0:0:0:
256,192,180964,1,0,0:0:0:0:
109,192,181145,1,0,0:0:0:0:
256,192,181145,1,0,0:0:0:0:
402,192,181145,1,0,0:0:0:0:
329,192,181327,1,0,0:0:0:0:
256,192,181327,1,0,0:0:0:0:
109,192,181327,1,0,0:0:0:0:
182,192,181509,1,0,0:0:0:0:
109,192,181509,1,0,0:0:0:0:
256,192,181509,1,0,0:0:0:0:
329,192,181600,1,0,0:0:0:0:
402,192,181691,1,0,0:0:0:0:
36,192,181691,1,0,0:0:0:0:
109,192,181782,1,0,0:0:0:0:
182,192,181873,1,0,0:0:0:0:
475,192,181873,1,0,0:0:0:0:
256,192,181873,128,0,182236:0:0:0:0:
402,192,182236,1,0,0:0:0:0:
109,192,182327,1,0,0:0:0:0:
402,192,182418,1,0,0:0:0:0:
109,192,182509,1,0,0:0:0:0:
402,192,182600,1,0,0:0:0:0:
402,192,182782,1,0,0:0:0:0:
329,192,182964,1,0,0:0:0:0:
182,192,183327,1,0,0:0:0:0:
36,192,183418,1,0,0:0:0:0:
182,192,183509,1,0,0:0:0:0:
36,192,183600,1,0,0:0:0:0:
182,192,183691,1,0,0:0:0:0:
329,192,183782,1,0,0:0:0:0:
182,192,183873,1,0,0:0:0:0:
329,192,183964,1,0,0:0:0:0:
402,192,184054,1,0,0:0:0:0:
402,192,184236,1,0,0:0:0:0:
475,192,184418,128,0,184782:0:0:0:0:
182,192,184964,1,0,0:0:0:0:
402,192,185145,1,0,0:0:0:0:
182,192,185327,1,0,0:0:0:0:
402,192,185509,1,0,0:0:0:0:
402,192,185691,1,0,0:0:0:0:
329,192,185873,1,0,0:0:0:0:
182,192,186236,1,0,0:0:0:0:
256,192,186418,1,0,0:0:0:0:
256,192,186509,1,0,0:0:0:0:
402,192,186600,1,0,0:0:0:0:
329,192,186782,1,0,0:0:0:0:
475,192,186964,1,0,0:0:0:0:
475,192,187145,1,0,0:0:0:0:
182,192,187327,1,0,0:0:0:0:
109,192,187388,1,0,0:0:0:0:
329,192,187448,1,0,0:0:0:0:
256,192,187509,1,0,0:0:0:0:
182,192,187570,1,0,0:0:0:0:
402,192,187630,1,0,0:0:0:0:
36,192,187691,1,0,0:0:0:0:
109,192,187691,1,0,0:0:0:0:
329,192,187691,1,0,0:0:0:0:
182,192,187782,1,0,0:0:0:0:
256,192,187873,1,0,0:0:0:0:
475,192,187873,1,0,0:0:0:0:
329,192,187964,1,0,0:0:0:0:
109,192,188054,1,0,0:0:0:0:
402,192,188054,1,0,0:0:0:0:
36,192,188054,1,0,0:0:0:0:
182,192,188145,1,0,0:0:0:0:
329,192,188145,1,0,0:0:0:0:
109,192,188236,1,0,0:0:0:0:
402,192,188236,1,0,0:0:0:0:
329,192,188327,1,0,0:0:0:0:
182,192,188327,1,0,0:0:0:0:
402,192,188418,1,0,0:0:0:0:
109,192,188418,1,0,0:0:0:0:
475,192,188418,1,0,0:0:0:0:
475,192,188600,1,0,0:0:0:0:
36,192,188600,1,0,0:0:0:0:
256,192,188600,1,0,0:0:0:0:
329,192,188782,1,0,0:0:0:0:
256,192,188782,1,0,0:0:0:0:
182,192,188782,1,0,0:0:0:0:
402,192,188873,1,0,0:0:0:0:
475,192,188964,1,0,0:0:0:0:
36,192,188964,1,0,0:0:0:0:
109,192,189054,1,0,0:0:0:0:
182,192,189145,1,0,0:0:0:0:
256,192,189145,1,0,0:0:0:0:
329,192,189145,1,0,0:0:0:0:
36,192,189236,1,0,0:0:0:0:
475,192,189236,1,0,0:0:0:0:
182,192,189327,1,0,0:0:0:0:
329,192,189327,1,0,0:0:0:0:
36,192,189418,1,0,0:0:0:0:
402,192,189418,1,0,0:0:0:0:
182,192,189509,1,0,0:0:0:0:
475,192,189509,1,0,0:0:0:0:
109,192,189509,1,0,0:0:0:0:
329,192,189600,1,0,0:0:0:0:
36,192,189600,1,0,0:0:0:0:
182,192,189691,1,0,0:0:0:0:
475,192,189691,1,0,0:0:0:0:
329,192,189782,1,0,0:0:0:0:
475,192,189873,1,0,0:0:0:0:
256,192,189873,1,0,0:0:0:0:
109,192,189873,1,0,0:0:0:0:
475,192,190054,1,0,0:0:0:0:
256,192,190054,1,0,0:0:0:0:
109,192,190054,1,0,0:0:0:0:
402,192,190236,1,0,0:0:0:0:
329,192,190236,1,0,0:0:0:0:
182,192,190236,1,0,0:0:0:0:
109,192,190327,1,0,0:0:0:0:
36,192,190418,1,0,0:0:0:0:
475,192,190418,1,0,0:0:0:0:
256,192,190418,1,0,0:0:0:0:
402,192,190509,1,0,0:0:0:0:
329,192,190600,1,0,0:0:0:0:
109,192,190600,1,0,0:0:0:0:
182,192,190600,1,0,0:0:0:0:
475,192,190782,1,0,0:0:0:0:
329,192,190782,1,0,0:0:0:0:
36,192,190782,1,0,0:0:0:0:
109,192,190964,1,0,0:0:0:0:
36,192,190964,1,0,0:0:0:0:
182,192,190964,1,0,0:0:0:0:
256,192,191054,1,0,0:0:0:0:
329,192,191145,1,0,0:0:0:0:
402,192,191145,1,0,0:0:0:0:
475,192,191145,1,0,0:0:0:0:
256,192,191236,1,0,0:0:0:0:
182,192,191327,1,0,0:0:0:0:
36,192,191327,1,0,0:0:0:0:
475,192,191327,1,0,0:0:0:0:
475,192,191509,1,0,0:0:0:0:
182,192,191509,1,0,0:0:0:0:
36,192,191509,1,0,0:0:0:0:
256,192,191691,1,0,0:0:0:0:
329,192,191691,1,0,0:0:0:0:
402,192,191691,1,0,0:0:0:0:
182,192,191782,1,0,0:0:0:0:
109,192,191873,1,0,0:0:0:0:
402,192,191873,1,0,0:0:0:0:
329,192,191964,1,0,0:0:0:0:
256,192,192054,1,0,0:0:0:0:
182,192,192054,1,0,0:0:0:0:
109,192,192054,1,0,0:0:0:0:
475,192,192145,1,0,0:0:0:0:
329,192,192145,1,0,0:0:0:0:
36,192,192236,1,0,0:0:0:0:
182,192,192236,1,0,0:0:0:0:
256,192,192327,1,0,0:0:0:0:
475,192,192327,1,0,0:0:0:0:
402,192,192418,1,0,0:0:0:0:
109,192,192418,1,0,0:0:0:0:
182,192,192418,1,0,0:0:0:0:
329,192,192418,1,0,0:0:0:0:
256,192,192600,1,0,0:0:0:0:
36,192,192600,1,0,0:0:0:0:
475,192,192600,1,0,0:0:0:0:
182,192,192782,1,0,0:0:0:0:
182,192,192964,1,0,0:0:0:0:
256,192,193145,1,0,0:0:0:0:
475,192,193327,128,0,193509:0:0:0:0:
109,192,193509,1,0,0:0:0:0:
256,192,193691,1,0,0:0:0:0:
402,192,193873,1,0,0:0:0:0:
36,192,194054,1,0,0:0:0:0:
182,192,194236,1,0,0:0:0:0:
256,192,194418,1,0,0:0:0:0:
329,192,194600,1,0,0:0:0:0:
475,192,194782,1,0,0:0:0:0:
109,192,194964,1,0,0:0:0:0:
256,192,195145,1,0,0:0:0:0:
402,192,195327,1,0,0:0:0:0:
36,192,195509,1,0,0:0:0:0:
182,192,195691,1,0,0:0:0:0:
256,192,195873,1,0,0:0:0:0:
329,192,196054,1,0,0:0:0:0:
475,192,196236,1,0,0:0:0:0:
109,192,196418,1,0,0:0:0:0:
256,192,196600,1,0,0:0:0:0:
402,192,196782,1,0,0:0:0:0:
109,192,196964,1,0,0:0:0:0:
256,192,197145,1,0,0:0:0:0:
402,192,197327,1,0,0:0:0:0:
109,192,197509,1,0,0:0:0:0:
329,192,197691,1,0,0:0:0:0:
475,192,197873,1,0,0:0:0:0:
329,192,198054,1,0,0:0:0:0:
182,192,198236,1,0,0:0:0:0:
36,192,198418,1,0,0:0:0:0:
402,192,198600,1,0,0:0:0:0:
256,192,198782,1,0,0:0:0:0:
109,192,198964,1,0,0:0:0:0:
256,192,199145,1,0,0:0:0:0:
402,192,199327,128,0,199418:0:0:0:0:
402,192,199509,1,0,0:0:0:0:
109,192,199691,128,0,199873:0:0:0:0:
402,192,199873,128,0,199964:0:0:0:0:
256,192,200054,1,0,0:0:0:0:
402,192,200236,1,0,0:0:0:0:
109,192,200418,128,0,200782:0:0:0:0:
402,192,200964,128,0,201054:0:0:0:0:
109,192,201145,128,0,201327:0:0:0:0:
402,192,201327,128,0,201418:0:0:0:0:
256,192,201509,128,0,201600:0:0:0:0:
402,192,201691,128,0,201782:0:0:0:0:
109,192,201873,128,0,202054:0:0:0:0:
36,192,202054,128,0,202236:0:0:0:0:
182,192,202236,128,0,202418:0:0:0:0:
475,192,202418,1,0,0:0:0:0:
182,192,202600,128,0,202782:0:0:0:0:
475,192,202782,1,0,0:0:0:0:
182,192,202964,1,0,0:0:0:0:
329,192,203145,1,0,0:0:0:0:
475,192,203327,128,0,203509:0:0:0:0:
402,192,203509,128,0,203600:0:0:0:0:
256,192,203691,1,0,0:0:0:0:
402,192,203873,1,0,0:0:0:0:
182,192,204054,128,0,204236:0:0:0:0:
36,192,204236,128,0,204327:0:0:0:0:
109,192,204418,1,0,0:0:0:0:
256,192,204600,1,0,0:0:0:0:
475,192,204782,128,0,204964:0:0:0:0:
329,192,204964,128,0,205145:0:0:0:0:
182,192,205145,128,0,205509:0:0:0:0:
36,192,205267,1,0,0:0:0:0:
256,192,205388,1,0,0:0:0:0:
475,192,205509,1,0,0:0:0:0:
36,192,205630,1,0,0:0:0:0:
182,192,205751,1,0,0:0:0:0:
329,192,205873,1,0,0:0:0:0:
109,192,205994,1,0,0:0:0:0:
256,192,206115,1,0,0:0:0:0:
402,192,206236,1,0,0:0:0:0:
182,192,206358,1,0,0:0:0:0:
329,192,206479,1,0,0:0:0:0:
475,192,206600,1,0,0:0:0:0:
256,192,206721,1,0,0:0:0:0:
402,192,206842,1,0,0:0:0:0:
182,192,206964,1,0,0:0:0:0:
329,192,207085,1,0,0:0:0:0:
109,192,207206,1,0,0:0:0:0:
256,192,207327,1,0,0:0:0:0:
36,192,207448,1,0,0:0:0:0:
182,192,207570,1,0,0:0:0:0:
36,192,207691,1,0,0:0:0:0:
109,192,207812,1,0,0:0:0:0:
36,192,207933,1,0,0:0:0:0:
256,192,208054,1,0,0:0:0:0:
475,192,208054,1,0,0:0:0:0:
256,192,208418,1,0,0:0:0:0:
182,192,208782,1,0,0:0:0:0:
329,192,208903,1,0,0:0:0:0:
182,192,209024,1,0,0:0:0:0:
329,192,209145,1,0,0:0:0:0:
182,192,209206,1,0,0:0:0:0:
329,192,209267,1,0,0:0:0:0:
182,192,209327,1,0,0:0:0:0:
329,192,209388,1,0,0:0:0:0:
182,192,209448,1,0,0:0:0:0:
36,192,209509,128,0,209691:0:0:0:0:
256,192,209509,128,0,209691:0:0:0:0:
475,192,209509,128,0,209691:0:0:0:0:
256,192,209873,128,0,210054:0:0:0:0:
475,192,209873,128,0,210054:0:0:0:0:
36,192,209873,128,0,210054:0:0:0:0:
36,192,210236,128,0,210418:0:0:0:0:
475,192,210236,128,0,210418:0:0:0:0:
256,192,210236,128,0,210418:0:0:0:0:
256,192,210600,128,0,210782:0:0:0:0:
475,192,210600,128,0,210782:0:0:0:0:
36,192,210600,128,0,210782:0:0:0:0:
36,192,210964,128,0,211145:0:0:0:0:
475,192,210964,128,0,211145:0:0:0:0:
256,192,210964,128,0,211145:0:0:0:0:
182,192,211145,128,0,211236:0:0:0:0:
329,192,211145,128,0,211236:0:0:0:0:
475,192,211327,128,0,211509:0:0:0:0:
36,192,211327,128,0,211509:0:0:0:0:
256,192,211327,128,0,211509:0:0:0:0:
256,192,211691,128,0,211782:0:0:0:0:
475,192,211691,128,0,211782:0:0:0:0:
36,192,211691,128,0,211782:0:0:0:0:
402,192,211873,128,0,211964:0:0:0:0:
109,192,211873,128,0,211964:0:0:0:0:
36,192,212054,128,0,212236:0:0:0:0:
256,192,212054,128,0,212236:0:0:0:0:
475,192,212054,128,0,212236:0:0:0:0:
329,192,212236,128,0,212418:0:0:0:0:
182,192,212236,128,0,212418:0:0:0:0:
109,192,212418,128,0,212600:0:0:0:0:
256,192,212418,128,0,212600:0:0:0:0:
402,192,212418,128,0,212600:0:0:0:0:
109,192,212782,128,0,212964:0:0:0:0:
256,192,212782,128,0,212964:0:0:0:0:
402,192,212782,128,0,212964:0:0:0:0:
402,192,213145,128,0,213327:0:0:0:0:
256,192,213145,128,0,213327:0:0:0:0:
109,192,213145,128,0,213327:0:0:0:0:
109,192,213509,128,0,213691:0:0:0:0:
256,192,213509,128,0,213691:0:0:0:0:
402,192,213509,128,0,213691:0:0:0:0:
402,192,213873,128,0,213964:0:0:0:0:
256,192,213873,128,0,213964:0:0:0:0:
109,192,213873,128,0,213964:0:0:0:0:
36,192,214054,128,0,214145:0:0:0:0:
475,192,214054,128,0,214145:0:0:0:0:
256,192,214236,128,0,214418:0:0:0:0:
109,192,214236,128,0,214418:0:0:0:0:
402,192,214236,128,0,214418:0:0:0:0:
182,192,214418,128,0,214509:0:0:0:0:
329,192,214418,128,0,214509:0:0:0:0:
256,192,214600,128,0,214691:0:0:0:0:
36,192,214600,128,0,214691:0:0:0:0:
475,192,214600,128,0,214691:0:0:0:0:
402,192,214782,128,0,214873:0:0:0:0:
256,192,214782,128,0,214873:0:0:0:0:
109,192,214782,128,0,214873:0:0:0:0:
329,192,214964,128,0,215327:0:0:0:0:
36,192,214964,128,0,215145:0:0:0:0:
475,192,214964,128,0,215145:0:0:0:0:
182,192,214964,128,0,215327:0:0:0:0:
109,192,215145,128,0,215327:0:0:0:0:
402,192,215145,128,0,215327:0:0:0:0:
36,192,215327,128,0,215509:0:0:0:0:
256,192,215327,128,0,215509:0:0:0:0:
475,192,215327,128,0,215509:0:0:0:0:
475,192,215691,128,0,215873:0:0:0:0:
256,192,215691,128,0,215873:0:0:0:0:
36,192,215691,128,0,215873:0:0:0:0:
36,192,216054,128,0,216236:0:0:0:0:
256,192,216054,128,0,216236:0:0:0:0:
475,192,216054,128,0,216236:0:0:0:0:
475,192,216418,128,0,216600:0:0:0:0:
256,192,216418,128,0,216600:0:0:0:0:
36,192,216418,128,0,216600:0:0:0:0:
36,192,216782,128,0,216964:0:0:0:0:
256,192,216782,128,0,216964:0:0:0:0:
475,192,216782,128,0,216964:0:0:0:0:
182,192,216964,128,0,217054:0:0:0:0:
329,192,216964,128,0,217054:0:0:0:0:
475,192,217145,128,0,217327:0:0:0:0:
256,192,217145,128,0,217327:0:0:0:0:
36,192,217145,128,0,217327:0:0:0:0:
109,192,217509,128,0,217600:0:0:0:0:
256,192,217509,128,0,217600:0:0:0:0:
402,192,217509,128,0,217600:0:0:0:0:
36,192,217691,128,0,217782:0:0:0:0:
329,192,217691,128,0,217782:0:0:0:0:
256,192,217873,128,0,218054:0:0:0:0:
109,192,217873,128,0,218054:0:0:0:0:
402,192,217873,128,0,218054:0:0:0:0:
182,192,218054,128,0,218236:0:0:0:0:
475,192,218054,128,0,218236:0:0:0:0:
36,192,218236,128,0,218418:0:0:0:0:
256,192,218236,128,0,218418:0:0:0:0:
402,192,218236,128,0,218418:0:0:0:0:
402,192,218600,128,0,218782:0:0:0:0:
256,192,218600,128,0,218782:0:0:0:0:
36,192,218600,128,0,218782:0:0:0:0:
36,192,218964,128,0,219145:0:0:0:0:
256,192,218964,128,0,219145:0:0:0:0:
402,192,218964,128,0,219145:0:0:0:0:
36,192,219327,128,0,219418:0:0:0:0:
402,192,219327,128,0,219418:0:0:0:0:
256,192,219327,128,0,219418:0:0:0:0:
109,192,219509,128,0,219600:0:0:0:0:
475,192,219509,128,0,219600:0:0:0:0:
182,192,219691,128,0,219782:0:0:0:0:
402,192,219691,128,0,219782:0:0:0:0:
329,192,219873,128,0,219964:0:0:0:0:
109,192,219873,128,0,219964:0:0:0:0:
256,192,220054,128,0,220236:0:0:0:0:
36,192,220054,128,0,220236:0:0:0:0:
256,192,220418,128,0,220509:0:0:0:0:
182,192,220418,128,0,220509:0:0:0:0:
402,192,220418,128,0,220509:0:0:0:0:
329,192,220600,128,0,220691:0:0:0:0:
182,192,220600,128,0,220691:0:0:0:0:
109,192,220600,128,0,220691:0:0:0:0:
36,192,220782,128,0,221145:0:0:0:0:
109,192,220782,128,0,221145:0:0:0:0:
256,192,220782,128,0,220873:0:0:0:0:
475,192,220873,1,0,0:0:0:0:
402,192,220964,1,0,0:0:0:0:
329,192,221054,1,0,0:0:0:0:
256,192,221145,1,0,0:0:0:0:
182,192,221145,1,0,0:0:0:0:
402,192,221145,1,0,0:0:0:0:
475,192,221236,1,0,0:0:0:0:
109,192,221327,1,0,0:0:0:0:
329,192,221327,1,0,0:0:0:0:
182,192,221418,1,0,0:0:0:0:
475,192,221509,1,0,0:0:0:0:
256,192,221509,1,0,0:0:0:0:
36,192,221509,1,0,0:0:0:0:
402,192,221600,1,0,0:0:0:0:
109,192,221691,1,0,0:0:0:0:
182,192,221691,1,0,0:0:0:0:
329,192,221782,1,0,0:0:0:0:
36,192,221873,1,0,0:0:0:0:
256,192,221873,1,0,0:0:0:0:
475,192,221873,1,0,0:0:0:0:
109,192,221964,1,0,0:0:0:0:
402,192,222054,1,0,0:0:0:0:
329,192,222054,1,0,0:0:0:0:
182,192,222145,1,0,0:0:0:0:
36,192,222236,1,0,0:0:0:0:
256,192,222236,1,0,0:0:0:0:
475,192,222236,1,0,0:0:0:0:
402,192,222327,1,0,0:0:0:0:
109,192,222418,1,0,0:0:0:0:
329,192,222418,1,0,0:0:0:0:
182,192,222509,1,0,0:0:0:0:
256,192,222600,1,0,0:0:0:0:
475,192,222600,1,0,0:0:0:0:
36,192,222600,1,0,0:0:0:0:
329,192,222691,1,0,0:0:0:0:
402,192,222782,1,0,0:0:0:0:
182,192,222782,1,0,0:0:0:0:
109,192,222782,1,0,0:0:0:0:
329,192,222873,1,0,0:0:0:0:
256,192,222964,1,0,0:0:0:0:
36,192,222964,1,0,0:0:0:0:
475,192,222964,1,0,0:0:0:0:
109,192,223054,1,0,0:0:0:0:
402,192,223145,1,0,0:0:0:0:
182,192,223145,1,0,0:0:0:0:
329,192,223236,1,0,0:0:0:0:
256,192,223327,1,0,0:0:0:0:
109,192,223327,1,0,0:0:0:0:
36,192,223327,1,0,0:0:0:0:
402,192,223418,1,0,0:0:0:0:
329,192,223509,1,0,0:0:0:0:
182,192,223509,1,0,0:0:0:0:
109,192,223509,1,0,0:0:0:0:
36,192,223600,1,0,0:0:0:0:
475,192,223691,1,0,0:0:0:0:
402,192,223691,1,0,0:0:0:0:
256,192,223691,1,0,0:0:0:0:
109,192,223782,1,0,0:0:0:0:
329,192,223873,1,0,0:0:0:0:
402,192,223873,1,0,0:0:0:0:
182,192,223873,1,0,0:0:0:0:
256,192,224054,1,0,0:0:0:0:
36,192,224054,1,0,0:0:0:0:
475,192,224054,1,0,0:0:0:0:
109,192,224145,1,0,0:0:0:0:
402,192,224236,1,0,0:0:0:0:
329,192,224236,1,0,0:0:0:0:
182,192,224327,1,0,0:0:0:0:
256,192,224418,1,0,0:0:0:0:
36,192,224418,1,0,0:0:0:0:
475,192,224418,1,0,0:0:0:0:
402,192,224509,1,0,0:0:0:0:
109,192,224600,1,0,0:0:0:0:
182,192,224600,1,0,0:0:0:0:
329,192,224691,1,0,0:0:0:0:
256,192,224782,1,0,0:0:0:0:
36,192,224782,1,0,0:0:0:0:
475,192,224782,1,0,0:0:0:0:
109,192,224873,1,0,0:0:0:0:
402,192,224964,1,0,0:0:0:0:
329,192,224964,1,0,0:0:0:0:
182,192,225054,1,0,0:0:0:0:
256,192,225145,1,0,0:0:0:0:
36,192,225145,1,0,0:0:0:0:
475,192,225145,1,0,0:0:0:0:
402,192,225236,1,0,0:0:0:0:
182,192,225327,1,0,0:0:0:0:
109,192,225327,1,0,0:0:0:0:
329,192,225418,1,0,0:0:0:0:
256,192,225509,1,0,0:0:0:0:
36,192,225509,1,0,0:0:0:0:
475,192,225509,1,0,0:0:0:0:
329,192,225600,1,0,0:0:0:0:
182,192,225600,1,0,0:0:0:0:
36,192,225691,1,0,0:0:0:0:
475,192,225691,1,0,0:0:0:0:
329,192,225782,1,0,0:0:0:0:
182,192,225782,1,0,0:0:0:0:
256,192,225873,1,0,0:0:0:0:
475,192,225873,1,0,0:0:0:0:
36,192,225873,1,0,0:0:0:0:
402,192,226054,1,0,0:0:0:0:
109,192,226054,1,0,0:0:0:0:
256,192,226054,1,0,0:0:0:0:
182,192,226236,1,0,0:0:0:0:
329,192,226236,1,0,0:0:0:0:
256,192,226236,1,0,0:0:0:0:
109,192,226418,1,0,0:0:0:0:
182,192,226418,1,0,0:0:0:0:
329,192,226418,1,0,0:0:0:0:
402,192,226418,1,0,0:0:0:0:
256,192,226600,1,0,0:0:0:0:
36,192,226600,1,0,0:0:0:0:
475,192,226600,1,0,0:0:0:0:
329,192,226691,1,0,0:0:0:0:
109,192,226782,1,0,0:0:0:0:
402,192,226782,1,0,0:0:0:0:
182,192,226873,1,0,0:0:0:0:
36,192,226964,1,0,0:0:0:0:
256,192,226964,1,0,0:0:0:0:
475,192,226964,1,0,0:0:0:0:
402,192,227054,1,0,0:0:0:0:
109,192,227145,1,0,0:0:0:0:
182,192,227145,1,0,0:0:0:0:
329,192,227236,1,0,0:0:0:0:
256,192,227327,1,0,0:0:0:0:
36,192,227327,1,0,0:0:0:0:
475,192,227327,1,0,0:0:0:0:
109,192,227418,1,0,0:0:0:0:
329,192,227509,1,0,0:0:0:0:
402,192,227509,1,0,0:0:0:0:
182,192,227600,1,0,0:0:0:0:
256,192,227691,1,0,0:0:0:0:
36,192,227691,1,0,0:0:0:0:
475,192,227691,1,0,0:0:0:0:
402,192,227782,1,0,0:0:0:0:
182,192,227873,1,0,0:0:0:0:
109,192,227873,1,0,0:0:0:0:
329,192,227964,1,0,0:0:0:0:
256,192,228054,1,0,0:0:0:0:
36,192,228054,1,0,0:0:0:0:
475,192,228054,1,0,0:0:0:0:
109,192,228145,1,0,0:0:0:0:
402,192,228236,1,0,0:0:0:0:
182,192,228236,1,0,0:0:0:0:
329,192,228327,1,0,0:0:0:0:
256,192,228418,1,0,0:0:0:0:
36,192,228418,1,0,0:0:0:0:
475,192,228418,1,0,0:0:0:0:
182,192,228509,1,0,0:0:0:0:
109,192,228600,1,0,0:0:0:0:
329,192,228600,1,0,0:0:0:0:
402,192,228600,1,0,0:0:0:0:
182,192,228691,1,0,0:0:0:0:
256,192,228782,1,0,0:0:0:0:
36,192,228782,1,0,0:0:0:0:
475,192,228782,1,0,0:0:0:0:
402,192,228873,1,0,0:0:0:0:
329,192,228964,1,0,0:0:0:0:
109,192,228964,1,0,0:0:0:0:
36,192,229054,1,0,0:0:0:0:
256,192,229145,1,0,0:0:0:0:
182,192,229145,1,0,0:0:0:0:
402,192,229145,1,0,0:0:0:0:
36,192,229236,1,0,0:0:0:0:
109,192,229327,1,0,0:0:0:0:
182,192,229327,1,0,0:0:0:0:
475,192,229327,1,0,0:0:0:0:
402,192,229418,1,0,0:0:0:0:
256,192,229509,1,0,0:0:0:0:
329,192,229509,1,0,0:0:0:0:
36,192,229509,1,0,0:0:0:0:
109,192,229600,1,0,0:0:0:0:
182,192,229691,1,0,0:0:0:0:
402,192,229691,1,0,0:0:0:0:
475,192,229691,1,0,0:0:0:0:
109,192,229782,1,0,0:0:0:0:
475,192,229873,1,0,0:0:0:0:
256,192,229873,1,0,0:0:0:0:
36,192,229873,1,0,0:0:0:0:
402,192,229964,1,0,0:0:0:0:
109,192,230054,1,0,0:0:0:0:
182,192,230054,1,0,0:0:0:0:
329,192,230145,1,0,0:0:0:0:
256,192,230236,1,0,0:0:0:0:
36,192,230236,1,0,0:0:0:0:
475,192,230236,1,0,0:0:0:0:
109,192,230327,1,0,0:0:0:0:
402,192,230418,1,0,0:0:0:0:
329,192,230418,1,0,0:0:0:0:
182,192,230509,1,0,0:0:0:0:
256,192,230600,1,0,0:0:0:0:
36,192,230600,1,0,0:0:0:0:
475,192,230600,1,0,0:0:0:0:
402,192,230691,1,0,0:0:0:0:
182,192,230782,1,0,0:0:0:0:
109,192,230782,1,0,0:0:0:0:
329,192,230873,1,0,0:0:0:0:
256,192,230964,1,0,0:0:0:0:
36,192,230964,1,0,0:0:0:0:
475,192,230964,1,0,0:0:0:0:
109,192,231054,1,0,0:0:0:0:
182,192,231145,1,0,0:0:0:0:
329,192,231145,1,0,0:0:0:0:
475,192,231145,1,0,0:0:0:0:
36,192,231236,1,0,0:0:0:0:
109,192,231327,1,0,0:0:0:0:
256,192,231327,1,0,0:0:0:0:
402,192,231327,1,0,0:0:0:0:
475,192,231418,1,0,0:0:0:0:
36,192,231509,1,0,0:0:0:0:
182,192,231509,1,0,0:0:0:0:
329,192,231509,1,0,0:0:0:0:
402,192,231600,1,0,0:0:0:0:
475,192,231600,1,0,0:0:0:0:
256,192,231691,1,0,0:0:0:0:
109,192,231691,1,0,0:0:0:0:
36,192,231691,1,0,0:0:0:0:
329,192,231782,1,0,0:0:0:0:
402,192,231873,1,0,0:0:0:0:
182,192,231873,1,0,0:0:0:0:
256,192,231964,1,0,0:0:0:0:
329,192,232054,1,0,0:0:0:0:
109,192,232054,1,0,0:0:0:0:
475,192,232054,1,0,0:0:0:0:
182,192,232145,1,0,0:0:0:0:
36,192,232236,1,0,0:0:0:0:
256,192,232236,1,0,0:0:0:0:
402,192,232236,1,0,0:0:0:0:
109,192,232327,1,0,0:0:0:0:
329,192,232418,1,0,0:0:0:0:
182,192,232418,1,0,0:0:0:0:
475,192,232418,1,0,0:0:0:0:
256,192,232509,1,0,0:0:0:0:
402,192,232600,1,0,0:0:0:0:
182,192,232600,1,0,0:0:0:0:
109,192,232691,1,0,0:0:0:0:
36,192,232782,1,0,0:0:0:0:
256,192,232782,1,0,0:0:0:0:
329,192,232812,1,0,0:0:0:0:
402,192,232842,1,0,0:0:0:0:
475,192,232873,1,0,0:0:0:0:
182,192,232903,1,0,0:0:0:0:
256,192,232933,1,0,0:0:0:0:
329,192,232964,1,0,0:0:0:0:
402,192,232994,1,0,0:0:0:0:
109,192,233024,1,0,0:0:0:0:
182,192,233054,1,0,0:0:0:0:
256,192,233085,1,0,0:0:0:0:
329,192,233115,1,0,0:0:0:0:
36,192,233145,1,0,0:0:0:0:
109,192,233168,1,0,0:0:0:0:
182,192,233191,1,0,0:0:0:0:
256,192,233214,1,0,0:0:0:0:
329,192,233236,1,0,0:0:0:0:
402,192,233259,1,0,0:0:0:0:
475,192,233282,1,0,0:0:0:0:
36,192,233304,1,0,0:0:0:0:
109,192,233327,1,0,0:0:0:0:
182,192,233350,1,0,0:0:0:0:
329,192,233395,1,0,0:0:0:0:
475,192,233418,1,0,0:0:0:0:
256,192,233509,1,0,0:0:0:0:
36,192,233509,1,0,0:0:0:0:
402,192,233509,1,0,0:0:0:0:
109,192,233600,1,0,0:0:0:0:
182,192,233691,1,0,0:0:0:0:
329,192,233691,1,0,0:0:0:0:
475,192,233782,1,0,0:0:0:0:
402,192,233873,1,0,0:0:0:0:
256,192,233873,1,0,0:0:0:0:
109,192,233873,1,0,0:0:0:0:
36,192,233873,1,0,0:0:0:0:
329,192,233964,1,0,0:0:0:0:
182,192,234054,1,0,0:0:0:0:
402,192,234054,1,0,0:0:0:0:
36,192,234145,1,0,0:0:0:0:
109,192,234236,1,0,0:0:0:0:
475,192,234236,1,0,0:0:0:0:
329,192,234236,1,0,0:0:0:0:
256,192,234327,1,0,0:0:0:0:
182,192,234418,1,0,0:0:0:0:
36,192,234418,1,0,0:0:0:0:
475,192,234418,1,0,0:0:0:0:
402,192,234509,1,0,0:0:0:0:
109,192,234600,1,0,0:0:0:0:
256,192,234600,1,0,0:0:0:0:
36,192,234600,1,0,0:0:0:0:
329,192,234600,1,0,0:0:0:0:
475,192,234691,1,0,0:0:0:0:
182,192,234782,1,0,0:0:0:0:
329,192,234782,1,0,0:0:0:0:
36,192,234873,1,0,0:0:0:0:
402,192,234964,1,0,0:0:0:0:
256,192,234964,1,0,0:0:0:0:
475,192,234964,1,0,0:0:0:0:
109,192,235054,1,0,0:0:0:0:
329,192,235145,1,0,0:0:0:0:
182,192,235145,1,0,0:0:0:0:
402,192,235145,1,0,0:0:0:0:
475,192,235236,1,0,0:0:0:0:
256,192,235327,1,0,0:0:0:0:
109,192,235327,1,0,0:0:0:0:
329,192,235327,1,0,0:0:0:0:
36,192,235327,1,0,0:0:0:0:
475,192,235418,1,0,0:0:0:0:
182,192,235509,1,0,0:0:0:0:
36,192,235509,1,0,0:0:0:0:
329,192,235600,1,0,0:0:0:0:
402,192,235691,1,0,0:0:0:0:
475,192,235691,1,0,0:0:0:0:
109,192,235691,1,0,0:0:0:0:
182,192,235782,1,0,0:0:0:0:
256,192,235873,1,0,0:0:0:0:
475,192,235873,1,0,0:0:0:0:
402,192,235933,1,0,0:0:0:0:
182,192,235994,1,0,0:0:0:0:
109,192,236054,1,0,0:0:0:0:
36,192,236054,1,0,0:0:0:0:
329,192,236054,1,0,0:0:0:0:
256,192,236115,1,0,0:0:0:0:
402,192,236176,1,0,0:0:0:0:
475,192,236236,1,0,0:0:0:0:
182,192,236236,1,0,0:0:0:0:
256,192,236297,1,0,0:0:0:0:
36,192,236358,1,0,0:0:0:0:
109,192,236418,1,0,0:0:0:0:
329,192,236418,1,0,0:0:0:0:
402,192,236418,1,0,0:0:0:0:
256,192,236479,1,0,0:0:0:0:
475,192,236539,1,0,0:0:0:0:
402,192,236600,1,0,0:0:0:0:
182,192,236600,1,0,0:0:0:0:
256,192,236661,1,0,0:0:0:0:
109,192,236721,1,0,0:0:0:0:
36,192,236782,1,0,0:0:0:0:
329,192,236782,1,0,0:0:0:0:
475,192,236782,1,0,0:0:0:0:
256,192,236873,1,0,0:0:0:0:
182,192,236964,1,0,0:0:0:0:
402,192,236964,1,0,0:0:0:0:
329,192,237054,1,0,0:0:0:0:
256,192,237145,1,0,0:0:0:0:
109,192,237145,1,0,0:0:0:0:
36,192,237145,1,0,0:0:0:0:
329,192,237236,1,0,0:0:0:0:
402,192,237236,1,0,0:0:0:0:
475,192,237236,1,0,0:0:0:0:
109,192,237327,1,0,0:0:0:0:
36,192,237327,1,0,0:0:0:0:
182,192,237327,1,0,0:0:0:0:
256,192,237418,1,0,0:0:0:0:
402,192,237418,1,0,0:0:0:0:
475,192,237418,1,0,0:0:0:0:
109,192,237509,1,0,0:0:0:0:
182,192,237509,1,0,0:0:0:0:
36,192,237509,1,0,0:0:0:0:
256,192,237600,1,0,0:0:0:0:
329,192,237600,1,0,0:0:0:0:
475,192,237691,1,0,0:0:0:0:
36,192,237691,1,0,0:0:0:0:
109,192,237691,1,0,0:0:0:0:
402,192,237782,1,0,0:0:0:0:
329,192,237782,1,0,0:0:0:0:
182,192,237873,1,0,0:0:0:0:
109,192,237873,1,0,0:0:0:0:
36,192,237873,1,0,0:0:0:0:
256,192,237964,1,0,0:0:0:0:
475,192,237964,1,0,0:0:0:0:
329,192,238054,1,0,0:0:0:0:
109,192,238054,1,0,0:0:0:0:
182,192,238115,1,0,0:0:0:0:
256,192,238176,1,0,0:0:0:0:
402,192,238236,1,0,0:0:0:0:
36,192,238236,128,0,238509:0:0:0:0:
475,192,238236,128,0,238509:0:0:0:0:
182,192,238600,1,0,0:0:0:0:
36,192,238600,1,0,0:0:0:0:
329,192,238691,1,0,0:0:0:0:
475,192,238691,1,0,0:0:0:0:
256,192,238782,1,0,0:0:0:0:
109,192,238782,1,0,0:0:0:0:
36,192,238873,1,0,0:0:0:0:
402,192,238873,1,0,0:0:0:0:
329,192,238964,1,0,0:0:0:0:
182,192,238964,1,0,0:0:0:0:
475,192,239054,1,0,0:0:0:0:
109,192,239054,1,0,0:0:0:0:
402,192,239145,1,0,0:0:0:0:
256,192,239145,1,0,0:0:0:0:
182,192,239236,1,0,0:0:0:0:
36,192,239236,1,0,0:0:0:0:
329,192,239327,1,0,0:0:0:0:
109,192,239327,1,0,0:0:0:0:
182,192,239418,1,0,0:0:0:0:
402,192,239418,1,0,0:0:0:0:
256,192,239509,1,0,0:0:0:0:
475,192,239509,1,0,0:0:0:0:
329,192,239600,1,0,0:0:0:0:
109,192,239600,1,0,0:0:0:0:
402,192,239691,1,0,0:0:0:0:
182,192,239691,1,0,0:0:0:0:
109,192,239782,1,0,0:0:0:0:
329,192,239782,1,0,0:0:0:0:
256,192,239873,1,0,0:0:0:0:
475,192,239873,1,0,0:0:0:0:
402,192,239964,1,0,0:0:0:0:
182,192,239964,1,0,0:0:0:0:
36,192,240054,1,0,0:0:0:0:
256,192,240054,1,0,0:0:0:0:
36,192,240145,1,0,0:0:0:0:
329,192,240145,1,0,0:0:0:0:
475,192,240236,1,0,0:0:0:0:
109,192,240236,1,0,0:0:0:0:
256,192,240327,1,0,0:0:0:0:
475,192,240327,1,0,0:0:0:0:
36,192,240418,1,0,0:0:0:0:
402,192,240418,1,0,0:0:0:0:
36,192,240509,1,0,0:0:0:0:
256,192,240509,1,0,0:0:0:0:
182,192,240600,1,0,0:0:0:0:
475,192,240600,1,0,0:0:0:0:
475,192,240691,1,0,0:0:0:0:
109,192,240691,1,0,0:0:0:0:
256,192,240782,1,0,0:0:0:0:
36,192,240782,1,0,0:0:0:0:
329,192,240873,1,0,0:0:0:0:
109,192,240873,1,0,0:0:0:0:
182,192,240964,1,0,0:0:0:0:
402,192,240964,1,0,0:0:0:0:
109,192,241054,1,0,0:0:0:0:
329,192,241054,1,0,0:0:0:0:
402,192,241145,1,0,0:0:0:0:
182,192,241145,1,0,0:0:0:0:
256,192,241236,1,0,0:0:0:0:
475,192,241236,1,0,0:0:0:0:
182,192,241327,1,0,0:0:0:0:
402,192,241327,1,0,0:0:0:0:
256,192,241418,1,0,0:0:0:0:
475,192,241418,1,0,0:0:0:0:
329,192,241509,1,0,0:0:0:0:
36,192,241509,1,0,0:0:0:0:
256,192,241600,1,0,0:0:0:0:
109,192,241600,1,0,0:0:0:0:
329,192,241691,1,0,0:0:0:0:
475,192,241691,1,0,0:0:0:0:
182,192,241782,1,0,0:0:0:0:
36,192,241782,1,0,0:0:0:0:
256,192,241873,1,0,0:0:0:0:
402,192,241873,1,0,0:0:0:0:
329,192,241964,1,0,0:0:0:0:
182,192,241964,1,0,0:0:0:0:
256,192,242054,1,0,0:0:0:0:
109,192,242054,1,0,0:0:0:0:
182,192,242145,1,0,0:0:0:0:
329,192,242145,1,0,0:0:0:0:
256,192,242236,1,0,0:0:0:0:
402,192,242236,1,0,0:0:0:0:
109,192,242327,1,0,0:0:0:0:
36,192,242327,1,0,0:0:0:0:
329,192,242418,1,0,0:0:0:0:
475,192,242418,1,0,0:0:0:0:
36,192,242509,1,0,0:0:0:0:
182,192,242509,1,0,0:0:0:0:
109,192,242600,1,0,0:0:0:0:
256,192,242600,1,0,0:0:0:0:
329,192,242691,1,0,0:0:0:0:
182,192,242691,1,0,0:0:0:0:
402,192,242782,1,0,0:0:0:0:
475,192,242782,1,0,0:0:0:0:
36,192,242964,1,0,0:0:0:0:
109,192,243024,1,0,0:0:0:0:
182,192,243085,1,0,0:0:0:0:
109,192,243145,1,0,0:0:0:0:
182,192,243206,1,0,0:0:0:0:
256,192,243267,1,0,0:0:0:0:
182,192,243327,1,0,0:0:0:0:
256,192,243388,1,0,0:0:0:0:
329,192,243448,1,0,0:0:0:0:
256,192,243509,1,0,0:0:0:0:
329,192,243570,1,0,0:0:0:0:
402,192,243630,1,0,0:0:0:0:
36,192,243691,1,0,0:0:0:0:
109,192,243751,1,0,0:0:0:0:
182,192,243812,1,0,0:0:0:0:
256,192,243873,1,0,0:0:0:0:
329,192,243933,1,0,0:0:0:0:
402,192,243994,1,0,0:0:0:0:
475,192,244054,128,0,244236:0:0:0:0:
182,192,244418,1,0,0:0:0:0:
329,192,244418,1,0,0:0:0:0:
256,192,244509,1,0,0:0:0:0:
109,192,244509,1,0,0:0:0:0:
182,192,244600,1,0,0:0:0:0:
329,192,244600,1,0,0:0:0:0:
256,192,244691,1,0,0:0:0:0:
402,192,244691,1,0,0:0:0:0:
329,192,244782,1,0,0:0:0:0:
182,192,244782,1,0,0:0:0:0:
256,192,244873,1,0,0:0:0:0:
109,192,244873,1,0,0:0:0:0:
475,192,244964,1,0,0:0:0:0:
329,192,244964,1,0,0:0:0:0:
182,192,245054,1,0,0:0:0:0:
36,192,245054,1,0,0:0:0:0:
256,192,245145,1,0,0:0:0:0:
402,192,245145,1,0,0:0:0:0:
182,192,245236,1,0,0:0:0:0:
329,192,245236,1,0,0:0:0:0:
402,192,245327,1,0,0:0:0:0:
256,192,245327,1,0,0:0:0:0:
475,192,245418,1,0,0:0:0:0:
329,192,245418,1,0,0:0:0:0:
402,192,245509,1,0,0:0:0:0:
256,192,245509,1,0,0:0:0:0:
182,192,245600,1,0,0:0:0:0:
36,192,245600,1,0,0:0:0:0:
329,192,245691,1,0,0:0:0:0:
475,192,245691,1,0,0:0:0:0:
256,192,245782,1,0,0:0:0:0:
402,192,245782,1,0,0:0:0:0:
329,192,245873,1,0,0:0:0:0:
36,192,245873,1,0,0:0:0:0:
109,192,245964,1,0,0:0:0:0:
402,192,245964,1,0,0:0:0:0:
182,192,246054,1,0,0:0:0:0:
475,192,246054,1,0,0:0:0:0:
36,192,246145,1,0,0:0:0:0:
329,192,246145,1,0,0:0:0:0:
109,192,246236,1,0,0:0:0:0:
402,192,246236,1,0,0:0:0:0:
182,192,246327,1,0,0:0:0:0:
475,192,246327,1,0,0:0:0:0:
36,192,246418,1,0,0:0:0:0:
329,192,246418,1,0,0:0:0:0:
109,192,246509,1,0,0:0:0:0:
402,192,246509,1,0,0:0:0:0:
182,192,246600,1,0,0:0:0:0:
475,192,246600,1,0,0:0:0:0:
329,192,246691,1,0,0:0:0:0:
36,192,246691,1,0,0:0:0:0:
109,192,246782,1,0,0:0:0:0:
402,192,246782,1,0,0:0:0:0:
182,192,246873,1,0,0:0:0:0:
475,192,246873,1,0,0:0:0:0:
329,192,246964,1,0,0:0:0:0:
36,192,246964,1,0,0:0:0:0:
109,192,247054,1,0,0:0:0:0:
402,192,247054,1,0,0:0:0:0:
182,192,247145,1,0,0:0:0:0:
475,192,247145,1,0,0:0:0:0:
256,192,247236,1,0,0:0:0:0:
402,192,247236,1,0,0:0:0:0:
329,192,247327,1,0,0:0:0:0:
475,192,247327,1,0,0:0:0:0:
182,192,247418,1,0,0:0:0:0:
36,192,247418,1,0,0:0:0:0:
256,192,247509,1,0,0:0:0:0:
109,192,247509,1,0,0:0:0:0:
329,192,247600,1,0,0:0:0:0:
475,192,247600,1,0,0:0:0:0:
182,192,247691,1,0,0:0:0:0:
36,192,247691,1,0,0:0:0:0:
109,192,247782,1,0,0:0:0:0:
256,192,247782,1,0,0:0:0:0:
329,192,247873,1,0,0:0:0:0:
182,192,247873,1,0,0:0:0:0:
402,192,247964,1,0,0:0:0:0:
256,192,247964,1,0,0:0:0:0:
329,192,248054,1,0,0:0:0:0:
475,192,248054,1,0,0:0:0:0:
182,192,248145,1,0,0:0:0:0:
36,192,248145,1,0,0:0:0:0:
109,192,248236,1,0,0:0:0:0:
256,192,248236,1,0,0:0:0:0:
329,192,248327,1,0,0:0:0:0:
475,192,248327,1,0,0:0:0:0:
182,192,248418,1,0,0:0:0:0:
36,192,248418,1,0,0:0:0:0:
109,192,248509,1,0,0:0:0:0:
256,192,248509,1,0,0:0:0:0:
329,192,248600,1,0,0:0:0:0:
475,192,248600,1,0,0:0:0:0:
182,192,248691,1,0,0:0:0:0:
36,192,248691,1,0,0:0:0:0:
256,192,248782,1,0,0:0:0:0:
402,192,248782,1,0,0:0:0:0:
329,192,248873,1,0,0:0:0:0:
182,192,248873,1,0,0:0:0:0:
109,192,248964,1,0,0:0:0:0:
256,192,248964,1,0,0:0:0:0:
36,192,249054,1,0,0:0:0:0:
182,192,249054,1,0,0:0:0:0:
329,192,249145,1,0,0:0:0:0:
475,192,249145,1,0,0:0:0:0:
36,192,249236,1,0,0:0:0:0:
256,192,249236,1,0,0:0:0:0:
329,192,249327,1,0,0:0:0:0:
109,192,249327,1,0,0:0:0:0:
402,192,249418,1,0,0:0:0:0:
182,192,249418,1,0,0:0:0:0:
109,192,249509,1,0,0:0:0:0:
329,192,249509,1,0,0:0:0:0:
182,192,249600,1,0,0:0:0:0:
402,192,249600,1,0,0:0:0:0:
256,192,249691,1,0,0:0:0:0:
475,192,249691,1,0,0:0:0:0:
402,192,249782,1,0,0:0:0:0:
182,192,249782,1,0,0:0:0:0:
109,192,249873,1,0,0:0:0:0:
256,192,249873,1,0,0:0:0:0:
36,192,249964,1,0,0:0:0:0:
182,192,249964,1,0,0:0:0:0:
256,192,250054,1,0,0:0:0:0:
402,192,250054,1,0,0:0:0:0:
329,192,250145,1,0,0:0:0:0:
475,192,250145,1,0,0:0:0:0:
402,192,250236,1,0,0:0:0:0:
109,192,250236,1,0,0:0:0:0:
182,192,250327,1,0,0:0:0:0:
36,192,250327,1,0,0:0:0:0:
182,192,250418,1,0,0:0:0:0:
36,192,250418,1,0,0:0:0:0:
475,192,250509,1,0,0:0:0:0:
329,192,250509,1,0,0:0:0:0:
182,192,250600,1,0,0:0:0:0:
36,192,250600,1,0,0:0:0:0:
402,192,250600,1,0,0:0:0:0:
182,192,250691,1,0,0:0:0:0:
36,192,250691,1,0,0:0:0:0:
256,192,250782,1,0,0:0:0:0:
402,192,250782,1,0,0:0:0:0:
329,192,250873,1,0,0:0:0:0:
475,192,250873,1,0,0:0:0:0:
402,192,250964,1,0,0:0:0:0:
36,192,250964,1,0,0:0:0:0:
256,192,251054,1,0,0:0:0:0:
109,192,251054,1,0,0:0:0:0:
256,192,251145,1,0,0:0:0:0:
109,192,251145,1,0,0:0:0:0:
402,192,251236,1,0,0:0:0:0:
36,192,251236,1,0,0:0:0:0:
256,192,251327,1,0,0:0:0:0:
109,192,251327,1,0,0:0:0:0:
475,192,251327,1,0,0:0:0:0:
256,192,251418,1,0,0:0:0:0:
109,192,251418,1,0,0:0:0:0:
329,192,251509,1,0,0:0:0:0:
475,192,251509,1,0,0:0:0:0:
402,192,251600,1,0,0:0:0:0:
109,192,251600,1,0,0:0:0:0:
182,192,251691,1,0,0:0:0:0:
36,192,251691,1,0,0:0:0:0:
329,192,251782,1,0,0:0:0:0:
475,192,251782,1,0,0:0:0:0:
329,192,251873,1,0,0:0:0:0:
475,192,251873,1,0,0:0:0:0:
182,192,251964,1,0,0:0:0:0:
36,192,251964,1,0,0:0:0:0:
329,192,252054,1,0,0:0:0:0:
475,192,252054,1,0,0:0:0:0:
329,192,252145,1,0,0:0:0:0:
475,192,252145,1,0,0:0:0:0:
36,192,252236,1,0,0:0:0:0:
256,192,252236,1,0,0:0:0:0:
109,192,252327,1,0,0:0:0:0:
329,192,252327,1,0,0:0:0:0:
402,192,252418,1,0,0:0:0:0:
182,192,252418,1,0,0:0:0:0:
475,192,252509,1,0,0:0:0:0:
256,192,252509,1,0,0:0:0:0:
402,192,252600,1,0,0:0:0:0:
182,192,252600,1,0,0:0:0:0:
329,192,252691,1,0,0:0:0:0:
109,192,252691,1,0,0:0:0:0:
475,192,252782,1,0,0:0:0:0:
256,192,252782,1,0,0:0:0:0:
182,192,252873,1,0,0:0:0:0:
402,192,252873,1,0,0:0:0:0:
109,192,252964,1,0,0:0:0:0:
329,192,252964,1,0,0:0:0:0:
256,192,253054,1,0,0:0:0:0:
36,192,253054,1,0,0:0:0:0:
182,192,253145,1,0,0:0:0:0:
329,192,253145,1,0,0:0:0:0:
109,192,253236,1,0,0:0:0:0:
256,192,253236,1,0,0:0:0:0:
329,192,253327,1,0,0:0:0:0:
182,192,253327,1,0,0:0:0:0:
256,192,253418,1,0,0:0:0:0:
402,192,253418,1,0,0:0:0:0:
329,192,253509,1,0,0:0:0:0:
475,192,253509,1,0,0:0:0:0:
182,192,253600,1,0,0:0:0:0:
36,192,253600,1,0,0:0:0:0:
109,192,253691,1,0,0:0:0:0:
256,192,253691,1,0,0:0:0:0:
182,192,253782,1,0,0:0:0:0:
329,192,253782,1,0,0:0:0:0:
256,192,253873,1,0,0:0:0:0:
402,192,253873,1,0,0:0:0:0:
109,192,253873,1,0,0:0:0:0:
182,192,253964,1,0,0:0:0:0:
36,192,253964,1,0,0:0:0:0:
329,192,253964,1,0,0:0:0:0:
109,192,254054,1,0,0:0:0:0:
256,192,254054,1,0,0:0:0:0:
402,192,254054,1,0,0:0:0:0:
182,192,254145,1,0,0:0:0:0:
329,192,254145,1,0,0:0:0:0:
475,192,254145,1,0,0:0:0:0:
402,192,254236,1,0,0:0:0:0:
256,192,254236,1,0,0:0:0:0:
182,192,254236,1,0,0:0:0:0:
475,192,254236,1,0,0:0:0:0:
475,192,254600,1,0,0:0:0:0:
36,192,254600,1,0,0:0:0:0:
329,192,254691,1,0,0:0:0:0:
182,192,254691,1,0,0:0:0:0:
402,192,254782,1,0,0:0:0:0:
109,192,254782,1,0,0:0:0:0:
475,192,254873,1,0,0:0:0:0:
36,192,254873,1,0,0:0:0:0:
256,192,254964,1,0,0:0:0:0:
329,192,255054,1,0,0:0:0:0:
182,192,255054,1,0,0:0:0:0:
402,192,255145,1,0,0:0:0:0:
109,192,255145,1,0,0:0:0:0:
475,192,255236,1,0,0:0:0:0:
36,192,255236,1,0,0:0:0:0:
182,192,255327,1,0,0:0:0:0:
329,192,255327,1,0,0:0:0:0:
256,192,255418,1,0,0:0:0:0:
329,192,255509,1,0,0:0:0:0:
182,192,255509,1,0,0:0:0:0:
402,192,255600,1,0,0:0:0:0:
109,192,255600,1,0,0:0:0:0:
475,192,255691,1,0,0:0:0:0:
36,192,255691,1,0,0:0:0:0:
256,192,256054,1,0,0:0:0:0:
36,192,256054,1,0,0:0:0:0:
475,192,256054,1,0,0:0:0:0:
109,192,256236,1,0,0:0:0:0:
329,192,256236,1,0,0:0:0:0:
182,192,256327,1,0,0:0:0:0:
402,192,256327,1,0,0:0:0:0:
256,192,256418,1,0,0:0:0:0:
475,192,256418,1,0,0:0:0:0:
36,192,256418,1,0,0:0:0:0:
109,192,256600,1,0,0:0:0:0:
329,192,256600,1,0,0:0:0:0:
182,192,256691,1,0,0:0:0:0:
402,192,256691,1,0,0:0:0:0:
256,192,256782,1,0,0:0:0:0:
36,192,256782,1,0,0:0:0:0:
475,192,256782,1,0,0:0:0:0:
36,192,256964,1,0,0:0:0:0:
256,192,256964,1,0,0:0:0:0:
329,192,257054,1,0,0:0:0:0:
109,192,257054,1,0,0:0:0:0:
256,192,257145,1,0,0:0:0:0:
36,192,257145,1,0,0:0:0:0:
475,192,257145,1,0,0:0:0:0:
475,192,257509,1,0,0:0:0:0:
256,192,257509,1,0,0:0:0:0:
109,192,257509,1,0,0:0:0:0:
475,192,257600,1,0,0:0:0:0:
256,192,257600,1,0,0:0:0:0:
402,192,257691,1,0,0:0:0:0:
182,192,257691,1,0,0:0:0:0:
36,192,257691,1,0,0:0:0:0:
329,192,257782,1,0,0:0:0:0:
109,192,257782,1,0,0:0:0:0:
256,192,257873,1,0,0:0:0:0:
36,192,257873,1,0,0:0:0:0:
475,192,257873,1,0,0:0:0:0:
109,192,258054,1,0,0:0:0:0:
402,192,258054,1,0,0:0:0:0:
182,192,258145,1,0,0:0:0:0:
329,192,258145,1,0,0:0:0:0:
36,192,258236,1,0,0:0:0:0:
475,192,258236,1,0,0:0:0:0:
256,192,258236,1,0,0:0:0:0:
182,192,258327,1,0,0:0:0:0:
329,192,258327,1,0,0:0:0:0:
475,192,258418,1,0,0:0:0:0:
36,192,258418,1,0,0:0:0:0:
256,192,258418,1,0,0:0:0:0:
402,192,258509,1,0,0:0:0:0:
109,192,258509,1,0,0:0:0:0:
256,192,258600,1,0,0:0:0:0:
329,192,258600,1,0,0:0:0:0:
182,192,258600,1,0,0:0:0:0:
36,192,258964,1,0,0:0:0:0:
182,192,258964,1,0,0:0:0:0:
402,192,258964,1,0,0:0:0:0:
402,192,259145,1,0,0:0:0:0:
182,192,259145,1,0,0:0:0:0:
329,192,259236,1,0,0:0:0:0:
109,192,259236,1,0,0:0:0:0:
256,192,259327,1,0,0:0:0:0:
36,192,259327,1,0,0:0:0:0:
475,192,259327,1,0,0:0:0:0:
475,192,259509,1,0,0:0:0:0:
256,192,259509,1,0,0:0:0:0:
402,192,259600,1,0,0:0:0:0:
182,192,259600,1,0,0:0:0:0:
329,192,259691,1,0,0:0:0:0:
36,192,259691,1,0,0:0:0:0:
109,192,259691,1,0,0:0:0:0:
475,192,259782,1,0,0:0:0:0:
182,192,259782,1,0,0:0:0:0:
329,192,259873,1,0,0:0:0:0:
36,192,259873,1,0,0:0:0:0:
256,192,259964,1,0,0:0:0:0:
109,192,259964,1,0,0:0:0:0:
182,192,260054,1,0,0:0:0:0:
402,192,260054,1,0,0:0:0:0:
475,192,260054,1,0,0:0:0:0:
329,192,260236,1,0,0:0:0:0:
109,192,260236,1,0,0:0:0:0:
475,192,260236,1,0,0:0:0:0:
36,192,260418,1,0,0:0:0:0:
402,192,260418,1,0,0:0:0:0:
182,192,260509,1,0,0:0:0:0:
329,192,260600,1,0,0:0:0:0:
475,192,260600,1,0,0:0:0:0:
36,192,260600,1,0,0:0:0:0:
182,192,260691,1,0,0:0:0:0:
402,192,260782,1,0,0:0:0:0:
36,192,260782,1,0,0:0:0:0:
256,192,260782,1,0,0:0:0:0:
109,192,260964,1,0,0:0:0:0:
329,192,260964,1,0,0:0:0:0:
475,192,260964,1,0,0:0:0:0:
256,192,261145,1,0,0:0:0:0:
36,192,261145,1,0,0:0:0:0:
329,192,261236,1,0,0:0:0:0:
109,192,261236,1,0,0:0:0:0:
475,192,261327,1,0,0:0:0:0:
182,192,261327,1,0,0:0:0:0:
109,192,261418,1,0,0:0:0:0:
402,192,261418,1,0,0:0:0:0:
329,192,261509,1,0,0:0:0:0:
36,192,261509,1,0,0:0:0:0:
475,192,261509,1,0,0:0:0:0:
256,192,261691,1,0,0:0:0:0:
36,192,261873,1,0,0:0:0:0:
182,192,261873,1,0,0:0:0:0:
402,192,261873,1,0,0:0:0:0:
182,192,262054,1,0,0:0:0:0:
402,192,262054,1,0,0:0:0:0:
109,192,262145,1,0,0:0:0:0:
329,192,262145,1,0,0:0:0:0:
36,192,262236,1,0,0:0:0:0:
256,192,262236,1,0,0:0:0:0:
475,192,262236,1,0,0:0:0:0:
256,192,262418,1,0,0:0:0:0:
475,192,262418,1,0,0:0:0:0:
182,192,262509,1,0,0:0:0:0:
402,192,262509,1,0,0:0:0:0:
329,192,262600,1,0,0:0:0:0:
36,192,262600,1,0,0:0:0:0:
109,192,262600,1,0,0:0:0:0:
182,192,262691,1,0,0:0:0:0:
475,192,262691,1,0,0:0:0:0:
329,192,262782,1,0,0:0:0:0:
36,192,262782,1,0,0:0:0:0:
402,192,262964,1,0,0:0:0:0:
109,192,262964,1,0,0:0:0:0:
256,192,262964,1,0,0:0:0:0:
182,192,263054,1,0,0:0:0:0:
329,192,263054,1,0,0:0:0:0:
109,192,263145,1,0,0:0:0:0:
402,192,263145,1,0,0:0:0:0:
182,192,263327,1,0,0:0:0:0:
475,192,263327,1,0,0:0:0:0:
36,192,263327,1,0,0:0:0:0:
256,192,263418,1,0,0:0:0:0:
402,192,263418,1,0,0:0:0:0:
109,192,263418,1,0,0:0:0:0:
329,192,263509,1,0,0:0:0:0:
36,192,263509,1,0,0:0:0:0:
182,192,263509,1,0,0:0:0:0:
182,192,263691,1,0,0:0:0:0:
36,192,263691,1,0,0:0:0:0:
329,192,263691,1,0,0:0:0:0:
256,192,263782,1,0,0:0:0:0:
109,192,263782,1,0,0:0:0:0:
402,192,263782,1,0,0:0:0:0:
329,192,263873,1,0,0:0:0:0:
36,192,263873,1,0,0:0:0:0:
475,192,263873,1,0,0:0:0:0:
36,192,264054,1,0,0:0:0:0:
329,192,264054,1,0,0:0:0:0:
182,192,264054,1,0,0:0:0:0:
475,192,264054,1,0,0:0:0:0:
109,192,264145,1,0,0:0:0:0:
256,192,264145,1,0,0:0:0:0:
402,192,264145,1,0,0:0:0:0:
182,192,264236,1,0,0:0:0:0:
475,192,264236,1,0,0:0:0:0:
329,192,264236,1,0,0:0:0:0:
256,192,264418,1,0,0:0:0:0:
109,192,264418,1,0,0:0:0:0:
402,192,264418,1,0,0:0:0:0:
475,192,264509,1,0,0:0:0:0:
329,192,264509,1,0,0:0:0:0:
182,192,264600,1,0,0:0:0:0:
36,192,264600,1,0,0:0:0:0:
402,192,264782,1,0,0:0:0:0:
256,192,264782,1,0,0:0:0:0:
182,192,264873,1,0,0:0:0:0:
36,192,264873,1,0,0:0:0:0:
402,192,264964,1,0,0:0:0:0:
256,192,264964,1,0,0:0:0:0:
182,192,265054,1,0,0:0:0:0:
36,192,265054,1,0,0:0:0:0:
256,192,265145,1,0,0:0:0:0:
402,192,265236,5,0,0:0:0:0:
182,192,265327,1,0,0:0:0:0:
36,192,265327,1,0,0:0:0:0:
256,192,265418,1,0,0:0:0:0:
329,192,265509,1,0,0:0:0:0:
475,192,265509,1,0,0:0:0:0:
182,192,265600,1,0,0:0:0:0:
36,192,265600,1,0,0:0:0:0:
256,192,265691,1,0,0:0:0:0:
402,192,265782,1,0,0:0:0:0:
36,192,265873,1,0,0:0:0:0:
182,192,265873,1,0,0:0:0:0:
256,192,265964,1,0,0:0:0:0:
329,192,266054,1,0,0:0:0:0:
256,192,266145,1,0,0:0:0:0:
475,192,266236,1,0,0:0:0:0:
475,192,266418,5,0,0:0:0:0:
402,192,266600,1,0,0:0:0:0:
329,192,266691,1,0,0:0:0:0:
256,192,266782,1,0,0:0:0:0:
329,192,266873,1,0,0:0:0:0:
402,192,266964,1,0,0:0:0:0:
402,192,267145,1,0,0:0:0:0:
329,192,267327,1,0,0:0:0:0:
256,192,267418,1,0,0:0:0:0:
182,192,267509,1,0,0:0:0:0:
256,192,267600,1,0,0:0:0:0:
329,192,267691,1,0,0:0:0:0:
329,192,268054,1,0,0:0:0:0:
329,192,268418,1,0,0:0:0:0:
182,192,268782,1,0,0:0:0:0:
402,192,268964,1,0,0:0:0:0:
109,192,269145,1,0,0:0:0:0:
329,192,269327,1,0,0:0:0:0:
182,192,269509,1,0,0:0:0:0:
36,192,269691,1,0,0:0:0:0:
402,192,269873,1,0,0:0:0:0:
402,192,270236,1,0,0:0:0:0:
256,192,270418,1,0,0:0:0:0:
182,192,270600,1,0,0:0:0:0:
36,192,270782,1,0,0:0:0:0:
256,192,270964,1,0,0:0:0:0:
36,192,271145,1,0,0:0:0:0:
182,192,271327,1,0,0:0:0:0:
329,192,271509,1,0,0:0:0:0:
182,192,271691,1,0,0:0:0:0:
36,192,271873,1,0,0:0:0:0:
256,192,272054,1,0,0:0:0:0:
475,192,272236,1,0,0:0:0:0:
256,192,272418,1,0,0:0:0:0:
109,192,272600,1,0,0:0:0:0:
475,192,272782,1,0,0:0:0:0:
329,192,272964,1,0,0:0:0:0:
256,192,273145,1,0,0:0:0:0:
182,192,273327,1,0,0:0:0:0:
36,192,273509,1,0,0:0:0:0:
475,192,273873,1,0,0:0:0:0:
36,192,274236,1,0,0:0:0:0:
182,192,274600,1,0,0:0:0:0:
402,192,274782,1,0,0:0:0:0:
109,192,274964,1,0,0:0:0:0:
329,192,275145,1,0,0:0:0:0:
182,192,275327,1,0,0:0:0:0:
36,192,275509,1,0,0:0:0:0:
402,192,275691,1,0,0:0:0:0:
402,192,276054,1,0,0:0:0:0:
256,192,276236,1,0,0:0:0:0:
475,192,276418,1,0,0:0:0:0:
329,192,276600,1,0,0:0:0:0:
182,192,276782,1,0,0:0:0:0:
402,192,276964,1,0,0:0:0:0:
256,192,277145,1,0,0:0:0:0:
109,192,277327,1,0,0:0:0:0:
182,192,277509,1,0,0:0:0:0:
329,192,277691,1,0,0:0:0:0:
182,192,277873,1,0,0:0:0:0:
329,192,277964,1,0,0:0:0:0:
182,192,278054,1,0,0:0:0:0:
329,192,278145,1,0,0:0:0:0:
182,192,278236,1,0,0:0:0:0:
329,192,278327,1,0,0:0:0:0:
182,192,278418,1,0,0:0:0:0:
329,192,278509,1,0,0:0:0:0:
182,192,278600,1,0,0:0:0:0:
329,192,278691,1,0,0:0:0:0:
182,192,278782,1,0,0:0:0:0:
329,192,278873,1,0,0:0:0:0:
182,192,278964,1,0,0:0:0:0:
329,192,279024,1,0,0:0:0:0:
182,192,279085,1,0,0:0:0:0:
329,192,279145,1,0,0:0:0:0:
182,192,279206,1,0,0:0:0:0:
329,192,279267,1,0,0:0:0:0:
256,192,279327,1,0,0:0:0:0:
36,192,279327,1,0,0:0:0:0:
475,192,279327,1,0,0:0:0:0:
109,192,279418,1,0,0:0:0:0:
182,192,279509,1,0,0:0:0:0:
329,192,279509,1,0,0:0:0:0:
402,192,279600,1,0,0:0:0:0:
475,192,279691,1,0,0:0:0:0:
256,192,279691,1,0,0:0:0:0:
109,192,279691,1,0,0:0:0:0:
36,192,279691,1,0,0:0:0:0:
329,192,279782,1,0,0:0:0:0:
475,192,279873,1,0,0:0:0:0:
182,192,279873,1,0,0:0:0:0:
109,192,279964,1,0,0:0:0:0:
36,192,280054,1,0,0:0:0:0:
329,192,280054,1,0,0:0:0:0:
256,192,280054,1,0,0:0:0:0:
402,192,280145,1,0,0:0:0:0:
475,192,280236,1,0,0:0:0:0:
109,192,280236,1,0,0:0:0:0:
182,192,280327,1,0,0:0:0:0:
256,192,280418,1,0,0:0:0:0:
36,192,280418,1,0,0:0:0:0:
402,192,280418,1,0,0:0:0:0:
475,192,280418,1,0,0:0:0:0:
329,192,280509,1,0,0:0:0:0:
182,192,280600,1,0,0:0:0:0:
36,192,280600,1,0,0:0:0:0:
109,192,280600,1,0,0:0:0:0:
256,192,280691,1,0,0:0:0:0:
329,192,280782,1,0,0:0:0:0:
402,192,280782,1,0,0:0:0:0:
475,192,280782,1,0,0:0:0:0:
182,192,280873,1,0,0:0:0:0:
256,192,280964,1,0,0:0:0:0:
36,192,280964,1,0,0:0:0:0:
109,192,280964,1,0,0:0:0:0:
329,192,281054,1,0,0:0:0:0:
402,192,281145,1,0,0:0:0:0:
182,192,281145,1,0,0:0:0:0:
475,192,281145,1,0,0:0:0:0:
109,192,281145,1,0,0:0:0:0:
256,192,281236,1,0,0:0:0:0:
329,192,281327,1,0,0:0:0:0:
475,192,281327,1,0,0:0:0:0:
36,192,281327,1,0,0:0:0:0:
109,192,281418,1,0,0:0:0:0:
256,192,281509,1,0,0:0:0:0:
329,192,281509,1,0,0:0:0:0:
182,192,281509,1,0,0:0:0:0:
402,192,281600,1,0,0:0:0:0:
475,192,281691,1,0,0:0:0:0:
36,192,281691,1,0,0:0:0:0:
109,192,281782,1,0,0:0:0:0:
182,192,281873,1,0,0:0:0:0:
402,192,281873,1,0,0:0:0:0:
329,192,281873,1,0,0:0:0:0:
475,192,281873,1,0,0:0:0:0:
109,192,281964,1,0,0:0:0:0:
36,192,282054,1,0,0:0:0:0:
475,192,282054,1,0,0:0:0:0:
256,192,282054,1,0,0:0:0:0:
402,192,282145,1,0,0:0:0:0:
329,192,282236,1,0,0:0:0:0:
109,192,282236,1,0,0:0:0:0:
36,192,282236,1,0,0:0:0:0:
182,192,282327,1,0,0:0:0:0:
475,192,282418,1,0,0:0:0:0:
402,192,282418,1,0,0:0:0:0:
256,192,282418,1,0,0:0:0:0:
329,192,282509,1,0,0:0:0:0:
109,192,282600,1,0,0:0:0:0:
402,192,282600,1,0,0:0:0:0:
36,192,282600,1,0,0:0:0:0:
182,192,282600,1,0,0:0:0:0:
475,192,282691,1,0,0:0:0:0:
329,192,282782,1,0,0:0:0:0:
256,192,282782,1,0,0:0:0:0:
182,192,282782,1,0,0:0:0:0:
109,192,282873,1,0,0:0:0:0:
36,192,282964,1,0,0:0:0:0:
475,192,282964,1,0,0:0:0:0:
329,192,282964,1,0,0:0:0:0:
182,192,283054,1,0,0:0:0:0:
256,192,283145,1,0,0:0:0:0:
402,192,283145,1,0,0:0:0:0:
36,192,283145,1,0,0:0:0:0:
109,192,283236,1,0,0:0:0:0:
329,192,283327,1,0,0:0:0:0:
402,192,283327,1,0,0:0:0:0:
475,192,283327,1,0,0:0:0:0:
182,192,283327,1,0,0:0:0:0:
256,192,283418,1,0,0:0:0:0:
36,192,283509,1,0,0:0:0:0:
109,192,283509,1,0,0:0:0:0:
329,192,283509,1,0,0:0:0:0:
402,192,283600,1,0,0:0:0:0:
182,192,283691,1,0,0:0:0:0:
36,192,283691,1,0,0:0:0:0:
329,192,283782,1,0,0:0:0:0:
475,192,283782,1,0,0:0:0:0:
182,192,283873,1,0,0:0:0:0:
36,192,283873,1,0,0:0:0:0:
329,192,283964,1,0,0:0:0:0:
475,192,283964,1,0,0:0:0:0:
256,192,284054,1,0,0:0:0:0:
109,192,284054,1,0,0:0:0:0:
402,192,284054,1,0,0:0:0:0:
402,192,284236,1,0,0:0:0:0:
256,192,284236,1,0,0:0:0:0:
109,192,284236,1,0,0:0:0:0:
475,192,284418,1,0,0:0:0:0:
329,192,284418,1,0,0:0:0:0:
182,192,284418,1,0,0:0:0:0:
36,192,284418,1,0,0:0:0:0:
402,192,284600,1,0,0:0:0:0:
256,192,284600,1,0,0:0:0:0:
109,192,284600,1,0,0:0:0:0:
475,192,284600,1,0,0:0:0:0:
329,192,284782,1,0,0:0:0:0:
182,192,284782,1,0,0:0:0:0:
36,192,284782,1,0,0:0:0:0:
402,192,284782,1,0,0:0:0:0:
256,192,284964,1,0,0:0:0:0:
109,192,284964,1,0,0:0:0:0:
329,192,284964,1,0,0:0:0:0:
475,192,284964,1,0,0:0:0:0:
36,192,285145,1,0,0:0:0:0:
182,192,285145,1,0,0:0:0:0:
256,192,285145,1,0,0:0:0:0:
402,192,285145,1,0,0:0:0:0:
109,192,285509,1,0,0:0:0:0:
36,192,285509,1,0,0:0:0:0:
329,192,285509,1,0,0:0:0:0:
475,192,285509,1,0,0:0:0:0:
182,192,285600,1,0,0:0:0:0:
256,192,285691,1,0,0:0:0:0:
402,192,285691,1,0,0:0:0:0:
109,192,285782,1,0,0:0:0:0:
475,192,285873,1,0,0:0:0:0:
36,192,285873,1,0,0:0:0:0:
402,192,285873,1,0,0:0:0:0:
256,192,285964,1,0,0:0:0:0:
109,192,286054,1,0,0:0:0:0:
329,192,286054,1,0,0:0:0:0:
182,192,286145,1,0,0:0:0:0:
256,192,286236,1,0,0:0:0:0:
36,192,286236,1,0,0:0:0:0:
402,192,286236,1,0,0:0:0:0:
475,192,286236,1,0,0:0:0:0:
109,192,286327,1,0,0:0:0:0:
182,192,286418,1,0,0:0:0:0:
329,192,286418,1,0,0:0:0:0:
475,192,286418,1,0,0:0:0:0:
109,192,286509,1,0,0:0:0:0:
36,192,286600,1,0,0:0:0:0:
256,192,286600,1,0,0:0:0:0:
402,192,286600,1,0,0:0:0:0:
475,192,286691,1,0,0:0:0:0:
329,192,286782,1,0,0:0:0:0:
182,192,286782,1,0,0:0:0:0:
402,192,286873,1,0,0:0:0:0:
475,192,286964,1,0,0:0:0:0:
256,192,286964,1,0,0:0:0:0:
109,192,286964,1,0,0:0:0:0:
36,192,286964,1,0,0:0:0:0:
329,192,287054,1,0,0:0:0:0:
402,192,287145,1,0,0:0:0:0:
36,192,287145,1,0,0:0:0:0:
475,192,287145,1,0,0:0:0:0:
256,192,287236,1,0,0:0:0:0:
182,192,287327,1,0,0:0:0:0:
109,192,287327,1,0,0:0:0:0:
402,192,287327,1,0,0:0:0:0:
329,192,287418,1,0,0:0:0:0:
256,192,287509,1,0,0:0:0:0:
109,192,287509,1,0,0:0:0:0:
36,192,287509,1,0,0:0:0:0:
402,192,287600,1,0,0:0:0:0:
475,192,287691,1,0,0:0:0:0:
182,192,287691,1,0,0:0:0:0:
256,192,287691,1,0,0:0:0:0:
36,192,287691,1,0,0:0:0:0:
329,192,287782,1,0,0:0:0:0:
402,192,287873,1,0,0:0:0:0:
109,192,287873,1,0,0:0:0:0:
475,192,287873,1,0,0:0:0:0:
182,192,287964,1,0,0:0:0:0:
256,192,288054,1,0,0:0:0:0:
36,192,288054,1,0,0:0:0:0:
402,192,288054,1,0,0:0:0:0:
109,192,288145,1,0,0:0:0:0:
329,192,288236,1,0,0:0:0:0:
182,192,288236,1,0,0:0:0:0:
475,192,288236,1,0,0:0:0:0:
36,192,288327,1,0,0:0:0:0:
256,192,288418,1,0,0:0:0:0:
109,192,288418,1,0,0:0:0:0:
402,192,288418,1,0,0:0:0:0:
36,192,288509,1,0,0:0:0:0:
182,192,288600,1,0,0:0:0:0:
329,192,288600,1,0,0:0:0:0:
475,192,288600,1,0,0:0:0:0:
36,192,288691,1,0,0:0:0:0:
402,192,288782,1,0,0:0:0:0:
256,192,288782,1,0,0:0:0:0:
109,192,288782,1,0,0:0:0:0:
475,192,288873,1,0,0:0:0:0:
182,192,288964,1,0,0:0:0:0:
36,192,288964,1,0,0:0:0:0:
329,192,288964,1,0,0:0:0:0:
475,192,289054,1,0,0:0:0:0:
109,192,289145,1,0,0:0:0:0:
256,192,289145,1,0,0:0:0:0:
402,192,289145,1,0,0:0:0:0:
36,192,289236,1,0,0:0:0:0:
182,192,289327,1,0,0:0:0:0:
329,192,289327,1,0,0:0:0:0:
475,192,289327,1,0,0:0:0:0:
109,192,289418,1,0,0:0:0:0:
402,192,289509,1,0,0:0:0:0:
256,192,289509,1,0,0:0:0:0:
36,192,289509,1,0,0:0:0:0:
182,192,289691,1,0,0:0:0:0:
329,192,289691,1,0,0:0:0:0:
475,192,289691,1,0,0:0:0:0:
256,192,289873,1,0,0:0:0:0:
109,192,289873,1,0,0:0:0:0:
402,192,289873,1,0,0:0:0:0:
329,192,290054,1,0,0:0:0:0:
475,192,290054,1,0,0:0:0:0:
182,192,290054,1,0,0:0:0:0:
402,192,290236,1,0,0:0:0:0:
256,192,290236,1,0,0:0:0:0:
109,192,290236,1,0,0:0:0:0:
329,192,290418,1,0,0:0:0:0:
182,192,290418,1,0,0:0:0:0:
36,192,290418,1,0,0:0:0:0:
109,192,290600,1,0,0:0:0:0:
256,192,290600,1,0,0:0:0:0:
402,192,290600,1,0,0:0:0:0:
182,192,290782,1,0,0:0:0:0:
329,192,290782,1,0,0:0:0:0:
475,192,290782,1,0,0:0:0:0:
36,192,290964,1,0,0:0:0:0:
256,192,290964,1,0,0:0:0:0:
329,192,290964,1,0,0:0:0:0:
402,192,290964,1,0,0:0:0:0:
475,192,290964,1,0,0:0:0:0:
109,192,291054,1,0,0:0:0:0:
182,192,291145,1,0,0:0:0:0:
329,192,291236,1,0,0:0:0:0:
109,192,291327,1,0,0:0:0:0:
182,192,291418,1,0,0:0:0:0:
329,192,291509,1,0,0:0:0:0:
402,192,291600,1,0,0:0:0:0:
182,192,291691,1,0,0:0:0:0:
329,192,291782,1,0,0:0:0:0:
402,192,291873,1,0,0:0:0:0:
475,192,291964,1,0,0:0:0:0:
36,192,292054,1,0,0:0:0:0:
182,192,292145,1,0,0:0:0:0:
256,192,292236,1,0,0:0:0:0:
329,192,292327,1,0,0:0:0:0:
475,192,292418,1,0,0:0:0:0:
402,192,292509,1,0,0:0:0:0:
329,192,292600,1,0,0:0:0:0:
182,192,292691,1,0,0:0:0:0:
402,192,292782,1,0,0:0:0:0:
329,192,292873,1,0,0:0:0:0:
182,192,292964,1,0,0:0:0:0:
109,192,293054,1,0,0:0:0:0:
329,192,293145,1,0,0:0:0:0:
182,192,293236,1,0,0:0:0:0:
109,192,293327,1,0,0:0:0:0:
36,192,293418,1,0,0:0:0:0:
182,192,293509,1,0,0:0:0:0:
256,192,293600,1,0,0:0:0:0:
329,192,293691,1,0,0:0:0:0:
475,192,293782,1,0,0:0:0:0:
329,192,293873,1,0,0:0:0:0:
256,192,293964,1,0,0:0:0:0:
182,192,294054,1,0,0:0:0:0:
36,192,294145,1,0,0:0:0:0:
475,192,294236,1,0,0:0:0:0:
256,192,294327,1,0,0:0:0:0:
402,192,294418,1,0,0:0:0:0:
256,192,294509,1,0,0:0:0:0:
109,192,294600,1,0,0:0:0:0:
256,192,294691,1,0,0:0:0:0:
475,192,294782,1,0,0:0:0:0:
256,192,294873,1,0,0:0:0:0:
402,192,294964,1,0,0:0:0:0:
256,192,295054,1,0,0:0:0:0:
109,192,295145,1,0,0:0:0:0:
256,192,295236,1,0,0:0:0:0:
402,192,295327,1,0,0:0:0:0:
329,192,295388,1,0,0:0:0:0:
256,192,295448,1,0,0:0:0:0:
329,192,295509,1,0,0:0:0:0:
256,192,295570,1,0,0:0:0:0:
182,192,295630,1,0,0:0:0:0:
256,192,295691,1,0,0:0:0:0:
182,192,295751,1,0,0:0:0:0:
109,192,295812,1,0,0:0:0:0:
182,192,295873,1,0,0:0:0:0:
109,192,295933,1,0,0:0:0:0:
36,192,295994,1,0,0:0:0:0:
109,192,296054,1,0,0:0:0:0:
182,192,296115,1,0,0:0:0:0:
256,192,296176,1,0,0:0:0:0:
329,192,296236,1,0,0:0:0:0:
402,192,296297,1,0,0:0:0:0:
475,192,296358,1,0,0:0:0:0:
256,192,296418,1,0,0:0:0:0:
36,192,296418,1,0,0:0:0:0:
109,192,296479,1,0,0:0:0:0:
329,192,296479,1,0,0:0:0:0:
182,192,296539,1,0,0:0:0:0:
402,192,296539,1,0,0:0:0:0:
256,192,296600,1,0,0:0:0:0:
475,192,296600,1,0,0:0:0:0:
36,192,296600,1,0,0:0:0:0:
109,192,296661,1,0,0:0:0:0:
329,192,296661,1,0,0:0:0:0:
182,192,296721,1,0,0:0:0:0:
402,192,296721,1,0,0:0:0:0:
36,192,296782,128,0,298236:0:0:0:0:
256,192,296782,128,0,300418:0:0:0:0:
475,192,296782,128,0,302600:0:0:0:0:
182,192,297782,128,0,299691:0:0:0:0:
109,192,297782,128,0,298964:0:0:0:0:
329,192,297782,128,0,301145:0:0:0:0:
402,192,297782,128,0,301873:0:0:0:0:
