osu file format v14

[General]
AudioFilename: audio.mp3
AudioLeadIn: 0
PreviewTime: 233487
Countdown: 0
SampleSet: Soft
StackLeniency: 0.7
Mode: 0
LetterboxInBreaks: 0
WidescreenStoryboard: 0

[Editor]
Bookmarks: 16032,27668,40759,52396,75668,87305,98941,110578,122214,133850,135305,146941,158578,170214,171668,173123,181850,193487,205123,209487,221123,232759,296759
DistanceSpacing: 1.9
BeatDivisor: 4
GridSize: 4
TimelineZoom: 1.4

[Metadata]
Title:Operation: Evolution
TitleUnicode:Operation: Evolution
Artist:Dimrain47
ArtistUnicode:Dimrain47
Creator:fufu-
Version:Genesis
Source:
Tags:newgrounds new grounds trance edm guitar solo dimrain geometry dash spaced streams play this with DT cookiezi
BeatmapID:1329352
BeatmapSetID:629710

[Difficulty]
HPDrainRate:6
CircleSize:5
OverallDifficulty:8.5
ApproachRate:9
SliderMultiplier:1.4
SliderTickRate:1

[Events]
//Background and Video events
0,0,"thumb-1920-286959.jpg",0,0
//Break Periods
//Storyboard Layer 0 (Background)
//Storyboard Layer 1 (Fail)
//Storyboard Layer 2 (Pass)
//Storyboard Layer 3 (Foreground)
//Storyboard Sound Samples

[TimingPoints]
10.575237254573,363.636363636364,4,2,0,55,1,0
16010,-80,4,2,0,55,0,0
27646,-66.6666666666667,4,2,0,55,0,0
52374,-100,4,2,0,55,0,1
58192,-66.6666666666667,4,2,0,55,0,1
60192,-100,4,2,0,55,0,1
62828,-100,4,3,0,5,0,1
62919,-100,4,2,0,55,0,1
63192,-100,4,3,0,5,0,1
63283,-100,4,2,0,55,0,0
63919,-100,4,3,0,5,0,0
64010,-100,4,2,0,55,0,1
69828,-100,4,2,0,55,0,1
75646,-100,4,2,0,55,0,0
98919,-200,4,2,0,55,0,0
101828,-200,4,2,0,50,0,0
104737,-200,4,2,0,45,0,0
107646,-200,4,2,0,40,0,0
110556,-200,4,2,0,35,0,0
122192,-200,4,3,0,20,0,0
128010,-133.333333333333,4,2,0,55,0,0
135192,-83.3333333333333,4,3,0,5,0,0
135283,-133.333333333333,4,2,0,45,0,0
146919,-83.3333333333333,4,2,0,55,0,0
148374,-100,4,2,0,55,0,0
152737,-90.9090909090909,4,2,0,55,0,0
159646,-66.6666666666667,4,2,0,55,0,0
160010,-100,4,2,0,55,0,0
169465,-83.3333333333333,4,2,0,55,0,0
170192,-100,4,2,0,55,0,1
181828,-100,4,2,0,55,0,0
193465,-200,4,2,0,55,0,0
205101,-400,4,2,0,55,0,0
205192,-400,4,3,0,5,0,0
208010,-100,4,2,0,55,0,0
232737,-50,4,2,0,55,0,1
233374,-57.1428571428571,4,3,0,5,0,1
233465,-66.6666666666667,4,2,0,55,0,1
233919,-57.1428571428571,4,3,0,5,0,1
234010,-66.6666666666667,4,2,0,55,0,1
244313,-100,4,2,0,55,0,0
244374,-100,4,2,0,55,0,1
254192,-100,4,2,0,55,0,0
254556,-100,4,2,0,55,0,1
255646,-100,4,2,0,55,0,0
256010,-100,4,2,0,55,0,1
267646,-100,4,2,0,55,0,0
279283,-57.1428571428571,4,2,0,55,0,1
286101,-57.1428571428571,4,3,0,5,0,1
286192,-57.1428571428571,4,2,0,55,0,1
286465,-57.1428571428571,4,3,0,5,0,1
286556,-57.1428571428571,4,2,0,55,0,1
287010,-57.1428571428571,4,3,0,5,0,1
287101,-57.1428571428571,4,2,0,55,0,1
287556,-57.1428571428571,4,3,0,5,0,1
287646,-57.1428571428571,4,2,0,55,0,1
287919,-57.1428571428571,4,3,0,5,0,1
288010,-57.1428571428571,4,2,0,55,0,1
288465,-57.1428571428571,4,3,0,5,0,1
288556,-57.1428571428571,4,2,0,55,0,1
289010,-57.1428571428571,4,3,0,5,0,1
289101,-57.1428571428571,4,2,0,55,0,1
289374,-57.1428571428571,4,3,0,5,0,1
289465,-57.1428571428571,4,2,0,55,0,1
290919,-100,4,2,0,55,0,0
296737,-200,4,2,0,85,0,0
297101,-200,4,2,0,80,0,0
297465,-200,4,2,0,75,0,0
297828,-200,4,2,0,70,0,0
298192,-200,4,2,0,65,0,0
298556,-200,4,2,0,60,0,0
298919,-200,4,2,0,55,0,0
299283,-200,4,2,0,50,0,0
299646,-200,4,2,0,45,0,0
300010,-200,4,2,0,40,0,0
300374,-200,4,2,0,35,0,0
300737,-200,4,2,0,30,0,0
301101,-200,4,2,0,25,0,0
301465,-200,4,2,0,20,0,0
301828,-200,4,2,0,15,0,0
302192,-200,4,2,0,10,0,0
302556,-200,4,3,0,5,0,0

[HitObjects]
400,82,10,5,0,0:0:0:0:
379,78,101,1,2,0:0:0:0:
321,131,283,1,0,0:0:0:0:
300,135,374,1,2,0:0:0:0:
249,78,556,1,0,0:0:0:0:
228,74,646,1,0,0:0:0:0:
207,70,737,5,2,0:0:0:0:
211,90,828,1,0,0:0:0:0:
212,110,919,1,2,0:0:0:0:
209,130,1010,1,0,0:0:0:0:
185,164,1101,5,2,0:0:0:0:
181,184,1192,1,0,0:0:0:0:
180,204,1283,1,2,0:0:0:0:
183,224,1374,1,0,0:0:0:0:
205,259,1465,5,0,0:0:0:0:
225,262,1556,1,2,0:0:0:0:
267,331,1737,1,0,0:0:0:0:
279,315,1828,1,2,0:0:0:0:
358,316,2010,1,0,0:0:0:0:
350,297,2101,1,0,0:0:0:0:
342,277,2192,5,2,0:0:0:0:
353,259,2283,1,0,0:0:0:0:
370,246,2374,1,2,0:0:0:0:
390,240,2465,1,0,0:0:0:0:
431,244,2556,5,2,0:0:0:0:
419,226,2646,1,0,0:0:0:0:
403,212,2737,1,2,0:0:0:0:
384,201,2828,1,0,0:0:0:0:
343,188,2919,5,0,0:0:0:0:
355,171,3010,1,2,0:0:0:0:
284,142,3192,1,0,0:0:0:0:
287,121,3283,1,2,0:0:0:0:
209,131,3465,1,0,0:0:0:0:
205,110,3556,1,0,0:0:0:0:
200,89,3646,5,2,0:0:0:0:
182,100,3737,1,0,0:0:0:0:
162,106,3828,1,2,0:0:0:0:
141,107,3919,1,0,0:0:0:0:
100,97,4010,5,2,0:0:0:0:
110,115,4101,1,0,0:0:0:0:
113,135,4192,1,2,0:0:0:0:
112,156,4283,1,0,0:0:0:0:
96,194,4374,5,0,0:0:0:0:
100,214,4465,1,2,0:0:0:0:
55,268,4646,1,0,0:0:0:0:
50,288,4737,1,2,0:0:0:0:
109,329,4919,1,0,0:0:0:0:
113,349,5010,1,0,0:0:0:0:
117,369,5101,5,2,0:0:0:0:
136,360,5192,1,0,0:0:0:0:
151,346,5283,1,2,0:0:0:0:
164,329,5374,1,0,0:0:0:0:
161,287,5465,5,2,0:0:0:0:
181,290,5556,1,0,0:0:0:0:
201,293,5646,1,2,0:0:0:0:
221,296,5737,1,0,0:0:0:0:
256,319,5828,5,0,0:0:0:0:
276,317,5919,1,2,0:0:0:0:
319,252,6101,1,0,0:0:0:0:
298,248,6192,1,2,0:0:0:0:
242,191,6374,1,0,0:0:0:0:
262,189,6465,1,0,0:0:0:0:
282,186,6556,5,2,0:0:0:0:
276,166,6646,1,0,0:0:0:0:
270,145,6737,1,2,0:0:0:0:
264,124,6828,1,0,0:0:0:0:
235,93,6919,5,2,0:0:0:0:
255,95,7010,1,0,0:0:0:0:
275,97,7101,1,2,0:0:0:0:
295,100,7192,1,0,0:0:0:0:
334,86,7283,5,0,0:0:0:0:
354,82,7374,1,2,0:0:0:0:
350,151,7556,1,0,0:0:0:0:
370,147,7646,1,2,0:0:0:0:
365,218,7828,1,0,0:0:0:0:
385,214,7919,1,0,0:0:0:0:
405,211,8010,5,2,0:0:0:0:
403,231,8101,1,0,0:0:0:0:
403,252,8192,1,2,0:0:0:0:
408,272,8283,1,0,0:0:0:0:
428,308,8374,5,2,0:0:0:0:
406,308,8465,1,0,0:0:0:0:
385,311,8556,1,2,0:0:0:0:
365,319,8646,1,0,0:0:0:0:
338,351,8737,5,0,0:0:0:0:
317,350,8828,1,2,0:0:0:0:
243,342,9010,1,0,0:0:0:0:
222,341,9101,1,2,0:0:0:0:
149,332,9283,1,0,0:0:0:0:
128,331,9374,1,0,0:0:0:0:
107,330,9465,5,2,0:0:0:0:
99,310,9556,1,0,0:0:0:0:
94,289,9646,1,2,0:0:0:0:
93,267,9737,1,0,0:0:0:0:
108,227,9828,5,2,0:0:0:0:
114,206,9919,1,0,0:0:0:0:
116,185,10010,1,2,0:0:0:0:
115,163,10101,1,0,0:0:0:0:
98,124,10192,5,0,0:0:0:0:
100,103,10283,1,2,0:0:0:0:
177,92,10465,1,0,0:0:0:0:
179,71,10556,1,2,0:0:0:0:
259,62,10737,1,0,0:0:0:0:
261,41,10828,1,0,0:0:0:0:
264,20,10919,5,2,0:0:0:0:
282,29,11010,1,0,0:0:0:0:
301,36,11101,1,2,0:0:0:0:
321,40,11192,1,0,0:0:0:0:
362,36,11283,5,2,0:0:0:0:
382,31,11374,1,0,0:0:0:0:
402,29,11465,1,2,0:0:0:0:
422,31,11556,1,0,0:0:0:0:
460,47,11646,5,0,0:0:0:0:
458,67,11737,1,2,0:0:0:0:
453,129,11919,1,0,0:0:0:0:
451,149,12010,1,2,0:0:0:0:
444,211,12192,1,0,0:0:0:0:
442,231,12283,1,0,0:0:0:0:
440,251,12374,6,0,P|422:259|396:264,1,35,2|0,0:0|0:0,0:0:0:0:
394,327,12556,2,0,P|375:319|353:305,1,35,2|0,0:0|0:0,0:0:0:0:
309,350,12737,2,0,P|301:332|296:306,1,35,2|0,0:0|0:0,0:0:0:0:
233,304,12919,2,0,P|240:285|254:263,1,35,2|0,0:0|0:0,0:0:0:0:
209,219,13101,5,0,0:0:0:0:
228,210,13192,1,2,0:0:0:0:
251,151,13374,1,0,0:0:0:0:
271,155,13465,1,2,0:0:0:0:
312,107,13646,1,0,0:0:0:0:
328,119,13737,1,0,0:0:0:0:
345,132,13828,6,0,L|389:122,1,35,2|0,0:0|0:0,0:0:0:0:
379,193,14010,2,0,L|416:204,1,35,2|0,0:0|0:0,0:0:0:0:
373,263,14192,2,0,L|406:290,1,35,2|0,0:0|0:0,0:0:0:0:
345,329,14374,2,0,L|359:361,1,35,2|0,0:0|0:0,0:0:0:0:
283,359,14556,1,4,0:0:0:0:
283,359,15646,5,0,0:0:0:0:
262,357,15737,1,0,0:0:0:0:
241,355,15828,1,0,0:0:0:0:
219,354,15919,1,0,0:0:0:0:
197,353,16010,6,0,P|175:356|145:369,3,43.75,2|0|0|0,0:0|0:0|0:0|0:0,0:0:0:0:
177,258,16374,2,0,P|160:273|143:300,3,43.75,8|0|0|0,0:0|0:0|0:0|0:0,0:0:0:0:
101,199,16737,2,0,P|96:220|98:253,3,43.75,2|0|0|0,0:0|0:0|0:0|0:0,0:0:0:0:
5,217,17101,2,0,P|13:237|33:263,3,43.75,8|0|0|0,0:0|0:0|0:0|0:0,0:0:0:0:
76,313,17465,5,2,0:0:0:0:
101,319,17556,1,0,0:0:0:0:
126,319,17646,1,0,0:0:0:0:
151,312,17737,1,0,0:0:0:0:
174,300,17828,1,8,0:0:0:0:
195,284,17919,1,0,0:0:0:0:
217,270,18010,1,0,0:0:0:0:
241,261,18101,1,0,0:0:0:0:
267,263,18192,5,2,0:0:0:0:
257,238,18283,1,0,0:0:0:0:
254,211,18374,1,0,0:0:0:0:
256,184,18465,1,0,0:0:0:0:
262,158,18556,1,8,0:0:0:0:
273,134,18646,1,0,0:0:0:0:
290,114,18737,1,0,0:0:0:0:
312,101,18828,1,0,0:0:0:0:
337,95,18919,6,0,L|388:98,3,43.75,2|0|0|0,0:0|0:0|0:0|0:0,0:0:0:0:
357,161,19283,2,0,L|408:164,3,43.75,8|0|0|0,0:0|0:0|0:0|0:0,0:0:0:0:
374,227,19646,2,0,L|425:230,3,43.75,2|0|0|0,0:0|0:0|0:0|0:0,0:0:0:0:
394,293,20010,2,0,L|445:296,3,43.75,8|0|0|0,0:0|0:0|0:0|0:0,0:0:0:0:
345,346,20374,5,2,0:0:0:0:
320,356,20465,1,0,0:0:0:0:
294,361,20556,1,0,0:0:0:0:
268,357,20646,1,0,0:0:0:0:
244,346,20737,1,8,0:0:0:0:
224,328,20828,1,0,0:0:0:0:
210,305,20919,1,0,0:0:0:0:
190,287,21010,1,0,0:0:0:0:
165,277,21101,5,6,0:0:0:0:
187,256,21192,1,0,0:0:0:0:
205,231,21283,1,0,0:0:0:0:
216,202,21374,1,0,0:0:0:0:
219,171,21465,1,8,0:0:0:0:
213,140,21556,1,0,0:0:0:0:
196,114,21646,1,0,0:0:0:0:
174,91,21737,1,0,0:0:0:0:
144,84,21828,6,0,L|98:77,1,43.75,2|0,0:0|0:0,0:0:0:0:
109,150,22010,2,0,L|53:163,1,43.75
81,227,22192,2,0,L|44:261,1,43.75,8|0,0:0|0:0,0:0:0:0:
99,305,22374,2,0,L|87:348,1,43.75
210,301,22556,5,2,0:0:0:0:
223,278,22646,1,0,0:0:0:0:
232,253,22737,1,0,0:0:0:0:
234,226,22828,1,0,0:0:0:0:
232,199,22919,5,8,0:0:0:0:
248,219,23010,1,0,0:0:0:0:
266,237,23101,1,0,0:0:0:0:
288,250,23192,1,0,0:0:0:0:
312,258,23283,6,0,P|338:259|368:257,1,43.75,2|0,0:0|0:0,0:0:0:0:
450,211,23465,2,0,P|424:212|394:210,1,43.75
303,164,23646,2,0,P|329:165|359:163,1,43.75,8|0,0:0|0:0,0:0:0:0:
441,117,23828,2,0,P|415:118|385:116,1,43.75
315,45,24010,5,2,0:0:0:0:
290,55,24101,1,0,0:0:0:0:
264,59,24192,1,0,0:0:0:0:
237,57,24283,1,0,0:0:0:0:
210,53,24374,5,8,0:0:0:0:
190,70,24465,1,0,0:0:0:0:
173,90,24556,1,0,0:0:0:0:
161,113,24646,1,0,0:0:0:0:
157,138,24737,6,0,L|166:201,1,43.75,2|0,0:0|0:0,0:0:0:0:
185,299,24919,2,0,L|192:244,1,43.75
131,124,25101,2,0,L|140:187,1,43.75,8|0,0:0|0:0,0:0:0:0:
202,319,25283,2,0,L|209:264,1,43.75
292,159,25465,5,2,0:0:0:0:
311,140,25556,1,0,0:0:0:0:
334,128,25646,1,0,0:0:0:0:
359,122,25737,1,0,0:0:0:0:
385,121,25828,5,8,0:0:0:0:
410,128,25919,1,0,0:0:0:0:
433,139,26010,1,0,0:0:0:0:
452,156,26101,1,0,0:0:0:0:
468,176,26192,6,0,P|475:192|480:209,5,29.1666666666667,2|0|0|0|0|0,0:0|0:0|0:0|0:0|0:0|0:0,0:0:0:0:
415,222,26556,2,0,P|414:239|411:256,5,29.1666666666667,8|0|0|0|0|0,0:0|0:0|0:0|0:0|0:0|0:0,0:0:0:0:
347,234,26919,2,0,P|339:249|329:264,5,29.1666666666667,2|0|0|0|0|0,0:0|0:0|0:0|0:0|0:0|0:0,0:0:0:0:
280,216,27283,2,0,P|266:226|251:236,5,29.1666666666667,8|0|0|0|0|0,0:0|0:0|0:0|0:0|0:0|0:0,0:0:0:0:
231,165,27646,5,2,0:0:0:0:
220,140,28010,5,2,0:0:0:0:
219,113,28374,5,2,0:0:0:0:
224,87,28737,5,2,0:0:0:0:
240,66,29101,5,2,0:0:0:0:
271,62,29192,1,0,0:0:0:0:
302,59,29283,1,8,0:0:0:0:
385,135,29465,1,2,0:0:0:0:
354,131,29556,1,0,0:0:0:0:
323,128,29646,1,8,0:0:0:0:
220,201,29828,1,2,0:0:0:0:
251,197,29919,1,0,0:0:0:0:
282,194,30010,1,8,0:0:0:0:
365,270,30192,1,2,0:0:0:0:
334,266,30283,1,0,0:0:0:0:
303,263,30374,1,8,0:0:0:0:
91,229,30556,6,0,P|81:205|72:163,2,52.5000020027161,2|0|8,0:0|0:0|0:0,0:0:0:0:
199,316,30919,2,0,P|222:320|258:320,2,52.5000020027161,2|0|8,0:0|0:0|0:0,0:0:0:0:
69,333,31283,2,0,P|44:342|20:358,2,52.5000020027161,2|0|8,0:0|0:0|0:0,0:0:0:0:
193,208,31646,2,0,P|203:180|207:148,2,52.5000020027161,2|0|8,0:0|0:0|0:0,0:0:0:0:
159,81,32010,5,2,0:0:0:0:
155,49,32101,1,0,0:0:0:0:
152,17,32192,1,8,0:0:0:0:
232,97,32374,1,2,0:0:0:0:
228,65,32465,1,0,0:0:0:0:
225,33,32556,1,8,0:0:0:0:
307,116,32737,1,2,0:0:0:0:
303,84,32828,1,0,0:0:0:0:
300,52,32919,1,8,0:0:0:0:
380,132,33101,1,2,0:0:0:0:
376,100,33192,1,0,0:0:0:0:
373,68,33283,1,8,0:0:0:0:
429,214,33465,6,0,L|451:264,2,52.5000020027161,2|0|8,0:0|0:0|0:0,0:0:0:0:
333,270,33828,2,0,L|325:329,2,52.5000020027161,2|0|8,0:0|0:0|0:0,0:0:0:0:
213,264,34192,2,0,L|168:297,2,52.5000020027161,2|0|8,0:0|0:0|0:0,0:0:0:0:
121,172,34556,2,0,L|64:161,2,52.5000020027161,2|0|8,0:0|0:0|0:0,0:0:0:0:
246,52,34919,5,2,0:0:0:0:
244,83,35010,1,0,0:0:0:0:
242,114,35101,1,8,0:0:0:0:
304,202,35283,1,2,0:0:0:0:
306,171,35374,1,0,0:0:0:0:
308,140,35465,1,8,0:0:0:0:
383,53,35646,1,2,0:0:0:0:
381,84,35737,1,0,0:0:0:0:
379,115,35828,1,8,0:0:0:0:
441,203,36010,1,2,0:0:0:0:
443,172,36101,1,0,0:0:0:0:
445,141,36192,1,8,0:0:0:0:
317,27,36374,6,0,L|315:91,2,52.5000020027161,2|0|8,0:0|0:0|0:0,0:0:0:0:
242,114,36737,2,0,L|240:178,2,52.5000020027161,2|0|8,0:0|0:0|0:0,0:0:0:0:
136,164,37101,2,0,L|138:228,2,52.5000020027161,2|0|8,0:0|0:0|0:0,0:0:0:0:
211,251,37465,2,0,L|213:315,2,52.5000020027161,2|0|8,0:0|0:0|0:0,0:0:0:0:
319,325,37828,5,2,0:0:0:0:
349,330,37919,1,0,0:0:0:0:
379,336,38010,1,8,0:0:0:0:
383,264,38192,1,2,0:0:0:0:
411,251,38283,1,0,0:0:0:0:
439,239,38374,1,8,0:0:0:0:
402,178,38556,1,2,0:0:0:0:
417,151,38646,1,0,0:0:0:0:
433,125,38737,1,8,0:0:0:0:
368,96,38919,1,2,0:0:0:0:
365,66,39010,1,0,0:0:0:0:
363,35,39101,1,8,0:0:0:0:
433,125,39283,6,0,P|424:154|409:177,2,52.5000020027161,2|0|8,0:0|0:0|0:0,0:0:0:0:
439,239,39646,2,0,P|415:257|389:267,2,52.5000020027161,2|0|8,0:0|0:0|0:0,0:0:0:0:
379,336,40010,2,0,P|349:336|322:330,1,52.5000020027161,2|0,0:0|0:0,0:0:0:0:
256,265,40192,1,12,0:0:0:0:
256,265,40374,2,0,P|225:270|195:280,1,52.5000020027161,2|0,0:0|0:0,0:0:0:0:
131,334,40556,1,12,0:0:0:0:
76,192,40737,5,2,0:0:0:0:
67,161,40828,1,0,0:0:0:0:
66,129,40919,1,8,0:0:0:0:
73,98,41010,1,0,0:0:0:0:
86,69,41101,5,2,0:0:0:0:
166,136,41283,1,8,0:0:0:0:
228,51,41465,1,2,0:0:0:0:
259,46,41556,1,0,0:0:0:0:
289,42,41646,1,8,0:0:0:0:
411,103,41828,1,2,0:0:0:0:
380,98,41919,1,0,0:0:0:0:
350,94,42010,1,8,0:0:0:0:
261,172,42192,6,0,P|252:196|247:233,1,52.5000020027161,2|0,0:0|0:0,0:0:0:0:
308,247,42374,2,0,P|309:272|321:308,1,52.5000020027161,8|0,0:0|0:0,0:0:0:0:
382,316,42556,5,2,0:0:0:0:
382,316,42737,1,8,0:0:0:0:
336,178,42919,2,0,P|331:152|322:127,2,52.5000020027161,2|0|8,0:0|0:0|0:0,0:0:0:0:
224,73,43283,2,0,P|214:97|210:123,2,52.5000020027161,2|0|8,0:0|0:0|0:0,0:0:0:0:
344,37,43646,5,2,0:0:0:0:
375,35,43737,1,0,0:0:0:0:
406,34,43828,1,8,0:0:0:0:
437,33,43919,1,0,0:0:0:0:
468,32,44010,5,2,0:0:0:0:
368,107,44192,1,8,0:0:0:0:
483,173,44374,1,2,0:0:0:0:
493,202,44465,1,0,0:0:0:0:
496,233,44556,1,8,0:0:0:0:
443,331,44737,1,2,0:0:0:0:
414,341,44828,1,0,0:0:0:0:
383,344,44919,1,8,0:0:0:0:
279,267,45101,6,0,L|215:261,1,52.5000020027161,2|0,0:0|0:0,0:0:0:0:
81,240,45283,2,0,L|148:229,1,52.5000020027161,8|0,0:0|0:0,0:0:0:0:
246,188,45465,5,2,0:0:0:0:
115,157,45646,1,8,0:0:0:0:
169,327,45828,5,2,0:0:0:0:
207,116,46010,1,8,0:0:0:0:
274,347,46192,5,2,0:0:0:0:
312,136,46374,1,8,0:0:0:0:
376,370,46556,5,2,0:0:0:0:
382,339,46646,1,0,0:0:0:0:
388,308,46737,1,8,0:0:0:0:
394,277,46828,1,0,0:0:0:0:
400,246,46919,5,2,0:0:0:0:
429,96,47101,1,8,0:0:0:0:
481,208,47283,1,2,0:0:0:0:
481,208,47374,1,0,0:0:0:0:
481,208,47465,1,8,0:0:0:0:
512,64,47646,1,2,0:0:0:0:
512,64,47737,1,0,0:0:0:0:
512,64,47828,1,8,0:0:0:0:
342,17,48010,5,2,0:0:0:0:
310,12,48101,1,0,0:0:0:0:
278,14,48192,1,8,0:0:0:0:
248,24,48283,1,0,0:0:0:0:
224,44,48374,5,2,0:0:0:0:
197,183,48556,1,8,0:0:0:0:
255,316,48737,2,0,P|280:324|323:330,2,52.5000020027161,2|0|8,0:0|0:0|0:0,0:0:0:0:
129,276,49101,2,0,P|104:267|61:263,2,52.5000020027161,2|0|8,0:0|0:0|0:0,0:0:0:0:
290,211,49465,5,2,0:0:0:0:
318,197,49556,1,0,0:0:0:0:
338,173,49646,1,8,0:0:0:0:
350,144,49737,1,0,0:0:0:0:
353,112,49828,5,2,0:0:0:0:
162,90,50010,1,8,0:0:0:0:
341,31,50192,5,2,0:0:0:0:
188,20,50374,1,8,0:0:0:0:
353,112,50556,5,2,0:0:0:0:
162,90,50737,1,8,0:0:0:0:
247,238,50919,5,2,0:0:0:0:
249,269,51010,1,0,0:0:0:0:
251,300,51101,1,8,0:0:0:0:
254,331,51192,1,0,0:0:0:0:
257,362,51283,5,2,0:0:0:0:
336,268,51465,1,8,0:0:0:0:
162,207,51646,1,2,0:0:0:0:
366,165,51828,1,8,0:0:0:0:
126,87,52010,2,0,P|167:64|231:52,1,105.000004005432,2|8,0:0|0:0,0:0:0:0:
335,30,52374,1,4,0:0:0:0:
317,13,52737,6,2,P|313:47|315:87,2,70
399,107,53283,1,2,0:0:0:0:
483,14,53465,2,2,P|487:48|485:88,1,70
435,191,53828,2,2,B|414:199|397:219|397:219|367:191|367:191|345:211|318:219|288:209|273:194|259:164,1,210
321,146,54556,5,2,0:0:0:0:
494,153,54737,1,10,0:0:0:0:
311,234,54919,5,2,0:0:0:0:
484,241,55101,1,10,0:0:0:0:
301,320,55283,6,2,L|220:314,1,70
104,301,55646,1,2,0:0:0:0:
161,362,55828,1,2,0:0:0:0:
208,231,56010,6,2,P|215:192|214:158,1,70
100,82,56374,2,2,P|105:119|120:156,1,70
259,102,56737,2,2,B|292:92|301:46|301:46|297:89|310:139|340:176,1,210
235,39,57465,5,2,0:0:0:0:
208,231,57646,1,10,0:0:0:0:
358,317,57828,5,2,0:0:0:0:
331,125,58010,1,10,0:0:0:0:
239,290,58192,6,2,P|199:298|144:249,1,105.000004005432
275,233,58556,2,2,P|301:263|286:335,1,105.000004005432
208,231,58919,2,2,P|221:192|291:169,1,105.000004005432
243,361,59283,5,2,0:0:0:0:
332,197,59465,1,10,0:0:0:0:
152,196,59646,1,2,0:0:0:0:
329,270,59828,1,2,0:0:0:0:
287,73,60010,1,10,0:0:0:0:
149,262,60192,2,2,P|102:239|101:155,1,140
267,180,60737,5,2,0:0:0:0:
148,325,60919,1,10,0:0:0:0:
117,94,61101,1,2,0:0:0:0:
261,152,61283,2,2,L|346:162,1,70,2|10,0:0|0:0,0:0:0:0:
120,121,61646,5,2,0:0:0:0:
279,130,61828,2,2,L|353:123,1,70,2|10,0:0|0:0,0:0:0:0:
123,146,62192,5,2,0:0:0:0:
290,105,62374,1,10,0:0:0:0:
127,172,62556,6,2,B|125:195|125:195|151:258|151:258|145:295,1,105
111,324,62919,6,2,P|166:295|221:334,1,105
256,353,63283,6,2,B|283:357|302:369|302:369|332:339|332:339|390:378|437:354|437:354|411:340|396:300,1,245
423,258,64010,5,14,0:0:0:0:
470,63,64192,1,2,0:0:0:0:
473,97,64283,1,2,0:0:0:0:
477,131,64374,1,14,0:0:0:0:
307,216,64556,1,2,0:0:0:0:
310,175,64646,1,2,0:0:0:0:
315,134,64737,1,14,0:0:0:0:
469,49,64919,1,2,0:0:0:0:
472,96,65010,1,2,0:0:0:0:
478,144,65101,1,14,0:0:0:0:
307,216,65283,6,2,L|263:224,1,35
87,179,65465,1,14,0:0:0:0:
265,59,65646,1,2,0:0:0:0:
299,52,65737,1,2,0:0:0:0:
333,45,65828,1,14,0:0:0:0:
155,193,66010,1,2,0:0:0:0:
121,186,66101,1,2,0:0:0:0:
87,179,66192,1,14,0:0:0:0:
190,33,66374,1,14,0:0:0:0:
211,322,66556,1,14,0:0:0:0:
302,158,66737,6,2,L|358:144,1,35
485,172,66919,1,14,0:0:0:0:
341,298,67101,1,2,0:0:0:0:
322,268,67192,1,2,0:0:0:0:
314,233,67283,1,14,0:0:0:0:
381,79,67465,1,2,0:0:0:0:
403,115,67556,1,2,0:0:0:0:
413,157,67646,1,14,0:0:0:0:
237,103,67828,1,2,0:0:0:0:
249,52,67919,1,2,0:0:0:0:
275,9,68010,1,14,0:0:0:0:
413,157,68192,6,2,L|405:208,1,35
268,297,68374,1,14,0:0:0:0:
105,201,68556,1,2,0:0:0:0:
100,166,68646,1,2,0:0:0:0:
95,131,68737,1,14,0:0:0:0:
175,244,68919,1,2,0:0:0:0:
170,279,69010,1,2,0:0:0:0:
165,314,69101,1,14,0:0:0:0:
90,96,69283,1,14,0:0:0:0:
306,154,69465,2,0,P|337:151|377:140,1,70,14|0,0:0|0:0,0:0:0:0:
445,49,69828,5,2,0:0:0:0:
297,27,70010,1,8,0:0:0:0:
453,121,70192,5,2,0:0:0:0:
260,95,70374,1,8,0:0:0:0:
469,190,70556,5,2,0:0:0:0:
242,181,70737,1,8,0:0:0:0:
496,262,70919,5,2,0:0:0:0:
234,270,71101,1,8,0:0:0:0:
372,327,71283,5,2,0:0:0:0:
406,85,71465,1,8,0:0:0:0:
444,314,71646,5,2,0:0:0:0:
333,97,71828,1,8,0:0:0:0:
496,262,72010,5,2,0:0:0:0:
280,148,72192,1,8,0:0:0:0:
509,189,72374,5,2,0:0:0:0:
266,220,72556,1,8,0:0:0:0:
478,123,72737,5,2,0:0:0:0:
297,286,72919,1,8,0:0:0:0:
394,55,73101,5,2,0:0:0:0:
453,341,73283,1,8,0:0:0:0:
256,123,73465,5,2,0:0:0:0:
476,19,73646,1,8,0:0:0:0:
366,243,73828,5,2,0:0:0:0:
166,59,74010,1,8,0:0:0:0:
410,119,74192,6,2,B|410:147|410:147|385:187|385:187|381:239,1,105
356,311,74556,6,2,P|399:304|432:248,1,105,10|2,0:0|0:0,0:0:0:0:
325,181,74919,5,2,0:0:0:0:
299,360,75101,1,2,0:0:0:0:
442,192,75283,2,2,L|448:115,1,70
305,28,75646,5,2,0:0:0:0:
305,28,75828,1,8,0:0:0:0:
204,121,76010,1,2,0:0:0:0:
204,121,76192,1,8,0:0:0:0:
112,30,76374,1,2,0:0:0:0:
48,140,76556,1,2,0:0:0:0:
131,236,76737,2,0,P|160:248|201:256,1,70,2|0,0:0|0:0,0:0:0:0:
317,225,77101,5,2,0:0:0:0:
317,225,77283,1,8,0:0:0:0:
273,353,77465,1,2,0:0:0:0:
273,353,77646,1,8,0:0:0:0:
197,255,77828,1,2,0:0:0:0:
391,322,78010,1,8,0:0:0:0:
243,179,78192,1,8,0:0:0:0:
434,254,78374,1,8,0:0:0:0:
481,86,78556,5,2,0:0:0:0:
481,86,78737,1,8,0:0:0:0:
360,140,78919,1,2,0:0:0:0:
360,140,79101,1,8,0:0:0:0:
243,72,79283,1,2,0:0:0:0:
365,20,79465,1,2,0:0:0:0:
456,182,79646,2,0,L|453:262,1,70,2|0,0:0|0:0,0:0:0:0:
337,313,80010,5,2,0:0:0:0:
337,313,80192,1,8,0:0:0:0:
171,337,80374,1,2,0:0:0:0:
171,337,80556,1,8,0:0:0:0:
289,239,80737,1,2,0:0:0:0:
241,372,80919,1,8,0:0:0:0:
159,222,81101,1,8,0:0:0:0:
351,146,81283,1,8,0:0:0:0:
178,83,81465,6,0,P|148:72|104:71,1,70,2|0,0:0|0:0,0:0:0:0:
218,182,81828,2,0,P|256:169|286:146,1,70,2|0,0:0|0:0,0:0:0:0:
106,43,82192,2,0,P|65:51|30:72,1,70,2|0,0:0|0:0,0:0:0:0:
306,157,82556,2,0,P|322:113|323:83,1,70,2|0,0:0|0:0,0:0:0:0:
88,134,82919,6,0,L|84:212,1,70,2|0,0:0|0:0,0:0:0:0:
162,343,83283,2,0,L|166:265,1,70,2|0,0:0|0:0,0:0:0:0:
261,144,83646,2,0,L|257:222,1,70,2|0,0:0|0:0,0:0:0:0:
335,353,84010,2,0,L|339:275,1,70,2|0,0:0|0:0,0:0:0:0:
352,74,84374,5,2,0:0:0:0:
363,52,84737,1,2,0:0:0:0:
359,183,84919,1,2,0:0:0:0:
265,73,85101,2,0,P|232:60|189:54,1,70,2|0,0:0|0:0,0:0:0:0:
102,120,85465,2,0,P|94:167|94:202,1,70,2|0,0:0|0:0,0:0:0:0:
169,304,85828,2,0,B|205:295|205:295|275:306|275:306|317:293,3,140,2|2|2|2,0:0|0:0|0:0|0:0,0:0:0:0:
407,263,87101,1,8,0:0:0:0:
303,187,87283,5,0,0:0:0:0:
286,89,87465,1,8,0:0:0:0:
325,199,87646,5,0,0:0:0:0:
302,71,87828,1,8,0:0:0:0:
407,192,88010,5,0,0:0:0:0:
224,148,88192,1,0,0:0:0:0:
385,48,88374,1,2,0:0:0:0:
192,12,88737,5,0,0:0:0:0:
123,41,88919,1,8,0:0:0:0:
192,12,89101,5,0,0:0:0:0:
123,41,89283,1,8,0:0:0:0:
220,77,89465,5,0,0:0:0:0:
137,114,89646,1,0,0:0:0:0:
47,72,89828,1,2,0:0:0:0:
148,234,90192,5,0,0:0:0:0:
290,218,90374,1,8,0:0:0:0:
132,262,90556,5,0,0:0:0:0:
313,241,90737,1,8,0:0:0:0:
169,343,90919,5,0,0:0:0:0:
209,151,91101,1,0,0:0:0:0:
247,375,91283,1,2,0:0:0:0:
306,131,91646,5,0,0:0:0:0:
315,59,91828,1,8,0:0:0:0:
306,131,92010,5,0,0:0:0:0:
315,59,92192,1,8,0:0:0:0:
373,164,92374,5,0,0:0:0:0:
385,42,92556,1,0,0:0:0:0:
426,113,92737,1,2,0:0:0:0:
370,237,93101,5,2,0:0:0:0:
267,222,93283,1,8,0:0:0:0:
370,237,93465,5,0,0:0:0:0:
267,222,93646,1,8,0:0:0:0:
361,328,93828,6,0,L|436:316,1,70,2|0,0:0|0:0,0:0:0:0:
453,167,94192,2,0,L|366:152,1,70,2|0,0:0|0:0,0:0:0:0:
266,41,94556,6,0,P|252:83|250:122,1,70,2|0,0:0|0:0,0:0:0:0:
267,222,94919,2,0,P|274:259|276:294,1,70,2|0,0:0|0:0,0:0:0:0:
143,353,95283,6,0,L|66:343,1,70,2|0,0:0|0:0,0:0:0:0:
41,176,95646,2,0,L|122:159,1,70,2|0,0:0|0:0,0:0:0:0:
313,113,96010,5,2,0:0:0:0:
333,126,96374,1,2,0:0:0:0:
177,97,96556,1,2,0:0:0:0:
228,217,96737,6,0,L|234:291,1,70,2|0,0:0|0:0,0:0:0:0:
343,333,97101,2,0,L|353:258,1,70,2|0,0:0|0:0,0:0:0:0:
160,182,97465,5,2,0:0:0:0:
341,198,97646,1,4,0:0:0:0:
191,119,97828,2,0,P|153:113|118:127,1,70,2|0,0:0|0:0,0:0:0:0:
233,286,98192,2,0,P|257:256|262:218,1,70,6|0,0:0|0:0,0:0:0:0:
90,181,98556,1,6,0:0:0:0:
90,181,98919,6,0,L|155:175,3,35,12|0|8|0,0:0|0:0|0:0|0:0,0:0:0:0:
180,223,99646,2,0,L|225:224,3,35,0|8|0|8,0:0|0:0|0:0|0:0,0:0:0:0:
259,170,100374,2,0,L|324:164,3,35,2|0|8|0,0:0|0:0|0:0|0:0,0:0:0:0:
351,219,101101,2,0,L|357:259,1,35,2|8,0:0|0:0,0:0:0:0:
398,161,101374,1,8,0:0:0:0:
398,161,101465,2,0,L|400:113,1,35,8|8,0:0|0:0,0:0:0:0:
370,319,101828,6,0,P|349:328|331:333,3,35,10|0|8|0,0:0|0:0|0:0|0:0,0:0:0:0:
273,330,102556,2,0,P|250:325|233:319,3,35,0|8|0|8,0:0|0:0|0:0|0:0,0:0:0:0:
188,284,103283,2,0,P|172:267|161:252,3,35,0|0|8|0,0:0|0:0|0:0|0:0,0:0:0:0:
140,199,104010,2,0,P|136:176|136:157,1,35,0|8,0:0|0:0,0:0:0:0:
219,87,104283,1,8,0:0:0:0:
219,87,104374,2,8,P|222:109|222:128,1,35
73,97,104737,6,0,L|30:90,3,35,8|0|8|0,0:0|0:0|0:0|0:0,0:0:0:0:
62,165,105465,2,0,L|19:171,3,35,0|8|0|8,0:0|0:0|0:0|0:0,0:0:0:0:
75,231,106192,2,0,L|42:249,3,35,2|0|8|0,0:0|0:0|0:0|0:0,0:0:0:0:
109,291,106919,2,0,L|82:319,1,35,2|8,0:0|0:0,0:0:0:0:
186,314,107192,1,8,0:0:0:0:
186,314,107283,2,0,L|194:347,1,35,8|0,0:0|0:0,0:0:0:0:
253,263,107646,6,0,L|291:270,3,35,10|0|8|0,0:0|0:0|0:0|0:0,0:0:0:0:
328,204,108374,2,0,L|286:207,3,35,0|10|2|10,0:0|0:0|0:0|0:0,0:0:0:0:
255,136,109101,2,0,L|293:143,3,35,2|0|8|0,0:0|0:0|0:0|0:0,0:0:0:0:
330,77,109737,1,8,0:0:0:0:
330,77,109828,2,0,L|288:80,1,35,0|10,0:0|0:0,0:0:0:0:
203,57,110101,1,8,0:0:0:0:
203,57,110192,1,10,0:0:0:0:
333,7,110374,1,10,0:0:0:0:
191,38,110556,6,0,P|227:27|289:52,1,105,6|8,0:0|0:0,0:0:0:0:
356,70,111283,2,0,P|333:101|268:117,1,105,2|8,0:0|0:0,0:0:0:0:
203,142,112010,2,0,P|203:105|246:54,1,105,2|8,0:0|0:0,0:0:0:0:
287,0,112737,2,0,P|308:27|303:94,1,105,2|8,0:0|0:0,0:0:0:0:
304,162,113465,2,0,P|268:150|232:94,1,105,2|8,0:0|0:0,0:0:0:0:
364,127,114192,5,0,0:0:0:0:
312,266,114556,1,8,0:0:0:0:
150,268,114919,1,0,0:0:0:0:
18,344,115283,6,0,L|11:298,1,35,8|0,0:0|0:0,0:0:0:0:
38,239,115646,2,0,L|44:197,1,35,0|8,0:0|0:0,0:0:0:0:
106,162,115919,1,8,0:0:0:0:
106,162,116010,2,0,L|126:126,1,35,8|0,0:0|0:0,0:0:0:0:
196,122,116374,2,0,P|219:102|312:174,1,175,2|0,0:0|0:0,0:0:0:0:
249,161,117465,1,8,0:0:0:0:
372,121,117828,1,0,0:0:0:0:
412,244,118192,1,8,0:0:0:0:
289,284,118556,1,0,0:0:0:0:
372,121,118919,1,8,0:0:0:0:
342,327,119283,6,0,P|310:349|223:272,1,175,2|2,0:0|0:0,0:0:0:0:
261,222,120374,1,2,0:0:0:0:
238,159,120556,1,2,0:0:0:0:
271,96,120737,2,0,L|342:88,1,70,2|2,0:0|0:0,0:0:0:0:
161,319,121465,2,0,L|87:310,1,70,2|2,0:0|0:0,0:0:0:0:
431,106,122192,6,0,B|427:160|383:184|383:184|432:164|432:164|441:193|481:212,1,210,2|0,0:0|0:0,0:0:0:0:
472,207,123646,6,0,P|470:257|461:288,1,70
385,324,124374,2,0,L|313:313,1,70
162,192,125101,6,0,B|165:181|170:151|174:111|157:89|157:89|160:117|183:140|214:154|235:159,1,210,2|0,0:0|0:0,0:0:0:0:
228,157,126556,6,0,L|310:151,1,70
389,45,127283,2,0,L|314:41,1,70,0|2,0:0|0:0,0:0:0:0:
344,233,128010,6,0,L|408:228,1,52.5000020027161,2|0,0:0|0:0,0:0:0:0:
291,313,128374,2,0,L|348:318,1,52.5000020027161,8|0,0:0|0:0,0:0:0:0:
209,232,128737,2,0,L|273:227,1,52.5000020027161,2|0,0:0|0:0,0:0:0:0:
156,312,129101,2,0,L|213:317,1,52.5000020027161,8|0,0:0|0:0,0:0:0:0:
82,255,129465,6,0,P|48:240|30:225,1,52.5000020027161,2|0,0:0|0:0,0:0:0:0:
66,169,129828,2,0,P|54:135|50:111,1,52.5000020027161,8|0,0:0|0:0,0:0:0:0:
110,88,130192,2,0,P|120:49|131:28,1,52.5000020027161,2|0,0:0|0:0,0:0:0:0:
191,47,130556,2,0,P|223:27|244:20,1,52.5000020027161,8|0,0:0|0:0,0:0:0:0:
282,83,130919,5,2,0:0:0:0:
309,87,131101,1,0,0:0:0:0:
357,142,131283,1,8,0:0:0:0:
385,140,131465,1,0,0:0:0:0:
442,199,131646,5,2,0:0:0:0:
446,227,131828,1,0,0:0:0:0:
384,273,132010,1,8,0:0:0:0:
382,301,132192,1,0,0:0:0:0:
338,355,132374,5,2,0:0:0:0:
310,354,132556,1,0,0:0:0:0:
256,299,132737,1,8,0:0:0:0:
225,308,132919,1,0,0:0:0:0:
150,280,133101,5,2,0:0:0:0:
132,244,133283,1,0,0:0:0:0:
181,187,133465,1,8,0:0:0:0:
191,144,133646,1,0,0:0:0:0:
269,129,133828,5,2,0:0:0:0:
113,77,134010,5,6,0:0:0:0:
256,192,134101,12,0,135192,0:0:0:0:
245,346,135283,5,8,0:0:0:0:
239,332,135374,1,0,0:0:0:0:
237,318,135465,1,0,0:0:0:0:
238,304,135556,1,0,0:0:0:0:
241,291,135646,2,0,L|277:282,1,26.2500010013581,8|0,0:0|0:0,0:0:0:0:
336,234,135828,2,0,L|295:227,1,26.2500010013581
195,208,136010,5,8,0:0:0:0:
182,203,136101,1,0,0:0:0:0:
170,195,136192,1,0,0:0:0:0:
160,185,136283,1,0,0:0:0:0:
152,174,136374,2,0,L|143:134,1,26.2500010013581,8|0,0:0|0:0,0:0:0:0:
208,52,136556,2,0,L|212:83,1,26.2500010013581
276,144,136737,5,8,0:0:0:0:
288,148,136828,1,0,0:0:0:0:
300,150,136919,1,0,0:0:0:0:
313,150,137010,1,0,0:0:0:0:
326,150,137101,2,0,L|361:145,1,26.2500010013581,8|0,0:0|0:0,0:0:0:0:
438,192,137283,2,0,L|402:190,1,26.2500010013581
304,244,137465,5,8,0:0:0:0:
291,246,137556,1,0,0:0:0:0:
278,250,137646,1,0,0:0:0:0:
267,257,137737,1,0,0:0:0:0:
258,267,137828,2,0,L|255:310,1,26.2500010013581,8|0,0:0|0:0,0:0:0:0:
188,348,138010,2,0,L|181:304,1,26.2500010013581
167,183,138192,5,8,0:0:0:0:
165,169,138283,1,0,0:0:0:0:
163,155,138374,1,0,0:0:0:0:
161,141,138465,1,0,0:0:0:0:
160,127,138556,2,0,L|155:83,1,26.2500010013581,8|0,0:0|0:0,0:0:0:0:
254,154,138737,2,0,L|265:120,1,26.2500010013581
314,235,138919,5,8,0:0:0:0:
326,230,139010,1,0,0:0:0:0:
338,228,139101,1,0,0:0:0:0:
351,227,139192,1,0,0:0:0:0:
363,229,139283,2,0,L|395:235,1,26.2500010013581,8|0,0:0|0:0,0:0:0:0:
404,332,139465,2,0,L|373:343,1,26.2500010013581
277,338,139646,5,8,0:0:0:0:
263,337,139737,1,0,0:0:0:0:
249,336,139828,1,0,0:0:0:0:
235,335,139919,1,0,0:0:0:0:
221,334,140010,2,0,L|222:292,1,26.2500010013581,8|0,0:0|0:0,0:0:0:0:
172,252,140192,2,0,L|169:212,1,26.2500010013581
108,183,140374,5,8,0:0:0:0:
104,170,140465,1,0,0:0:0:0:
101,157,140556,1,0,0:0:0:0:
98,144,140646,1,0,0:0:0:0:
95,131,140737,2,0,L|142:136,1,26.2500010013581,8|0,0:0|0:0,0:0:0:0:
158,55,140919,2,0,L|205:63,1,26.2500010013581
255,131,141101,5,10,0:0:0:0:
268,130,141192,1,0,0:0:0:0:
281,129,141283,1,0,0:0:0:0:
294,128,141374,1,0,0:0:0:0:
307,127,141465,2,0,L|342:124,1,26.2500010013581,8|0,0:0|0:0,0:0:0:0:
405,142,141646,2,0,L|450:138,1,26.2500010013581,2|0,0:0|0:0,0:0:0:0:
476,239,141828,5,8,0:0:0:0:
463,238,141919,1,0,0:0:0:0:
450,237,142010,1,0,0:0:0:0:
437,236,142101,1,0,0:0:0:0:
424,235,142192,2,0,L|389:232,1,26.2500010013581,10|0,0:0|0:0,0:0:0:0:
326,250,142374,2,0,L|286:246,1,26.2500010013581
231,293,142556,5,8,0:0:0:0:
224,304,142646,1,0,0:0:0:0:
219,316,142737,1,2,0:0:0:0:
216,328,142828,1,0,0:0:0:0:
216,341,142919,2,0,L|222:379,1,26.2500010013581,8|0,0:0|0:0,0:0:0:0:
135,318,143101,2,0,L|139:273,1,26.2500010013581
150,189,143283,5,10,0:0:0:0:
150,175,143374,1,0,0:0:0:0:
147,162,143465,1,0,0:0:0:0:
142,149,143556,1,0,0:0:0:0:
135,137,143646,2,0,L|102:126,1,26.2500010013581,10|0,0:0|0:0,0:0:0:0:
206,93,143828,2,0,L|237:86,1,26.2500010013581
321,57,144010,5,10,0:0:0:0:
319,70,144101,1,0,0:0:0:0:
317,83,144192,1,0,0:0:0:0:
316,96,144283,1,0,0:0:0:0:
315,109,144374,2,0,L|311:148,1,26.2500010013581,8|0,0:0|0:0,0:0:0:0:
373,190,144556,2,0,L|375:229,1,26.2500010013581,2|0,0:0|0:0,0:0:0:0:
355,298,144737,5,8,0:0:0:0:
349,309,144828,1,0,0:0:0:0:
342,320,144919,1,0,0:0:0:0:
333,330,145010,1,0,0:0:0:0:
322,338,145101,2,0,L|285:334,1,26.2500010013581,10|0,0:0|0:0,0:0:0:0:
211,338,145283,2,0,L|176:317,1,26.2500010013581
106,279,145465,5,8,0:0:0:0:
100,266,145556,1,0,0:0:0:0:
96,253,145646,1,0,0:0:0:0:
95,239,145737,1,0,0:0:0:0:
95,225,145828,2,0,L|104:188,1,26.2500010013581,8|0,0:0|0:0,0:0:0:0:
181,153,146010,2,0,L|176:116,1,26.2500010013581
120,49,146192,5,8,0:0:0:0:
106,47,146283,1,0,0:0:0:0:
92,45,146374,1,0,0:0:0:0:
78,43,146465,1,0,0:0:0:0:
64,41,146556,2,0,L|25:35,1,26.2500010013581,8|0,0:0|0:0,0:0:0:0:
84,127,146737,2,0,L|42:139,1,26.2500010013581
227,97,146919,6,2,B|286:78|298:11|298:11|251:151|403:193|403:193|374:150|374:150|407:177|474:210|557:113|490:29,1,671.999979492188
475,24,148465,1,0,0:0:0:0:
458,19,148556,1,0,0:0:0:0:
440,19,148646,1,0,0:0:0:0:
423,25,148737,2,0,L|412:73,1,35,8|0,0:0|0:0,0:0:0:0:
368,117,148919,2,0,L|378:167,1,35
423,226,149101,6,0,L|420:278,3,35
356,303,149465,2,0,L|366:343,3,35,8|0|0|0,0:0|0:0|0:0|0:0,0:0:0:0:
282,269,149828,6,0,L|290:214,1,35
216,318,150010,2,0,L|221:358,1,35
256,237,150192,2,0,L|263:195,1,35,8|0,0:0|0:0,0:0:0:0:
242,337,150374,2,0,L|249:374,1,35
235,221,150556,6,0,L|236:177,3,35
172,151,150919,2,0,L|166:106,3,35,8|0|0|0,0:0|0:0|0:0|0:0,0:0:0:0:
98,77,151283,6,0,L|89:120,3,35
37,157,151646,2,0,L|43:197,3,35,8|0|0|0,0:0|0:0|0:0|0:0,0:0:0:0:
60,260,152010,5,0,0:0:0:0:
402,256,152192,1,0,0:0:0:0:
402,256,152283,1,0,0:0:0:0:
402,256,152374,1,8,0:0:0:0:
402,256,152737,6,0,P|411:234|417:197,3,38.5000011749268
383,109,153101,2,0,P|374:131|368:168,3,38.5000011749268,8|0|0|0,0:0|0:0|0:0|0:0,0:0:0:0:
457,253,153465,2,0,P|450:223|439:200,3,38.5000011749268
327,111,153828,2,0,P|334:141|348:171,3,38.5000011749268,8|0|0|0,0:0|0:0|0:0|0:0,0:0:0:0:
284,202,154192,6,0,P|287:227|286:253,1,38.5000011749268
173,349,154374,2,0,P|170:333|170:297,1,38.5000011749268
261,187,154556,2,0,P|264:212|263:238,1,38.5000011749268,8|0,0:0|0:0,0:0:0:0:
150,334,154737,2,0,P|147:318|146:282,1,38.5000011749268
239,178,154919,6,0,P|242:202|241:221,3,38.5000011749268
114,154,155283,2,0,P|112:135|113:104,3,38.5000011749268,8|0|0|0,0:0|0:0|0:0|0:0,0:0:0:0:
210,37,155646,6,0,L|264:31,3,38.5000011749268
330,81,156010,2,0,L|376:87,3,38.5000011749268,8|0|0|0,0:0|0:0|0:0|0:0,0:0:0:0:
479,149,156374,2,0,L|425:143,3,38.5000011749268
359,193,156737,2,0,L|313:199,3,38.5000011749268,8|0|0|0,0:0|0:0|0:0|0:0,0:0:0:0:
243,291,157101,6,0,L|194:285,1,38.5000011749268
73,255,157283,2,0,L|128:247,1,38.5000011749268
259,265,157465,2,0,L|214:261,1,38.5000011749268,8|0,0:0|0:0,0:0:0:0:
60,229,157646,2,0,L|103:223,1,38.5000011749268
272,241,157828,6,0,L|227:236,3,38.5000011749268
133,131,158192,2,0,P|133:91|159:130,1,115.50000352478,12|0,0:0|0:0,0:0:0:0:
111,197,158556,6,0,L|32:186,1,77.0000023498536,10|0,0:0|0:0,0:0:0:0:
166,263,158919,1,8,0:0:0:0:
92,176,159101,2,0,L|6:166,1,77.0000023498536,2|0,0:0|0:0,0:0:0:0:
170,289,159465,1,8,0:0:0:0:
161,126,159646,6,0,P|198:80|193:148,1,157.500006008148,6|0,0:0|0:0,0:0:0:0:
174,200,160010,5,0,0:0:0:0:
132,30,160192,1,0,0:0:0:0:
279,59,160374,2,0,P|293:96|293:130,1,70,8|0,0:0|0:0,0:0:0:0:
166,226,160737,5,0,0:0:0:0:
130,57,160919,1,0,0:0:0:0:
295,101,161101,2,0,P|289:146|268:181,1,70,8|0,0:0|0:0,0:0:0:0:
155,251,161465,6,0,L|110:247,3,35
91,326,161828,2,0,L|45:334,3,35,8|0|0|0,0:0|0:0|0:0|0:0,0:0:0:0:
207,353,162192,6,0,L|252:358,3,35
307,314,162556,1,8,0:0:0:0:
251,162,162737,1,0,0:0:0:0:
394,282,162919,1,8,0:0:0:0:
411,251,163010,1,8,0:0:0:0:
420,217,163101,1,8,0:0:0:0:
422,182,163192,1,8,0:0:0:0:
416,147,163283,5,8,0:0:0:0:
226,168,163465,1,8,0:0:0:0:
406,75,163646,5,8,0:0:0:0:
253,237,163828,1,0,0:0:0:0:
347,36,164010,5,8,0:0:0:0:
317,284,164192,1,0,0:0:0:0:
279,47,164374,6,0,P|249:73|226:108,1,70,2|0,0:0|0:0,0:0:0:0:
274,221,164737,1,0,0:0:0:0:
153,152,164919,2,2,P|107:142|76:139,1,70,0|0,0:0|0:0,0:0:0:0:
26,238,165283,1,8,0:0:0:0:
98,353,165465,6,0,L|182:343,1,70,8|0,0:0|0:0,0:0:0:0:
273,332,165828,1,0,0:0:0:0:
108,269,166010,1,0,0:0:0:0:
296,238,166192,2,0,L|368:228,1,70,8|0,0:0|0:0,0:0:0:0:
186,180,166556,5,0,0:0:0:0:
266,355,166737,1,0,0:0:0:0:
434,217,166919,2,0,P|444:178|443:145,1,70,8|0,0:0|0:0,0:0:0:0:
300,44,167283,6,0,L|218:38,1,70
172,137,167646,2,0,L|88:147,1,70,8|0,0:0|0:0,0:0:0:0:
70,255,168010,2,0,L|4:278,1,70
157,343,168374,1,8,0:0:0:0:
188,157,168556,1,0,0:0:0:0:
261,289,168737,1,8,0:0:0:0:
295,290,168828,1,8,0:0:0:0:
329,291,168919,1,8,0:0:0:0:
363,292,169010,1,8,0:0:0:0:
397,294,169101,5,8,0:0:0:0:
425,174,169283,1,8,0:0:0:0:
275,43,169465,2,0,B|261:52|245:84|248:122|259:143|281:149|291:149|306:146|315:121|315:114|311:103|300:98|292:97|279:102,1,167.999994873047,0|12,0:0|0:0,0:0:0:0:
299,102,170192,5,2,0:0:0:0:
314,133,170283,1,0,0:0:0:0:
317,167,170374,1,2,0:0:0:0:
303,199,170465,1,0,0:0:0:0:
282,217,170556,5,10,0:0:0:0:
267,240,170646,1,0,0:0:0:0:
262,267,170737,1,2,0:0:0:0:
270,293,170828,1,0,0:0:0:0:
291,310,170919,5,2,0:0:0:0:
309,319,171010,1,0,0:0:0:0:
329,323,171101,1,2,0:0:0:0:
349,319,171192,1,0,0:0:0:0:
367,309,171283,5,10,0:0:0:0:
379,303,171374,1,0,0:0:0:0:
392,300,171465,1,2,0:0:0:0:
406,300,171556,1,0,0:0:0:0:
419,303,171646,5,2,0:0:0:0:
400,265,171737,1,0,0:0:0:0:
392,223,171828,1,2,0:0:0:0:
398,181,171919,1,0,0:0:0:0:
421,145,172010,5,10,0:0:0:0:
437,106,172101,1,0,0:0:0:0:
435,63,172192,1,2,0:0:0:0:
409,29,172283,1,0,0:0:0:0:
368,18,172374,5,2,0:0:0:0:
323,38,172465,1,0,0:0:0:0:
300,81,172556,1,2,0:0:0:0:
263,113,172646,1,0,0:0:0:0:
218,133,172737,5,10,0:0:0:0:
168,131,172828,1,0,0:0:0:0:
122,112,172919,1,2,0:0:0:0:
88,76,173010,1,0,0:0:0:0:
85,27,173101,5,2,0:0:0:0:
101,57,173192,1,0,0:0:0:0:
109,90,173283,1,2,0:0:0:0:
109,125,173374,1,0,0:0:0:0:
95,157,173465,5,10,0:0:0:0:
81,181,173556,1,0,0:0:0:0:
73,207,173646,1,2,0:0:0:0:
71,234,173737,1,0,0:0:0:0:
76,261,173828,5,2,0:0:0:0:
88,277,173919,1,0,0:0:0:0:
103,290,174010,1,2,0:0:0:0:
122,297,174101,1,0,0:0:0:0:
142,300,174192,5,10,0:0:0:0:
155,299,174283,1,0,0:0:0:0:
168,297,174374,1,2,0:0:0:0:
181,294,174465,1,0,0:0:0:0:
194,289,174556,5,2,0:0:0:0:
232,273,174646,1,0,0:0:0:0:
273,276,174737,1,2,0:0:0:0:
310,294,174828,1,0,0:0:0:0:
339,323,174919,5,10,0:0:0:0:
376,342,175010,1,0,0:0:0:0:
418,342,175101,1,2,0:0:0:0:
457,327,175192,1,0,0:0:0:0:
478,291,175283,5,2,0:0:0:0:
476,241,175374,1,0,0:0:0:0:
452,197,175465,1,2,0:0:0:0:
405,182,175556,1,0,0:0:0:0:
357,189,175646,5,10,0:0:0:0:
389,152,175737,1,0,0:0:0:0:
394,103,175828,1,2,0:0:0:0:
373,58,175919,1,0,0:0:0:0:
331,31,176010,6,2,P|258:23|173:27,1,140,2|10,0:0|0:0,0:0:0:0:
156,32,176465,1,0,0:0:0:0:
122,41,176556,1,2,0:0:0:0:
91,56,176646,1,0,0:0:0:0:
63,77,176737,1,2,0:0:0:0:
87,261,176919,1,0,0:0:0:0:
204,96,177101,6,2,P|145:112|74:172,1,140,10|2,0:0|0:0,0:0:0:0:
75,194,177556,1,0,0:0:0:0:
76,228,177646,1,2,0:0:0:0:
87,261,177737,1,0,0:0:0:0:
105,290,177828,1,10,0:0:0:0:
131,313,177919,1,0,0:0:0:0:
162,327,178010,1,2,0:0:0:0:
196,332,178101,1,0,0:0:0:0:
230,327,178192,5,2,0:0:0:0:
286,201,178374,1,0,0:0:0:0:
388,353,178556,2,2,L|428:227,1,105,10|2,0:0|0:0,0:0:0:0:
432,214,178919,5,0,0:0:0:0:
264,220,179101,1,0,0:0:0:0:
387,145,179283,1,8,0:0:0:0:
311,310,179465,1,0,0:0:0:0:
275,100,179646,1,2,0:0:0:0:
275,100,179828,1,2,0:0:0:0:
231,345,180010,6,2,P|194:360|119:355,1,105,10|2,0:0|0:0,0:0:0:0:
103,346,180374,1,0,0:0:0:0:
160,127,180556,1,2,0:0:0:0:
160,127,180646,1,2,0:0:0:0:
160,127,180737,1,10,0:0:0:0:
249,321,180919,1,0,0:0:0:0:
51,183,181101,5,2,0:0:0:0:
269,160,181283,1,2,0:0:0:0:
30,241,181465,2,2,P|11:173|8:111,1,105,10|2,0:0|0:0,0:0:0:0:
11,109,181828,6,0,L|51:114,3,35,12|0|0|0,0:0|0:0|0:0|0:0,0:0:0:0:
101,76,182192,2,0,L|139:73,1,35,2|0,0:0|0:0,0:0:0:0:
191,114,182374,2,0,L|231:119,1,35,2|0,0:0|0:0,0:0:0:0:
284,71,182556,5,2,0:0:0:0:
310,68,182737,1,2,0:0:0:0:
336,66,182919,1,2,0:0:0:0:
439,147,183283,5,2,0:0:0:0:
438,164,183374,1,0,0:0:0:0:
437,181,183465,1,2,0:0:0:0:
436,198,183556,1,0,0:0:0:0:
436,215,183646,2,0,L|433:272,1,35,2|0,0:0|0:0,0:0:0:0:
376,342,183828,2,0,L|371:303,1,35,2|0,0:0|0:0,0:0:0:0:
306,221,184010,5,2,0:0:0:0:
277,219,184192,1,2,0:0:0:0:
249,217,184374,1,2,0:0:0:0:
121,123,184919,5,0,0:0:0:0:
86,260,185101,1,2,0:0:0:0:
45,88,185283,1,2,0:0:0:0:
101,278,185465,5,2,0:0:0:0:
134,143,185646,1,2,0:0:0:0:
179,333,185828,2,2,P|215:344|302:338,1,105
306,333,186192,5,8,0:0:0:0:
387,265,186374,2,8,L|391:226,2,35
298,202,186737,1,0,0:0:0:0:
395,115,186919,5,2,0:0:0:0:
296,226,187101,1,2,0:0:0:0:
237,63,187283,2,8,P|217:56|187:56,3,35
204,122,187646,5,6,0:0:0:0:
187,126,187737,1,0,0:0:0:0:
172,136,187828,1,0,0:0:0:0:
160,149,187919,1,0,0:0:0:0:
153,165,188010,2,0,P|149:188|150:214,1,35,2|0,0:0|0:0,0:0:0:0:
183,265,188192,2,0,P|200:271|222:274,1,35,2|0,0:0|0:0,0:0:0:0:
285,244,188374,2,0,P|320:237|358:237,1,70,2|2,0:0|0:0,0:0:0:0:
424,338,188737,1,2,0:0:0:0:
457,153,189101,5,2,0:0:0:0:
455,135,189192,1,0,0:0:0:0:
453,117,189283,1,2,0:0:0:0:
451,99,189374,1,0,0:0:0:0:
449,81,189465,2,0,L|411:88,1,35,2|0,0:0|0:0,0:0:0:0:
348,55,189646,2,0,L|294:50,1,35,2|0,0:0|0:0,0:0:0:0:
248,93,189828,2,0,L|167:101,1,70,2|2,0:0|0:0,0:0:0:0:
58,53,190192,1,2,0:0:0:0:
45,35,190556,6,0,L|37:120,1,70
78,207,190919,1,2,0:0:0:0:
141,125,191101,1,2,0:0:0:0:
169,287,191283,5,2,0:0:0:0:
139,99,191465,1,2,0:0:0:0:
289,219,191646,1,2,0:0:0:0:
281,196,192010,5,8,0:0:0:0:
298,195,192101,1,0,0:0:0:0:
315,194,192192,1,8,0:0:0:0:
332,193,192283,1,0,0:0:0:0:
349,192,192374,5,2,0:0:0:0:
458,187,192556,1,2,0:0:0:0:
367,291,192737,5,2,0:0:0:0:
340,116,192919,1,2,0:0:0:0:
232,339,193101,5,6,0:0:0:0:
241,31,193283,1,2,0:0:0:0:
118,286,193465,6,0,L|77:283,2,35,0|0|2,0:0|0:0|0:0,0:0:0:0:
194,274,194010,2,0,L|238:269,1,35
297,261,194374,1,2,0:0:0:0:
167,202,194556,2,0,L|120:200,1,35
231,156,194919,6,0,P|236:132|236:108,2,35,0|0|2,0:0|0:0|0:0,0:0:0:0:
165,94,195465,2,0,P|162:68|162:47,1,35
241,17,195828,1,2,0:0:0:0:
308,72,196010,2,0,P|310:94|308:117,1,35
334,187,196374,6,0,P|336:209|340:232,2,35,0|0|2,0:0|0:0|0:0,0:0:0:0:
395,272,196919,2,0,L|434:277,1,35
351,331,197283,1,2,0:0:0:0:
295,282,197465,2,0,L|261:293,1,35
157,323,197828,6,0,L|108:318,3,35,0|0|2|0,0:0|0:0|0:0|0:0,0:0:0:0:
46,249,198556,2,0,L|93:241,3,35,0|0|2|0,0:0|0:0|0:0|0:0,0:0:0:0:
159,181,199283,5,0,0:0:0:0:
236,189,199465,1,0,0:0:0:0:
306,162,199646,2,0,L|352:155,1,35,2|0,0:0|0:0,0:0:0:0:
414,182,200010,5,0,0:0:0:0:
426,92,200192,1,0,0:0:0:0:
442,197,200374,1,2,0:0:0:0:
442,197,200919,5,0,0:0:0:0:
428,272,201101,2,0,P|410:277|385:280,1,35,2|0,0:0|0:0,0:0:0:0:
323,245,201465,5,0,0:0:0:0:
234,282,201646,1,0,0:0:0:0:
143,244,201828,1,2,0:0:0:0:
54,281,202010,1,0,0:0:0:0:
143,217,202192,6,0,L|145:171,1,35,2|0,0:0|0:0,0:0:0:0:
237,309,202556,2,0,L|242:352,1,35,2|0,0:0|0:0,0:0:0:0:
229,207,202919,5,2,0:0:0:0:
148,322,203101,1,0,0:0:0:0:
147,158,203283,5,2,0:0:0:0:
244,367,203465,1,0,0:0:0:0:
242,213,203646,5,2,0:0:0:0:
120,307,203828,1,0,0:0:0:0:
252,230,204010,1,2,0:0:0:0:
82,233,204192,1,0,0:0:0:0:
268,302,204374,5,2,0:0:0:0:
119,158,204556,1,2,0:0:0:0:
320,112,204737,1,2,0:0:0:0:
206,333,204919,1,2,0:0:0:0:
239,56,205101,6,0,B|257:64|263:77|263:77|274:60|288:49|303:41|320:37|348:44|363:51|371:62|380:71|393:96|402:123|380:142|371:161|352:171,1,271.25,6|0,0:0|0:0,0:0:0:0:
331,183,208010,6,2,P|290:168|350:316,1,385
349,325,209101,6,0,L|381:330,6,17.5,0|0|0|0|0|0|0,3:0|3:0|3:0|3:0|3:0|3:0|3:0,3:0:0:0:
432,342,209465,5,0,0:0:0:0:
430,328,209828,1,8,0:0:0:0:
428,314,210192,1,0,0:0:0:0:
427,300,210556,1,8,0:0:0:0:
426,286,210919,5,0,0:0:0:0:
453,288,211101,1,0,0:0:0:0:
480,292,211283,1,8,0:0:0:0:
456,184,211646,5,2,0:0:0:0:
465,128,211828,1,2,0:0:0:0:
370,149,212010,5,10,0:0:0:0:
361,93,212192,1,2,0:0:0:0:
272,142,212374,5,0,0:0:0:0:
258,141,212737,1,8,0:0:0:0:
244,140,213101,1,0,0:0:0:0:
230,139,213465,1,8,0:0:0:0:
216,137,213828,5,0,0:0:0:0:
216,165,214010,1,0,0:0:0:0:
217,193,214192,1,8,0:0:0:0:
218,221,214374,1,0,0:0:0:0:
186,306,214556,5,2,0:0:0:0:
131,296,214737,1,2,0:0:0:0:
254,341,214919,5,10,0:0:0:0:
309,331,215101,1,2,0:0:0:0:
362,247,215283,5,0,0:0:0:0:
375,248,215646,1,8,0:0:0:0:
388,249,216010,1,0,0:0:0:0:
401,250,216374,1,8,0:0:0:0:
414,251,216737,5,0,0:0:0:0:
408,223,216919,1,0,0:0:0:0:
402,195,217101,1,8,0:0:0:0:
455,56,217465,5,2,0:0:0:0:
440,109,217646,1,2,0:0:0:0:
322,162,217828,5,10,0:0:0:0:
308,107,218010,1,2,0:0:0:0:
179,52,218192,5,0,0:0:0:0:
177,79,218556,1,8,0:0:0:0:
175,106,218919,1,0,0:0:0:0:
174,134,219283,1,8,0:0:0:0:
258,167,219465,1,0,0:0:0:0:
205,223,219646,5,0,0:0:0:0:
202,250,219828,1,0,0:0:0:0:
199,277,220010,1,10,0:0:0:0:
137,337,220374,5,2,0:0:0:0:
268,325,220556,1,2,0:0:0:0:
399,313,220737,1,10,0:0:0:0:
408,290,221101,6,0,P|409:271|406:246,3,35,2|0|0|0,0:0|0:0|0:0|0:0,0:0:0:0:
342,197,221465,2,0,P|341:178|344:153,3,35,8|0|0|0,0:0|0:0|0:0|0:0,0:0:0:0:
401,98,221828,2,0,P|420:97|445:100,3,35,2|0|0|0,0:0|0:0|0:0|0:0,0:0:0:0:
491,171,222192,2,0,P|492:190|489:215,3,35,8|0|0|0,0:0|0:0|0:0|0:0,0:0:0:0:
428,265,222556,6,0,P|409:266|384:263,1,35,2|0,0:0|0:0,0:0:0:0:
279,214,222737,2,0,P|260:211|231:212,1,35,2|0,0:0|0:0,0:0:0:0:
133,276,222919,2,0,P|114:281|90:283,3,35,8|0|0|0,0:0|0:0|0:0|0:0,0:0:0:0:
71,274,223283,6,0,L|15:271,1,35,2|0,0:0|0:0,0:0:0:0:
177,335,223465,2,0,L|221:328,1,35,2|0,0:0|0:0,0:0:0:0:
98,206,223646,2,0,L|42:203,1,35,10|0,0:0|0:0,0:0:0:0:
204,267,223828,2,0,L|248:260,1,35,2|0,0:0|0:0,0:0:0:0:
123,139,224010,6,0,L|67:136,3,35,2|0|0|0,0:0|0:0|0:0|0:0,0:0:0:0:
186,73,224374,2,0,L|145:77,3,35,8|0|0|0,0:0|0:0|0:0|0:0,0:0:0:0:
241,155,224737,2,0,L|207:154,3,35,2|0|0|0,0:0|0:0|0:0|0:0,0:0:0:0:
306,61,225101,2,0,L|266:68,3,35,8|0|0|0,0:0|0:0|0:0|0:0,0:0:0:0:
361,130,225465,5,2,0:0:0:0:
371,163,225556,1,0,0:0:0:0:
376,197,225646,1,8,0:0:0:0:
376,232,225737,1,0,0:0:0:0:
369,266,225828,1,8,0:0:0:0:
255,322,226010,1,0,0:0:0:0:
148,243,226192,5,2,0:0:0:0:
394,272,226374,1,2,0:0:0:0:
120,239,226556,2,2,P|110:207|106:247,1,105,10|2,0:0|0:0,0:0:0:0:
167,166,226919,6,0,P|148:150|132:141,3,35,2|0|0|0,0:0|0:0|0:0|0:0,0:0:0:0:
237,132,227283,2,0,P|256:116|272:107,3,35,8|0|0|0,0:0|0:0|0:0|0:0,0:0:0:0:
166,75,227646,2,0,P|147:59|131:50,3,35,2|0|0|0,0:0|0:0|0:0|0:0,0:0:0:0:
236,41,228010,2,0,P|255:25|271:16,3,35,8|0|0|0,0:0|0:0|0:0|0:0,0:0:0:0:
138,53,228374,6,0,P|152:63|166:75,1,35,2|0,0:0|0:0,0:0:0:0:
264,110,228556,2,0,P|250:120|236:132,1,35,2|0,0:0|0:0,0:0:0:0:
139,144,228737,2,0,P|153:153|166:165,1,35,10|0,0:0|0:0,0:0:0:0:
265,201,228919,2,0,P|250:210|237:222,1,35,2|0,0:0|0:0,0:0:0:0:
199,292,229101,5,2,0:0:0:0:
395,271,229283,1,2,0:0:0:0:
229,366,229465,5,8,0:0:0:0:
411,193,229646,1,2,0:0:0:0:
456,359,229828,6,0,L|497:364,3,35,2|0|0|0,0:0|0:0|0:0|0:0,0:0:0:0:
455,273,230192,2,0,L|492:258,3,35,8|0|0|0,0:0|0:0|0:0|0:0,0:0:0:0:
411,193,230556,2,0,L|439:157,3,35,2|0|0|0,0:0|0:0|0:0|0:0,0:0:0:0:
325,158,230919,2,0,L|329:111,1,35,10|0,0:0|0:0,0:0:0:0:
268,254,231101,2,0,L|276:293,1,35,2|0,0:0|0:0,0:0:0:0:
306,135,231283,2,0,L|300:96,1,35,2|0,0:0|0:0,0:0:0:0:
293,269,231465,2,0,L|314:305,1,35,2|0,0:0|0:0,0:0:0:0:
278,119,231646,2,2,P|262:83|187:30,1,105,10|2,0:0|0:0,0:0:0:0:
152,20,232010,5,2,0:0:0:0:
105,227,232192,1,2,0:0:0:0:
263,358,232374,2,2,B|320:365|320:365|376:344,1,105,10|2,0:0|0:0,0:0:0:0:
321,158,232737,6,2,B|393:230|342:353|263:357|263:357|342:275|501:332,1,490
489,258,233465,6,2,P|422:243|209:300,1,262.500010013581
205,336,234010,6,2,P|236:285|169:331,1,210.000008010865
137,284,234465,1,0,0:0:0:0:
132,258,234556,1,2,0:0:0:0:
133,232,234646,1,0,0:0:0:0:
140,206,234737,1,2,0:0:0:0:
156,185,234828,1,0,0:0:0:0:
167,161,234919,5,2,0:0:0:0:
178,126,235010,1,0,0:0:0:0:
172,89,235101,1,2,0:0:0:0:
147,61,235192,1,0,0:0:0:0:
110,54,235283,1,2,0:0:0:0:
75,65,235374,1,0,0:0:0:0:
54,95,235465,1,2,0:0:0:0:
51,131,235556,1,0,0:0:0:0:
62,165,235646,6,2,L|121:158,1,52.5000020027161
291,130,235828,5,2,0:0:0:0:
341,92,235919,1,0,0:0:0:0:
366,34,236010,1,2,0:0:0:0:
406,82,236101,1,0,0:0:0:0:
463,108,236192,1,2,0:0:0:0:
419,153,236283,1,0,0:0:0:0:
403,214,236374,1,2,0:0:0:0:
343,193,236465,1,0,0:0:0:0:
287,222,236556,1,2,0:0:0:0:
266,280,236646,1,0,0:0:0:0:
292,337,236737,5,2,0:0:0:0:
278,275,236828,1,0,0:0:0:0:
219,251,236919,1,2,0:0:0:0:
157,265,237010,1,0,0:0:0:0:
117,313,237101,5,2,0:0:0:0:
136,253,237192,1,0,0:0:0:0:
121,191,237283,1,2,0:0:0:0:
66,159,237374,1,0,0:0:0:0:
3,154,237465,5,2,0:0:0:0:
38,102,237556,1,0,0:0:0:0:
89,66,237646,1,2,0:0:0:0:
151,70,237737,1,0,0:0:0:0:
203,105,237828,5,2,0:0:0:0:
231,165,237919,1,0,0:0:0:0:
285,205,238010,2,0,L|277:241,1,26.2500010013581,2|2,0:0|0:0,0:0:0:0:
351,204,238101,1,0,0:0:0:0:
410,173,238192,1,6,0:0:0:0:
410,173,238556,5,2,0:0:0:0:
429,221,238646,1,0,0:0:0:0:
427,273,238737,1,2,0:0:0:0:
399,317,238828,1,0,0:0:0:0:
350,337,238919,5,2,0:0:0:0:
298,328,239010,1,0,0:0:0:0:
249,307,239101,1,2,0:0:0:0:
196,306,239192,1,0,0:0:0:0:
145,321,239283,5,2,0:0:0:0:
190,277,239374,1,0,0:0:0:0:
207,216,239465,1,2,0:0:0:0:
194,154,239556,1,0,0:0:0:0:
159,101,239646,5,2,0:0:0:0:
98,81,239737,1,0,0:0:0:0:
38,102,239828,1,2,0:0:0:0:
6,156,239919,1,0,0:0:0:0:
8,219,240010,6,0,P|15:243|35:279,1,52.5000020027161,2|0,0:0|0:0,0:0:0:0:
168,74,240192,2,0,P|161:50|141:14,1,52.5000020027161,2|0,0:0|0:0,0:0:0:0:
196,306,240374,2,0,P|203:330|223:366,1,52.5000020027161,2|0,0:0|0:0,0:0:0:0:
356,161,240556,2,0,P|349:137|329:101,1,52.5000020027161,2|0,0:0|0:0,0:0:0:0:
402,369,240737,5,2,0:0:0:0:
445,339,240828,1,0,0:0:0:0:
471,293,240919,1,2,0:0:0:0:
473,240,241010,1,0,0:0:0:0:
456,190,241101,5,2,0:0:0:0:
437,140,241192,1,0,0:0:0:0:
429,87,241283,1,2,0:0:0:0:
450,38,241374,1,0,0:0:0:0:
496,12,241465,5,2,0:0:0:0:
471,46,241556,1,0,0:0:0:0:
439,72,241646,1,2,0:0:0:0:
399,86,241737,1,0,0:0:0:0:
357,94,241828,5,2,0:0:0:0:
315,89,241919,1,0,0:0:0:0:
274,76,242010,1,2,0:0:0:0:
242,48,242101,1,0,0:0:0:0:
226,8,242192,5,2,0:0:0:0:
233,38,242283,1,0,0:0:0:0:
234,69,242374,1,2,0:0:0:0:
230,100,242465,1,0,0:0:0:0:
221,130,242556,5,2,0:0:0:0:
208,158,242646,1,0,0:0:0:0:
187,181,242737,2,2,L|116:185,1,52.5000020027161
11,103,242919,6,0,L|6:164,1,35.0000013351441,2|0,0:0|0:0,0:0:0:0:
67,169,243040,6,0,L|72:220,1,35.0000013351441,2|0,0:0|0:0,0:0:0:0:
16,252,243162,6,0,L|15:290,1,35.0000013351441,2|0,0:0|0:0,0:0:0:0:
75,319,243283,6,0,L|80:356,1,35.0000013351441,2|0,0:0|0:0,0:0:0:0:
146,308,243404,6,0,L|147:268,1,35.0000013351441,2|0,0:0|0:0,0:0:0:0:
213,319,243525,6,0,L|220:354,1,35.0000013351441,2|0,0:0|0:0,0:0:0:0:
278,290,243646,6,0,P|281:269|280:242,5,35.0000013351441,2|2|2|2|2|2,0:0|0:0|0:0|0:0|0:0|0:0,0:0:0:0:
346,210,244010,2,0,P|340:188|323:160,5,35.0000013351441,2|2|2|2|2|2,0:0|0:0|0:0|0:0|0:0|0:0,0:0:0:0:
275,122,244374,5,2,0:0:0:0:
241,132,244465,1,0,0:0:0:0:
205,131,244556,1,0,0:0:0:0:
171,124,244646,1,0,0:0:0:0:
139,108,244737,1,8,0:0:0:0:
104,100,244828,1,0,0:0:0:0:
69,103,244919,1,0,0:0:0:0:
37,117,245010,1,0,0:0:0:0:
18,146,245101,5,2,0:0:0:0:
51,134,245192,1,0,0:0:0:0:
76,109,245283,1,0,0:0:0:0:
97,81,245374,1,0,0:0:0:0:
103,46,245465,1,8,0:0:0:0:
136,56,245556,1,0,0:0:0:0:
170,60,245646,1,0,0:0:0:0:
204,54,245737,1,0,0:0:0:0:
236,41,245828,5,2,0:0:0:0:
269,31,245919,1,0,0:0:0:0:
303,27,246010,1,0,0:0:0:0:
337,30,246101,1,0,0:0:0:0:
369,42,246192,1,8,0:0:0:0:
401,54,246283,1,0,0:0:0:0:
435,60,246374,1,0,0:0:0:0:
469,54,246465,1,0,0:0:0:0:
498,35,246556,5,2,0:0:0:0:
477,70,246646,1,0,0:0:0:0:
466,110,246737,1,0,0:0:0:0:
466,152,246828,1,0,0:0:0:0:
477,192,246919,5,8,0:0:0:0:
485,233,247010,1,0,0:0:0:0:
481,274,247101,1,0,0:0:0:0:
468,314,247192,1,0,0:0:0:0:
438,344,247283,5,2,0:0:0:0:
431,306,247374,1,0,0:0:0:0:
408,274,247465,1,0,0:0:0:0:
374,255,247556,1,0,0:0:0:0:
336,249,247646,1,8,0:0:0:0:
298,256,247737,1,0,0:0:0:0:
263,273,247828,1,0,0:0:0:0:
226,284,247919,1,0,0:0:0:0:
187,285,248010,5,2,0:0:0:0:
152,277,248101,1,0,0:0:0:0:
124,255,248192,1,0,0:0:0:0:
107,224,248283,1,0,0:0:0:0:
103,189,248374,1,8,0:0:0:0:
116,156,248465,1,0,0:0:0:0:
126,122,248556,1,0,0:0:0:0:
128,87,248646,1,0,0:0:0:0:
122,52,248737,5,2,0:0:0:0:
168,66,248828,1,0,0:0:0:0:
214,80,248919,1,0,0:0:0:0:
260,94,249010,1,0,0:0:0:0:
306,108,249101,5,8,0:0:0:0:
340,100,249192,1,0,0:0:0:0:
370,82,249283,1,0,0:0:0:0:
390,53,249374,1,0,0:0:0:0:
416,30,249465,5,2,0:0:0:0:
451,30,249556,1,0,0:0:0:0:
479,49,249646,1,0,0:0:0:0:
492,81,249737,1,0,0:0:0:0:
482,114,249828,5,8,0:0:0:0:
462,143,249919,1,0,0:0:0:0:
459,177,250010,1,0,0:0:0:0:
463,211,250101,1,0,0:0:0:0:
475,243,250192,5,2,0:0:0:0:
441,231,250283,1,0,0:0:0:0:
406,227,250374,1,0,0:0:0:0:
370,228,250465,1,0,0:0:0:0:
336,237,250556,1,8,0:0:0:0:
304,251,250646,1,0,0:0:0:0:
272,265,250737,1,0,0:0:0:0:
237,273,250828,1,0,0:0:0:0:
202,267,250919,5,2,0:0:0:0:
224,240,251010,1,0,0:0:0:0:
235,206,251101,1,0,0:0:0:0:
237,171,251192,1,0,0:0:0:0:
225,137,251283,1,8,0:0:0:0:
201,110,251374,1,0,0:0:0:0:
168,97,251465,1,0,0:0:0:0:
133,94,251556,1,0,0:0:0:0:
99,101,251646,5,2,0:0:0:0:
74,126,251737,1,0,0:0:0:0:
56,156,251828,1,0,0:0:0:0:
49,190,251919,1,0,0:0:0:0:
50,224,252010,1,8,0:0:0:0:
57,258,252101,1,0,0:0:0:0:
69,290,252192,1,0,0:0:0:0:
76,324,252283,1,0,0:0:0:0:
68,358,252374,5,2,0:0:0:0:
95,336,252465,1,0,0:0:0:0:
126,320,252556,1,0,0:0:0:0:
160,315,252646,1,0,0:0:0:0:
195,315,252737,1,8,0:0:0:0:
228,323,252828,1,0,0:0:0:0:
260,335,252919,1,0,0:0:0:0:
293,344,253010,1,0,0:0:0:0:
328,345,253101,5,2,0:0:0:0:
352,332,253192,1,0,0:0:0:0:
368,309,253283,1,0,0:0:0:0:
379,283,253374,1,0,0:0:0:0:
383,255,253465,1,8,0:0:0:0:
381,227,253556,1,0,0:0:0:0:
373,200,253646,1,0,0:0:0:0:
368,172,253737,1,0,0:0:0:0:
374,144,253828,5,2,0:0:0:0:
332,191,253919,1,0,0:0:0:0:
275,218,254010,1,0,0:0:0:0:
211,215,254101,1,0,0:0:0:0:
158,180,254192,1,12,0:0:0:0:
158,180,254556,5,2,0:0:0:0:
159,197,254646,1,0,0:0:0:0:
160,214,254737,1,0,0:0:0:0:
161,231,254828,1,0,0:0:0:0:
162,248,254919,1,2,0:0:0:0:
163,265,255010,1,0,0:0:0:0:
164,282,255101,1,0,0:0:0:0:
165,299,255192,1,0,0:0:0:0:
166,316,255283,5,2,0:0:0:0:
131,258,255374,1,0,0:0:0:0:
146,193,255465,1,2,0:0:0:0:
207,166,255556,1,0,0:0:0:0:
267,192,255646,1,6,0:0:0:0:
415,266,256010,6,2,L|424:169,1,70
426,161,256283,1,0,0:0:0:0:
430,126,256374,1,14,0:0:0:0:
301,55,256556,1,2,0:0:0:0:
305,103,256646,1,0,0:0:0:0:
309,151,256737,1,14,0:0:0:0:
448,229,256919,1,2,0:0:0:0:
457,166,257010,1,0,0:0:0:0:
465,103,257101,1,14,0:0:0:0:
246,234,257465,6,2,L|188:229,1,35
45,213,257646,2,2,L|94:209,1,35
264,201,257828,1,14,0:0:0:0:
52,283,258010,5,2,0:0:0:0:
48,248,258101,1,0,0:0:0:0:
45,213,258192,2,2,L|88:210,1,35
193,312,258374,2,2,L|237:306,1,35
284,131,258556,1,6,0:0:0:0:
421,107,258919,6,2,L|337:120,1,70
318,125,259192,1,0,0:0:0:0:
284,131,259283,1,14,0:0:0:0:
371,258,259465,1,2,0:0:0:0:
321,256,259556,1,0,0:0:0:0:
272,254,259646,2,2,L|219:250,1,35
96,162,259828,2,2,L|163:151,1,35
276,40,260010,1,14,0:0:0:0:
222,331,260192,1,8,0:0:0:0:
254,26,260374,5,10,0:0:0:0:
298,343,260556,1,8,0:0:0:0:
177,47,260737,5,10,0:0:0:0:
367,313,260919,1,8,0:0:0:0:
131,152,261101,5,2,0:0:0:0:
125,193,261192,1,0,0:0:0:0:
128,234,261283,1,2,0:0:0:0:
141,273,261374,1,0,0:0:0:0:
169,303,261465,5,10,0:0:0:0:
339,85,261646,1,8,0:0:0:0:
462,286,261828,6,2,P|425:303|368:308,1,70
336,287,262101,1,0,0:0:0:0:
287,246,262192,6,2,P|246:238|193:235,1,70
158,258,262465,1,0,0:0:0:0:
106,294,262556,6,2,L|62:289,1,35
113,318,262737,2,2,L|73:314,1,35
45,152,262919,5,2,0:0:0:0:
35,118,263010,1,2,0:0:0:0:
27,83,263101,1,14,0:0:0:0:
344,27,263283,5,2,0:0:0:0:
341,68,263374,1,2,0:0:0:0:
339,109,263465,1,14,0:0:0:0:
56,165,263646,5,2,0:0:0:0:
58,116,263737,1,2,0:0:0:0:
61,67,263828,1,14,0:0:0:0:
367,46,264010,5,2,0:0:0:0:
377,101,264101,1,2,0:0:0:0:
388,155,264192,1,14,0:0:0:0:
68,196,264374,5,2,0:0:0:0:
82,134,264465,1,2,0:0:0:0:
96,72,264556,1,14,0:0:0:0:
394,29,264737,6,2,L|416:72,1,35
475,177,264919,2,2,L|470:229,1,35
408,340,265101,1,0,0:0:0:0:
408,340,265192,2,2,L|351:331,1,35
272,254,265374,1,0,0:0:0:0:
272,254,265465,2,2,L|212:270,1,35
149,357,265646,1,0,0:0:0:0:
149,357,265737,2,2,L|102:345,1,35
31,268,265919,1,0,0:0:0:0:
30,257,266010,1,0,0:0:0:0:
29,246,266101,1,0,0:0:0:0:
28,235,266192,5,2,0:0:0:0:
182,178,266374,1,2,0:0:0:0:
17,131,266556,1,0,0:0:0:0:
15,120,266646,1,0,0:0:0:0:
13,109,266737,1,0,0:0:0:0:
12,98,266828,1,0,0:0:0:0:
11,87,266919,5,2,0:0:0:0:
179,18,267101,1,2,0:0:0:0:
348,83,267283,1,0,0:0:0:0:
350,94,267374,1,0,0:0:0:0:
352,105,267465,1,0,0:0:0:0:
353,116,267556,1,0,0:0:0:0:
355,127,267646,6,0,L|361:170,3,35,2|0|0|0,0:0|0:0|0:0|0:0,0:0:0:0:
301,199,268010,2,0,L|298:240,3,35,8|0|0|0,0:0|0:0|0:0|0:0,0:0:0:0:
363,257,268374,2,0,L|371:302,3,35,2|0|0|0,0:0|0:0|0:0|0:0,0:0:0:0:
311,330,268737,2,0,L|307:365,1,35,10|0,0:0|0:0,0:0:0:0:
226,320,268919,2,0,L|221:277,1,35,2|0,0:0|0:0,0:0:0:0:
143,349,269101,5,2,0:0:0:0:
114,222,269283,1,0,0:0:0:0:
61,322,269465,5,10,0:0:0:0:
117,148,269646,1,0,0:0:0:0:
3,257,269828,5,2,0:0:0:0:
1,279,270192,1,10,0:0:0:0:
139,79,270374,1,0,0:0:0:0:
230,243,270556,5,2,0:0:0:0:
147,213,270737,1,0,0:0:0:0:
302,172,270919,5,10,0:0:0:0:
205,183,271101,1,0,0:0:0:0:
373,259,271283,5,2,0:0:0:0:
260,223,271465,1,0,0:0:0:0:
455,155,271646,5,10,0:0:0:0:
329,200,271828,1,0,0:0:0:0:
445,353,272010,5,8,0:0:0:0:
446,335,272101,1,0,0:0:0:0:
447,317,272192,1,8,0:0:0:0:
448,299,272283,1,0,0:0:0:0:
449,281,272374,5,10,0:0:0:0:
459,81,272556,1,0,0:0:0:0:
371,300,272737,5,2,0:0:0:0:
338,106,272919,1,0,0:0:0:0:
310,353,273101,5,10,0:0:0:0:
232,181,273283,1,0,0:0:0:0:
174,340,273465,6,0,P|155:344|129:347,3,35,2|0|0|0,0:0|0:0|0:0|0:0,0:0:0:0:
89,289,273828,2,0,P|71:278|50:257,3,35,8|0|0|0,0:0|0:0|0:0|0:0,0:0:0:0:
67,194,274192,2,0,P|66:174|66:142,3,35,2|0|0|0,0:0|0:0|0:0|0:0,0:0:0:0:
125,111,274556,2,0,P|133:92|144:71,1,35,10|0,0:0|0:0,0:0:0:0:
215,86,274737,2,0,P|232:79|255:74,1,35,2|0,0:0|0:0,0:0:0:0:
298,131,274919,5,2,0:0:0:0:
440,152,275101,1,0,0:0:0:0:
288,208,275283,5,10,0:0:0:0:
440,76,275465,1,0,0:0:0:0:
316,286,275646,5,2,0:0:0:0:
325,309,276010,1,10,0:0:0:0:
370,37,276192,1,0,0:0:0:0:
415,328,276374,5,2,0:0:0:0:
386,174,276556,1,0,0:0:0:0:
415,328,276737,1,10,0:0:0:0:
467,117,276919,5,2,0:0:0:0:
454,268,277101,1,0,0:0:0:0:
467,117,277283,1,2,0:0:0:0:
397,346,277465,5,10,0:0:0:0:
281,157,277646,1,0,0:0:0:0:
212,327,277828,6,0,L|163:340,3,35,2|0|2|0,0:0|0:0|0:0|0:0,0:0:0:0:
101,256,278192,2,0,L|61:254,3,35,10|0|2|0,0:0|0:0|0:0|0:0,0:0:0:0:
26,161,278556,6,0,L|72:152,3,35,2|0|2|0,0:0|0:0|0:0|0:0,0:0:0:0:
214,69,278919,2,0,L|165:65,3,35,10|0|2|0,0:0|0:0|0:0|0:0,0:0:0:0:
95,68,279283,6,2,B|151:43|339:28|466:110|466:110|358:134|305:227|305:227|264:171|176:160|176:160|237:191|246:281,1,857.500008177757
131,332,280737,6,2,B|168:313|176:289|176:265|174:244|166:224|141:211|99:203|77:235|77:235|88:195|141:160|195:174|246:198|246:198|319:164|319:164|412:190|412:190|479:147|479:147|409:65|292:89,1,857.500008177757
347,357,282192,6,2,B|381:295|384:221|379:151|305:86|305:86|294:204|346:265|400:275|442:258|442:258|447:182|425:107|373:47|303:2,1,857.500008177757
92,51,283646,5,8,0:0:0:0:
73,54,283737,1,0,0:0:0:0:
54,57,283828,1,8,0:0:0:0:
35,60,283919,1,0,0:0:0:0:
17,64,284010,1,8,0:0:0:0:
63,154,284192,1,8,0:0:0:0:
22,254,284374,5,2,0:0:0:0:
183,211,284556,1,0,0:0:0:0:
49,341,284737,5,2,0:0:0:0:
220,152,284919,1,0,0:0:0:0:
281,341,285101,6,2,B|321:280|331:246|325:150|296:62|239:22|239:22|251:61|244:123|219:151|219:151|201:87|153:58|153:58|138:106|101:135|101:135,1,673.750006425381
71,171,286192,6,2,P|41:230|97:349,1,183.750001752377
147,362,286556,6,2,B|232:373|232:373|343:333|343:333|454:347|454:347,1,306.250002920628
339,307,287101,6,2,P|413:334|397:168,1,306.250002920628
399,250,287646,6,2,P|341:194|369:95,1,183.750001752377
459,98,288010,6,2,B|459:135|427:172|427:172|387:143|363:100|363:100|403:57|396:17|396:17|367:33|331:33,1,306.250002920628
279,43,288556,6,2,B|196:62|126:24|126:24|196:62|201:169,1,306.250002920628
190,217,289101,6,2,P|175:260|302:342,1,183.750001752377
328,353,289465,5,2,0:0:0:0:
449,323,289646,1,0,0:0:0:0:
323,269,289828,1,2,0:0:0:0:
454,295,290010,5,2,0:0:0:0:
321,237,290192,1,0,0:0:0:0:
455,200,290374,1,2,0:0:0:0:
320,126,290556,5,2,0:0:0:0:
461,172,290737,1,0,0:0:0:0:
292,120,290919,5,2,0:0:0:0:
276,112,291010,1,0,0:0:0:0:
259,106,291101,1,0,0:0:0:0:
242,102,291192,1,0,0:0:0:0:
225,99,291283,1,0,0:0:0:0:
208,97,291374,1,0,0:0:0:0:
190,98,291465,1,0,0:0:0:0:
173,100,291556,1,0,0:0:0:0:
156,104,291646,5,8,0:0:0:0:
139,109,291737,1,0,0:0:0:0:
123,116,291828,1,0,0:0:0:0:
108,124,291919,1,0,0:0:0:0:
93,134,292010,1,0,0:0:0:0:
80,145,292101,1,0,0:0:0:0:
67,158,292192,1,0,0:0:0:0:
56,171,292283,1,0,0:0:0:0:
49,187,292374,5,2,0:0:0:0:
55,204,292465,1,0,0:0:0:0:
62,220,292556,1,0,0:0:0:0:
71,235,292646,1,0,0:0:0:0:
81,249,292737,1,0,0:0:0:0:
93,262,292828,1,0,0:0:0:0:
105,274,292919,1,0,0:0:0:0:
119,285,293010,1,0,0:0:0:0:
134,293,293101,5,8,0:0:0:0:
149,285,293192,1,0,0:0:0:0:
166,278,293283,1,0,0:0:0:0:
182,273,293374,1,0,0:0:0:0:
200,270,293465,1,0,0:0:0:0:
217,268,293556,1,0,0:0:0:0:
235,268,293646,1,0,0:0:0:0:
252,270,293737,1,0,0:0:0:0:
267,276,293828,5,2,0:0:0:0:
278,254,293919,1,0,0:0:0:0:
284,230,294010,1,0,0:0:0:0:
286,205,294101,1,0,0:0:0:0:
282,180,294192,1,8,0:0:0:0:
275,156,294283,1,0,0:0:0:0:
267,132,294374,1,0,0:0:0:0:
256,109,294465,1,0,0:0:0:0:
249,85,294556,5,2,0:0:0:0:
270,102,294646,1,0,0:0:0:0:
290,123,294737,1,0,0:0:0:0:
307,143,294828,1,0,0:0:0:0:
323,166,294919,1,8,0:0:0:0:
335,190,295010,1,0,0:0:0:0:
346,215,295101,1,0,0:0:0:0:
354,241,295192,1,0,0:0:0:0:
358,265,295283,6,0,L|394:271,1,23.3333333333333,2|0,0:0|0:0,0:0:0:0:
333,325,295404,6,0,L|370:349,1,23.3333333333333,2|0,0:0|0:0,0:0:0:0:
267,339,295525,6,0,L|284:367,1,23.3333333333333,2|0,0:0|0:0,0:0:0:0:
202,316,295646,6,0,L|203:351,1,23.3333333333333,2|0,0:0|0:0,0:0:0:0:
148,274,295768,6,0,L|135:306,1,23.3333333333333,2|0,0:0|0:0,0:0:0:0:
107,219,295889,6,0,L|75:236,1,23.3333333333333,2|0,0:0|0:0,0:0:0:0:
89,156,296010,6,0,L|51:164,5,23.3333333333333,2|2|2|2|2|2,0:0|0:0|0:0|0:0|0:0|0:0,0:0:0:0:
112,92,296374,2,0,L|74:83,5,23.3333333333333,2|2|2|2|2|2,0:0|0:0|0:0|0:0|0:0|0:0,0:0:0:0:
167,56,296737,6,0,B|156:42|144:31|123:17|108:20|86:24|48:19|30:55|13:103|37:144|55:156|103:185|139:165|167:145|176:103|176:103|180:74|219:39|219:39|258:98|218:161|218:161|260:143|323:157|323:157|242:158|214:218|214:218|285:218|285:218|222:218|204:270|204:270|258:297|334:268,1,1120,14|0,0:0|0:0,0:0:0:0:
