osu file format v14

[General]
AudioFilename: audio.mp3
AudioLeadIn: 0
PreviewTime: 50
Countdown: 0
SampleSet: Soft
StackLeniency: 0.3
Mode: 0
LetterboxInBreaks: 0
WidescreenStoryboard: 0

[Editor]
Bookmarks: 16000,40727,52363,64000,75636,110545,122181,128000,135272,158545,170181,205090,209454,221090,232727,279272
DistanceSpacing: 1.9
BeatDivisor: 4
GridSize: 32
TimelineZoom: 2.1

[Metadata]
Title:Operation: Evolution
TitleUnicode:Operation: Evolution
Artist:Dimrain47
ArtistUnicode:Dimrain47
Creator:Yukiyo
Version:Darwinism
Source:
Tags:trance techno
BeatmapID:1961263
BeatmapSetID:938921

[Difficulty]
HPDrainRate:5
CircleSize:6.2
OverallDifficulty:9.1
ApproachRate:9.3
SliderMultiplier:1.4
SliderTickRate:1

[Events]
//Background and Video events
0,0,"planet.jpg",0,0
//Break Periods
//Storyboard Layer 0 (Background)
//Storyboard Layer 1 (Fail)
//Storyboard Layer 2 (Pass)
//Storyboard Layer 3 (Foreground)
//Storyboard Sound Samples

[TimingPoints]
60,363.636363636364,4,2,1,70,1,0
16060,-100,4,2,1,80,0,0
27696,-181.818181818181,4,2,1,60,0,0
29150,-100,4,2,1,80,0,0
52423,-100,4,2,1,70,0,0
64060,-100,4,2,1,80,0,0
75696,-100,4,2,1,65,0,0
87332,-100,4,2,1,65,0,0
98969,-133.333333333333,4,2,1,55,0,0
110605,-133.333333333333,4,2,1,65,0,0
122241,-133.333333333333,4,2,1,45,0,0
123605,-133.333333333333,4,2,99,5,0,0
123696,-133.333333333333,4,2,1,45,0,0
123969,-133.333333333333,4,2,99,5,0,0
124060,-133.333333333333,4,2,1,45,0,0
124332,-133.333333333333,4,2,99,5,0,0
124423,-133.333333333333,4,2,1,45,0,0
124696,-133.333333333333,4,2,99,5,0,0
124787,-133.333333333333,4,2,1,45,0,0
125060,-133.333333333333,4,2,99,5,0,0
125151,-133.333333333333,4,2,1,45,0,0
126514,-133.333333333333,4,2,99,5,0,0
126605,-133.333333333333,4,2,1,45,0,0
127605,-133.333333333333,4,2,99,5,0,0
127696,-133.333333333333,4,2,1,45,0,0
127969,-133.333333333333,4,2,99,5,0,0
128060,-133.333333333333,4,2,1,70,0,0
134060,-83.3333333333333,4,2,1,80,0,0
135332,-100,4,2,1,80,0,0
158241,-133.333333333333,4,2,1,80,0,0
158605,-100,4,2,1,90,0,0
160060,-100,4,2,1,80,0,0
164423,-100,4,2,1,90,0,0
165878,-100,4,2,1,80,0,0
169514,-153.846153846153,4,2,1,80,0,0
169878,-52.6315789473684,4,2,1,80,0,0
170241,-100,4,2,1,100,0,0
181878,-100,4,2,1,80,0,0
187332,-100,4,2,1,90,0,0
193514,-100,4,2,1,70,0,0
209514,-83.3333333333333,4,2,1,80,0,0
232787,-58.8235294117647,4,2,1,100,0,0
233423,-58.8235294117647,4,2,99,5,0,0
233514,-47.6190476190476,4,2,1,100,0,0
233969,-47.6190476190476,4,2,99,5,0,0
234060,-47.6190476190476,4,2,1,100,0,0
234332,-47.6190476190476,4,2,99,5,0,0
234423,-47.6190476190476,4,2,1,100,0,0
238514,-47.6190476190476,4,2,99,5,0,0
238605,-47.6190476190476,4,2,1,100,0,0
243696,-76.9230769230769,4,2,1,100,0,0
244060,-47.6190476190476,4,2,1,100,0,0
244332,-47.6190476190476,4,2,99,5,0,0
244423,-47.6190476190476,4,2,1,90,0,0
255696,-181.818181818181,4,2,1,100,0,0
256060,-35.7142857142857,4,2,1,100,0,0
262787,-100,4,2,1,100,0,0
264787,-66.6666666666667,4,2,1,100,0,0
267696,-66.6666666666667,4,2,1,80,0,0
276423,-66.6666666666667,4,2,1,90,0,0
280514,-66.6666666666667,4,2,99,5,0,0
280605,-66.6666666666667,4,2,1,90,0,0
280878,-66.6666666666667,4,2,99,5,0,0
280969,-66.6666666666667,4,2,1,90,0,0
286150,-66.6666666666667,4,2,99,5,0,0
286241,-66.6666666666667,4,2,1,90,0,0
286514,-66.6666666666667,4,2,99,5,0,0
286605,-66.6666666666667,4,2,1,90,0,0
287060,-66.6666666666667,4,2,99,5,0,0
287151,-66.6666666666667,4,2,1,90,0,0
287605,-66.6666666666667,4,2,99,5,0,0
287696,-66.6666666666667,4,2,1,90,0,0
287969,-66.6666666666667,4,2,99,5,0,0
288060,-66.6666666666667,4,2,1,90,0,0
288514,-66.6666666666667,4,2,99,5,0,0
288605,-66.6666666666667,4,2,1,90,0,0
289060,-66.6666666666667,4,2,99,5,0,0
289151,-66.6666666666667,4,2,1,90,0,0
289423,-66.6666666666667,4,2,99,5,0,0
289514,-66.6666666666667,4,2,1,90,0,0
296787,-181.818181818182,4,2,1,100,0,0
297150,-181.818181818182,4,2,1,90,0,0
297514,-181.818181818182,4,2,1,80,0,0
297878,-181.818181818182,4,2,1,70,0,0
298241,-181.818181818182,4,2,1,60,0,0
298605,-181.818181818182,4,2,1,50,0,0
298969,-181.818181818182,4,2,1,45,0,0
299332,-181.818181818182,4,2,1,40,0,0
299696,-181.818181818182,4,2,1,35,0,0
300060,-181.818181818182,4,2,1,30,0,0
300423,-181.818181818182,4,2,1,25,0,0
300787,-181.818181818182,4,2,1,20,0,0
301150,-181.818181818182,4,2,1,15,0,0
301514,-181.818181818182,4,2,1,10,0,0
301878,-181.818181818182,4,2,1,8,0,0
302241,-181.818181818182,4,2,1,6,0,0
302605,-181.818181818182,4,2,1,5,0,0

[Colours]
Combo1 : 100,170,255
Combo2 : 0,108,145

[HitObjects]
456,123,60,5,0,0:2:0:0:
463,138,150,1,2,0:2:0:0:
421,183,332,1,2,0:2:0:0:
414,198,422,1,0,0:2:0:0:
460,277,605,1,0,0:2:0:0:
447,283,696,1,2,0:2:0:0:
432,284,787,2,0,L|393:267,1,35,2|0,0:2|0:2,0:2:0:0:
357,310,969,2,0,L|334:273,1,35,2|0,0:2|0:2,0:2:0:0:
279,290,1150,2,0,L|281:247,1,35,2|0,0:2|0:2,0:2:0:0:
227,224,1332,2,0,L|253:190,1,35,2|0,0:2|0:2,0:2:0:0:
303,157,1514,5,0,0:2:0:0:
311,140,1605,1,2,0:2:0:0:
259,92,1787,1,2,0:2:0:0:
251,75,1878,1,0,0:2:0:0:
189,32,2060,1,0,0:2:0:0:
174,34,2150,1,2,0:2:0:0:
157,38,2241,2,0,P|140:42|125:51,1,35,2|0,0:2|0:2,0:2:0:0:
137,107,2423,2,0,P|126:120|118:136,1,35,2|0,0:2|0:2,0:2:0:0:
151,183,2605,2,0,P|149:200|152:217,1,35,2|0,0:2|0:2,0:2:0:0:
205,234,2787,2,0,P|214:248|226:261,1,35,2|0,0:2|0:2,0:2:0:0:
299,288,2969,5,0,0:2:0:0:
297,309,3060,1,2,0:2:0:0:
236,343,3241,1,2,0:2:0:0:
246,363,3332,1,0,0:2:0:0:
152,383,3514,1,0,0:2:0:0:
165,375,3605,1,2,0:2:0:0:
174,369,3696,2,0,L|167:327,1,35,2|0,0:2|0:2,0:2:0:0:
111,341,3878,2,0,L|118:299,1,35,2|0,0:2|0:2,0:2:0:0:
61,297,4060,2,0,L|54:255,1,35,2|0,0:2|0:2,0:2:0:0:
0,265,4242,2,0,L|7:223,1,35,2|0,0:2|0:2,0:2:0:0:
51,180,4423,5,0,0:2:0:0:
49,158,4514,1,2,0:2:0:0:
108,123,4696,1,2,0:2:0:0:
111,101,4787,1,0,0:2:0:0:
163,46,4969,1,0,0:2:0:0:
172,36,5060,1,2,0:2:0:0:
185,28,5150,5,2,0:0:0:0:
220,28,5241,1,0,0:0:0:0:
246,55,5332,1,2,0:0:0:0:
284,61,5423,1,0,0:0:0:0:
321,46,5514,1,2,0:0:0:0:
345,18,5605,1,0,0:0:0:0:
380,4,5696,2,0,P|396:8|412:16,1,35,2|2,0:2|0:2,0:2:0:0:
499,57,5878,5,0,0:2:0:0:
494,75,5969,1,2,0:2:0:0:
443,133,6150,1,2,0:2:0:0:
448,151,6241,1,0,0:2:0:0:
488,217,6423,1,0,0:2:0:0:
480,231,6514,1,2,0:2:0:0:
467,245,6605,2,0,P|446:252|414:252,1,35,2|0,0:2|0:2,0:2:0:0:
386,296,6787,2,0,P|366:286|343:263,1,35,2|0,0:2|0:2,0:2:0:0:
295,282,6969,2,0,P|284:262|278:231,1,35,2|0,0:2|0:2,0:2:0:0:
230,216,7150,2,0,P|232:194|246:165,1,35,2|0,0:2|0:2,0:2:0:0:
291,139,7332,5,0,0:2:0:0:
295,127,7423,1,2,0:2:0:0:
360,94,7605,1,2,0:2:0:0:
356,82,7696,1,0,0:2:0:0:
326,22,7878,1,0,0:2:0:0:
320,17,7969,1,2,0:2:0:0:
311,10,8059,2,0,P|284:1|251:8,1,35,2|0,0:2|0:2,0:2:0:0:
226,35,8241,2,0,P|198:43|175:67,1,35,2|0,0:2|0:2,0:2:0:0:
156,100,8423,2,0,P|138:122|133:155,1,35,2|0,0:2|0:2,0:2:0:0:
159,183,8605,2,0,P|156:201|158:218,1,35,2|0,0:2|0:2,0:2:0:0:
220,260,8787,5,0,0:2:0:0:
223,277,8878,1,2,0:2:0:0:
278,320,9060,1,2,0:2:0:0:
271,339,9150,1,0,0:2:0:0:
344,373,9332,1,0,0:2:0:0:
351,359,9423,1,2,0:2:0:0:
361,343,9514,2,0,L|366:293,1,35,2|0,0:2|0:2,0:2:0:0:
305,260,9696,2,0,L|302:226,1,35,2|0,0:2|0:2,0:2:0:0:
427,295,9878,2,0,L|432:245,1,35,2|0,0:2|0:2,0:2:0:0:
372,212,10060,2,0,L|369:178,1,35,2|0,0:2|0:2,0:2:0:0:
449,176,10241,5,2,0:2:0:0:
457,156,10332,1,2,0:2:0:0:
404,109,10514,1,2,0:2:0:0:
398,88,10605,1,2,0:2:0:0:
350,22,10787,1,2,0:2:0:0:
327,25,10878,1,2,0:2:0:0:
307,29,10969,2,0,P|282:49|269:77,1,35,2|0,0:2|0:2,0:2:0:0:
319,194,11150,2,0,P|322:211|330:226,1,35,2|0,0:2|0:2,0:2:0:0:
282,114,11332,2,0,P|275:129|272:147,1,35,2|0,0:2|0:2,0:2:0:0:
391,242,11514,2,0,P|404:253|419:261,1,35,2|0,0:2|0:2,0:2:0:0:
449,176,11696,5,2,0:2:0:0:
457,156,11787,1,2,0:2:0:0:
404,109,11969,1,2,0:2:0:0:
398,88,12060,1,2,0:2:0:0:
350,22,12242,1,2,0:2:0:0:
327,25,12333,1,2,0:2:0:0:
307,29,12424,2,0,P|282:49|269:77,1,35,2|0,0:2|0:2,0:2:0:0:
319,194,12605,2,0,P|322:211|330:226,1,35,2|0,0:2|0:2,0:2:0:0:
282,114,12787,2,0,P|275:129|272:147,1,35,2|0,0:2|0:2,0:2:0:0:
391,242,12969,2,0,P|404:253|419:261,1,35,2|0,0:2|0:2,0:2:0:0:
449,176,13150,5,2,0:2:0:0:
465,117,13241,1,2,0:2:0:0:
375,56,13423,1,2,0:2:0:0:
369,0,13514,1,2,0:2:0:0:
263,50,13696,1,2,0:2:0:0:
245,56,13787,1,2,0:2:0:0:
227,62,13878,5,2,0:2:0:0:
197,108,13969,1,2,0:2:0:0:
140,126,14060,5,2,0:2:0:0:
96,89,14150,1,2,0:2:0:0:
105,74,14241,5,2,0:2:0:0:
56,40,14332,1,2,0:2:0:0:
7,76,14423,1,2,0:2:0:0:
24,132,14514,1,2,0:2:0:0:
84,129,14605,1,2,0:2:0:0:
165,5,15696,5,2,0:2:0:0:
175,82,15787,1,2,0:2:0:0:
140,132,15878,1,2,0:2:0:0:
104,136,15969,1,2,0:2:0:0:
95,128,16060,6,0,L|81:212,1,70,4|0,1:2|0:2,0:2:0:0:
133,262,16332,1,0,0:2:0:0:
133,262,16423,2,0,L|147:346,1,70,0|0,1:2|0:2,0:2:0:0:
216,363,16696,1,0,0:2:0:0:
216,363,16787,5,0,1:2:0:0:
222,351,16878,1,0,0:2:0:0:
226,333,16969,1,0,0:2:0:0:
221,313,17060,1,0,0:2:0:0:
214,298,17150,1,0,1:2:0:0:
205,285,17241,1,0,0:2:0:0:
200,257,17332,1,0,0:2:0:0:
213,229,17423,1,0,0:2:0:0:
238,215,17514,5,0,1:2:0:0:
284,234,17605,1,0,0:2:0:0:
327,203,17696,1,0,0:2:0:0:
321,149,17787,1,0,0:2:0:0:
271,130,17878,5,0,1:2:0:0:
223,151,17969,1,0,0:2:0:0:
181,118,18060,1,0,0:2:0:0:
188,65,18151,1,0,0:2:0:0:
238,45,18242,5,0,1:2:0:0:
244,73,18332,1,0,0:2:0:0:
263,107,18423,5,0,0:2:0:0:
258,139,18514,1,0,0:2:0:0:
230,173,18605,5,0,1:2:0:0:
238,193,18696,1,0,0:2:0:0:
254,231,18787,5,0,0:2:0:0:
247,251,18878,1,0,0:2:0:0:
246,297,18969,6,0,L|300:288,1,35,0|0,1:2|0:2,0:2:0:0:
339,281,19150,2,0,L|393:272,1,35,0|0,0:2|0:2,0:2:0:0:
454,168,19332,1,0,1:2:0:0:
454,175,19423,1,0,0:2:0:0:
453,184,19514,1,0,0:2:0:0:
453,191,19605,1,0,0:2:0:0:
452,199,19696,6,0,L|400:190,1,35,0|0,1:2|0:2,0:2:0:0:
356,178,19878,2,0,L|304:169,1,35,0|0,0:2|0:2,0:2:0:0:
233,54,20060,1,0,1:2:0:0:
236,65,20150,1,0,0:2:0:0:
239,75,20241,1,0,0:2:0:0:
242,87,20332,1,0,0:2:0:0:
244,98,20423,5,0,1:2:0:0:
239,95,20514,1,0,0:2:0:0:
229,90,20605,1,0,0:2:0:0:
211,86,20696,1,0,0:2:0:0:
178,95,20787,5,0,1:2:0:0:
160,107,20878,1,0,0:2:0:0:
145,110,20969,1,0,0:2:0:0:
136,110,21060,1,0,0:2:0:0:
72,79,21150,6,0,L|71:35,1,35,0|0,1:2|0:2,0:2:0:0:
208,184,21332,2,0,L|209:140,1,35,0|0,0:2|0:2,0:2:0:0:
55,228,21514,1,0,1:2:0:0:
52,250,21605,1,0,0:2:0:0:
49,272,21696,1,0,0:2:0:0:
45,293,21787,1,0,0:2:0:0:
58,347,21878,5,4,1:2:0:0:
182,384,22059,5,0,0:2:0:0:
149,368,22150,1,0,0:2:0:0:
112,367,22241,1,0,1:2:0:0:
153,306,22423,5,0,0:2:0:0:
181,298,22514,1,0,0:2:0:0:
201,272,22605,5,0,1:2:0:0:
201,272,22696,1,0,0:2:0:0:
221,268,22786,1,0,0:2:0:0:
243,275,22877,1,0,0:2:0:0:
291,236,22968,5,0,1:2:0:0:
291,236,23059,1,0,0:2:0:0:
313,241,23150,1,0,0:2:0:0:
333,231,23241,1,0,0:2:0:0:
377,191,23332,5,0,1:2:0:0:
288,89,23514,5,0,0:2:0:0:
309,120,23605,1,0,0:2:0:0:
350,135,23696,1,0,1:2:0:0:
267,168,23878,5,0,0:2:0:0:
233,155,23969,1,0,0:2:0:0:
214,134,24060,5,0,1:2:0:0:
214,134,24151,1,0,0:2:0:0:
205,115,24242,1,0,0:2:0:0:
212,93,24333,1,0,0:2:0:0:
157,40,24424,5,0,1:2:0:0:
157,40,24515,1,0,0:2:0:0:
161,19,24606,1,0,0:2:0:0:
148,0,24697,1,0,0:2:0:0:
66,10,24787,5,0,1:2:0:0:
79,46,24878,1,0,0:2:0:0:
42,87,24969,1,0,0:2:0:0:
43,102,25060,1,0,0:2:0:0:
97,126,25150,5,0,1:2:0:0:
110,159,25241,1,0,0:2:0:0:
66,191,25332,1,0,0:2:0:0:
68,206,25423,1,0,0:2:0:0:
122,223,25514,5,0,1:2:0:0:
122,253,25605,1,0,0:2:0:0:
93,288,25696,1,0,0:2:0:0:
95,298,25787,1,0,0:2:0:0:
132,318,25878,5,0,1:2:0:0:
134,328,25969,1,0,0:2:0:0:
127,369,26060,1,0,0:2:0:0:
129,374,26150,1,0,0:2:0:0:
197,367,26241,5,0,1:2:0:0:
210,374,26332,1,0,0:2:0:0:
272,366,26423,5,0,0:2:0:0:
284,351,26514,1,0,0:2:0:0:
310,298,26605,5,0,1:2:0:0:
295,269,26696,1,0,0:2:0:0:
241,240,26787,5,0,0:2:0:0:
230,213,26878,1,0,0:2:0:0:
274,164,26969,5,0,1:2:0:0:
289,137,27060,1,0,0:2:0:0:
249,90,27150,5,0,0:2:0:0:
229,64,27241,1,0,0:2:0:0:
275,10,27332,5,0,1:2:0:0:
309,0,27423,1,0,0:2:0:0:
367,11,27514,1,0,0:2:0:0:
409,73,27605,1,0,0:2:0:0:
410,80,27696,6,0,L|397:129,1,38.5000011749268,2|0,0:2|0:2,0:2:0:0:
338,132,28060,2,0,L|351:181,1,38.5000011749268,2|0,0:2|0:2,0:2:0:0:
288,190,28423,2,0,L|275:239,1,38.5000011749268,2|0,0:2|0:2,0:2:0:0:
212,242,28787,2,0,L|225:291,1,38.5000011749268,2|0,0:2|0:2,0:2:0:0:
254,371,29150,5,6,1:2:0:0:
223,377,29241,1,0,0:2:0:0:
191,378,29332,1,0,0:2:0:0:
165,372,29423,1,0,0:2:0:0:
129,317,29514,5,2,1:2:0:0:
103,311,29605,1,0,0:2:0:0:
70,311,29696,1,0,0:2:0:0:
40,318,29787,1,0,0:2:0:0:
20,288,29878,5,2,1:2:0:0:
23,274,29969,1,0,0:2:0:0:
23,256,30060,1,0,0:2:0:0:
19,239,30151,1,0,0:2:0:0:
3,203,30241,5,2,1:2:0:0:
0,189,30332,1,0,0:2:0:0:
0,171,30423,1,0,0:2:0:0:
4,154,30514,1,0,0:2:0:0:
45,104,30605,6,0,L|79:107,1,35,2|0,1:2|0:2,0:2:0:0:
79,49,30787,2,0,L|113:52,1,35,0|0,0:2|0:2,0:2:0:0:
223,57,30969,6,0,L|188:60,1,35,2|0,1:2|0:2,0:2:0:0:
192,0,31151,2,0,L|157:3,1,35,0|0,0:2|0:2,0:2:0:0:
222,119,31332,6,0,P|239:118|256:112,3,35,2|0|0|0,1:2|0:2|0:2|0:2,0:2:0:0:
322,70,31696,2,0,P|305:63|288:61,3,35,2|0|0|0,1:2|0:2|0:2|0:2,0:2:0:0:
310,132,32060,5,2,1:2:0:0:
305,164,32150,1,0,0:2:0:0:
303,196,32241,1,0,0:2:0:0:
300,229,32332,1,0,0:2:0:0:
360,211,32423,5,2,1:2:0:0:
364,243,32513,1,0,0:2:0:0:
366,275,32604,1,0,0:2:0:0:
369,308,32695,1,0,0:2:0:0:
372,331,32787,5,2,1:2:0:0:
388,328,32877,1,0,0:2:0:0:
404,327,32968,1,0,0:2:0:0:
421,326,33059,1,0,0:2:0:0:
427,298,33150,5,2,1:2:0:0:
443,300,33240,1,0,0:2:0:0:
459,301,33331,1,0,0:2:0:0:
476,303,33422,1,0,0:2:0:0:
498,384,33514,6,0,L|504:350,1,35,2|0,1:2|0:2,0:2:0:0:
456,247,33696,2,0,L|450:212,1,35,0|0,0:2|0:2,0:2:0:0:
427,384,33878,6,0,L|432:349,1,35,2|0,1:2|0:2,0:2:0:0:
390,257,34060,2,0,L|384:222,1,35,0|0,0:2|0:2,0:2:0:0:
356,357,34241,6,0,L|361:322,3,35,2|0|0|0,1:2|0:2|0:2|0:2,0:2:0:0:
296,305,34605,2,0,L|290:270,3,35,2|0|0|0,1:2|0:2|0:2|0:2,0:2:0:0:
298,198,34969,5,2,1:2:0:0:
262,215,35060,1,0,0:2:0:0:
223,214,35150,1,0,0:2:0:0:
192,192,35241,1,0,0:2:0:0:
169,254,35332,5,2,1:2:0:0:
138,236,35423,1,0,0:2:0:0:
100,235,35513,1,0,0:2:0:0:
66,247,35604,1,0,0:2:0:0:
61,270,35696,5,2,1:2:0:0:
66,286,35787,1,0,0:2:0:0:
67,302,35878,1,0,0:2:0:0:
64,318,35969,1,0,0:2:0:0:
49,323,36060,5,2,1:2:0:0:
43,339,36151,1,0,0:2:0:0:
42,356,36242,1,0,0:2:0:0:
46,371,36333,1,0,0:2:0:0:
105,384,36423,6,0,L|162:376,1,35,2|0,1:2|0:2,0:2:0:0:
138,320,36605,2,0,L|195:312,1,35,0|0,0:2|0:2,0:2:0:0:
271,307,36787,6,0,L|214:299,1,35,2|0,1:2|0:2,0:2:0:0:
192,248,36969,2,0,L|135:240,1,35,0|0,0:2|0:2,0:2:0:0:
87,168,37150,6,0,L|96:223,3,35,2|0|0|0,1:2|0:2|0:2|0:2,0:2:0:0:
154,95,37514,2,0,L|145:150,3,35,2|0|0|0,1:2|0:2|0:2|0:2,0:2:0:0:
101,30,37878,5,2,1:2:0:0:
120,20,37969,1,0,0:2:0:0:
141,17,38060,1,0,0:2:0:0:
164,22,38150,1,0,0:2:0:0:
214,59,38241,5,2,1:2:0:0:
246,66,38331,1,0,0:2:0:0:
276,61,38422,1,0,0:2:0:0:
300,46,38513,1,0,0:2:0:0:
369,62,38605,5,2,1:2:0:0:
374,82,38696,1,0,0:2:0:0:
376,102,38787,1,0,0:2:0:0:
371,125,38878,1,0,0:2:0:0:
308,138,38969,5,2,1:2:0:0:
294,154,39060,1,0,0:2:0:0:
285,171,39151,1,0,0:2:0:0:
280,191,39242,1,0,0:2:0:0:
302,257,39332,5,2,1:2:0:0:
340,275,39423,1,0,0:2:0:0:
384,278,39514,1,0,0:2:0:0:
419,266,39605,1,0,0:2:0:0:
462,202,39696,5,2,1:2:0:0:
437,190,39787,1,0,0:2:0:0:
412,187,39878,1,0,0:2:0:0:
385,196,39969,1,0,0:2:0:0:
356,262,40059,5,2,1:2:0:0:
376,271,40150,1,0,0:2:0:0:
400,273,40241,1,4,0:2:0:0:
419,266,40332,1,0,0:2:0:0:
462,202,40423,6,0,P|467:172|460:144,1,35,2|0,1:2|0:2,0:2:0:0:
380,74,40605,2,0,P|371:89|366:106,1,35,6|0,0:2|0:2,0:2:0:0:
356,261,40787,5,6,1:2:0:0:
333,277,40878,1,0,0:2:0:0:
306,285,40969,1,0,0:2:0:0:
278,283,41060,1,0,0:2:0:0:
251,277,41150,2,0,P|240:263|232:247,1,35,10|0,1:2|0:2,0:2:0:0:
255,159,41332,5,0,0:2:0:0:
263,136,41423,1,0,0:2:0:0:
264,110,41514,1,2,1:2:0:0:
262,85,41605,1,0,0:2:0:0:
253,61,41696,1,0,0:2:0:0:
236,40,41787,1,0,0:2:0:0:
213,22,41878,2,0,P|196:16|179:13,1,35,10|0,1:2|0:2,0:2:0:0:
95,77,42060,1,0,0:2:0:0:
75,88,42150,1,0,0:2:0:0:
52,92,42241,5,2,1:2:0:0:
63,123,42332,1,0,0:2:0:0:
70,157,42423,1,0,0:2:0:0:
68,186,42514,1,0,0:2:0:0:
60,220,42605,2,0,P|54:236|45:251,1,35,10|0,1:2|0:2,0:2:0:0:
0,331,42787,5,0,0:2:0:0:
16,351,42878,1,0,0:2:0:0:
43,362,42969,1,2,1:2:0:0:
72,363,43060,1,0,0:2:0:0:
100,355,43150,1,0,0:2:0:0:
122,339,43241,1,0,0:2:0:0:
137,317,43332,2,0,P|150:304|163:293,1,35,10|0,1:2|0:2,0:2:0:0:
245,272,43514,1,0,0:2:0:0:
259,283,43605,1,0,0:2:0:0:
271,299,43696,5,2,1:2:0:0:
297,287,43787,1,0,0:2:0:0:
332,280,43878,1,0,0:2:0:0:
365,285,43969,1,0,0:2:0:0:
390,301,44060,2,0,P|402:315|411:330,1,35,10|0,1:2|0:2,0:2:0:0:
472,366,44241,5,0,0:2:0:0:
483,344,44332,1,0,0:2:0:0:
489,318,44423,1,2,1:2:0:0:
488,292,44514,1,0,0:2:0:0:
482,264,44605,1,0,0:2:0:0:
468,238,44696,1,0,0:2:0:0:
451,212,44787,2,0,P|438:200|423:190,1,35,10|0,1:2|0:2,0:2:0:0:
350,191,44969,1,0,0:2:0:0:
334,196,45060,1,0,0:2:0:0:
312,195,45150,5,2,1:2:0:0:
321,166,45241,1,0,0:2:0:0:
321,138,45332,1,0,0:2:0:0:
313,111,45423,1,0,0:2:0:0:
296,86,45514,2,0,P|283:76|267:68,1,35,10|0,1:2|0:2,0:2:0:0:
172,100,45696,5,0,0:2:0:0:
150,112,45787,1,0,0:2:0:0:
124,116,45878,1,2,1:2:0:0:
98,108,45969,1,0,0:2:0:0:
77,93,46060,1,0,0:2:0:0:
60,70,46150,1,0,0:2:0:0:
50,48,46241,2,0,P|49:31|50:14,1,35,10|0,1:2|0:2,0:2:0:0:
173,23,46423,1,0,0:2:0:0:
176,31,46514,1,0,0:2:0:0:
178,41,46605,5,2,1:2:0:0:
166,68,46696,1,0,0:2:0:0:
154,94,46787,1,0,0:2:0:0:
149,126,46878,1,0,0:2:0:0:
151,154,46969,2,0,P|154:171|161:187,1,35,10|0,1:2|0:2,0:2:0:0:
254,227,47150,5,0,0:2:0:0:
278,204,47241,1,0,0:2:0:0:
309,190,47332,1,2,1:2:0:0:
337,186,47423,1,0,0:2:0:0:
361,191,47514,1,0,0:2:0:0:
388,204,47605,1,0,0:2:0:0:
412,226,47696,2,0,P|422:240|429:255,1,35,10|0,1:2|0:2,0:2:0:0:
314,345,47878,1,0,0:2:0:0:
324,350,47969,1,0,0:2:0:0:
334,354,48060,5,2,1:2:0:0:
346,334,48150,1,0,0:2:0:0:
353,308,48241,1,0,0:2:0:0:
353,277,48332,1,0,0:2:0:0:
343,250,48423,2,0,P|331:231|294:216,1,35,10|0,1:2|0:2,0:2:0:0:
220,227,48605,5,0,0:2:0:0:
201,245,48696,1,0,0:2:0:0:
176,253,48787,1,2,1:2:0:0:
148,255,48878,1,0,0:2:0:0:
124,249,48969,1,0,0:2:0:0:
99,231,49060,1,0,0:2:0:0:
78,212,49150,2,0,P|72:195|70:178,1,35,10|0,1:2|0:2,0:2:0:0:
122,77,49332,1,0,0:2:0:0:
127,90,49423,1,0,0:2:0:0:
131,103,49514,5,2,1:2:0:0:
150,92,49605,1,0,0:2:0:0:
175,83,49696,1,0,0:2:0:0:
200,79,49787,1,0,0:2:0:0:
225,80,49878,2,0,P|241:84|256:93,1,35,10|0,1:2|0:2,0:2:0:0:
334,185,50060,5,0,0:2:0:0:
351,196,50150,1,0,0:2:0:0:
373,201,50241,1,2,1:2:0:0:
398,203,50332,1,0,0:2:0:0:
419,200,50423,1,0,0:2:0:0:
442,191,50514,1,0,0:2:0:0:
462,176,50605,2,0,P|470:156|467:122,1,35,10|0,1:2|0:2,0:2:0:0:
443,28,50787,1,0,0:2:0:0:
442,37,50878,1,0,0:2:0:0:
438,49,50969,5,2,1:2:0:0:
416,43,51060,1,0,0:2:0:0:
393,38,51150,2,0,P|365:34|328:43,1,35,4|0,0:2|0:2,0:2:0:0:
298,140,51332,2,0,P|309:126|318:111,1,35,10|0,1:2|0:2,0:2:0:0:
262,36,51514,1,0,0:2:0:0:
246,29,51605,1,0,0:2:0:0:
226,23,51696,2,0,P|208:23|191:27,1,35,6|0,1:2|0:2,0:2:0:0:
96,142,51878,1,0,0:2:0:0:
113,141,51969,1,0,0:2:0:0:
134,138,52060,2,0,P|149:130|163:119,1,35,6|0,1:2|0:2,0:2:0:0:
35,63,52241,1,0,0:2:0:0:
17,79,52332,1,0,0:2:0:0:
8,102,52423,6,0,L|21:178,1,70,4|0,1:2|0:2,0:2:0:0:
6,275,52787,2,0,P|47:244|99:241,1,105,8|0,1:2|0:2,0:2:0:0:
127,261,53150,2,0,L|114:329,1,70,0|0,1:2|0:2,0:2:0:0:
227,224,53514,2,0,L|214:292,1,70,8|0,1:2|0:2,0:2:0:0:
205,368,53787,5,0,0:2:0:0:
205,368,53878,1,0,1:2:0:0:
300,320,54060,1,0,0:2:0:0:
289,207,54241,2,0,L|280:102,1,105,8|0,1:2|0:2,0:2:0:0:
197,21,54605,5,0,1:2:0:0:
385,120,54787,1,0,0:2:0:0:
174,150,54969,1,8,1:2:0:0:
327,2,55150,1,0,0:2:0:0:
290,211,55332,1,0,1:2:0:0:
281,102,55514,5,0,0:2:0:0:
281,102,55605,1,0,0:2:0:0:
281,102,55696,2,0,L|165:91,1,105,8|0,1:2|0:2,0:2:0:0:
144,103,56060,2,0,P|126:144|131:196,1,70,0|0,1:2|0:2,0:2:0:0:
27,173,56423,2,0,P|32:207|48:237,1,70,8|0,1:2|0:2,0:2:0:0:
194,247,56787,1,0,1:2:0:0:
194,247,56878,1,0,0:2:0:0:
194,247,56969,2,0,L|99:238,2,70,0|8|0,0:2|1:2|0:2,0:2:0:0:
325,322,57514,1,0,1:2:0:0:
207,374,57696,1,0,0:2:0:0:
289,240,57878,1,8,1:2:0:0:
320,241,57969,1,0,0:2:0:0:
349,252,58060,1,0,0:2:0:0:
435,115,58241,6,0,L|412:192,1,70,0|0,1:2|0:2,0:2:0:0:
327,47,58605,2,0,L|338:126,1,70,8|0,1:2|0:2,0:2:0:0:
185,47,58969,2,0,L|174:116,1,70,0|0,1:2|0:2,0:2:0:0:
77,115,59333,2,0,L|97:182,1,70,8|0,1:2|0:2,0:2:0:0:
49,291,59696,5,0,1:2:0:0:
24,200,59878,1,0,0:2:0:0:
69,293,60060,1,8,1:2:0:0:
181,165,60241,2,0,L|273:152,1,70,0|0,0:2|1:2,0:2:0:0:
202,232,60605,1,0,0:0:0:0:
296,63,60787,1,8,1:2:0:0:
294,43,60969,1,0,0:2:0:0:
404,171,61150,5,0,1:2:0:0:
294,82,61332,1,0,0:2:0:0:
162,121,61514,1,8,1:2:0:0:
408,187,61696,5,0,0:2:0:0:
302,96,61878,1,0,1:2:0:0:
170,134,62060,1,0,0:2:0:0:
415,205,62241,5,8,1:2:0:0:
178,150,62423,1,0,0:2:0:0:
267,236,62605,2,0,L|283:374,1,105,0|0,1:2|0:2,0:2:0:0:
352,370,62969,2,0,P|320:354|285:351,1,70,8|0,1:2|0:2,0:2:0:0:
12,290,63332,5,0,1:2:0:0:
45,380,63514,1,0,1:2:0:0:
210,303,63696,1,8,1:2:0:0:
231,209,63878,1,0,1:2:0:0:
103,316,64060,5,0,1:2:0:0:
126,100,64241,1,0,0:2:0:0:
177,104,64331,1,0,0:2:0:0:
229,110,64422,1,8,1:2:0:0:
369,193,64605,1,0,0:2:0:0:
328,197,64695,1,0,0:2:0:0:
287,202,64786,1,0,1:2:0:0:
170,267,64969,1,0,0:2:0:0:
189,268,65059,1,0,0:2:0:0:
210,270,65150,1,8,1:2:0:0:
369,349,65332,6,0,L|323:354,1,35,0|0,0:2|0:2,0:2:0:0:
155,376,65514,1,0,1:2:0:0:
52,225,65696,1,0,0:2:0:0:
55,270,65787,1,0,0:2:0:0:
60,317,65878,1,8,1:2:0:0:
201,220,66060,1,0,0:2:0:0:
204,191,66151,1,0,0:2:0:0:
206,164,66242,1,0,1:2:0:0:
167,290,66423,1,8,0:2:0:0:
268,113,66605,1,8,1:2:0:0:
324,237,66787,6,0,L|330:202,1,35,8|0,0:2|0:2,0:2:0:0:
362,47,66969,1,0,1:2:0:0:
512,171,67150,1,0,0:2:0:0:
463,181,67241,1,0,0:2:0:0:
415,193,67332,1,8,1:2:0:0:
270,249,67514,1,0,0:2:0:0:
305,256,67605,1,0,0:2:0:0:
336,265,67696,1,0,1:2:0:0:
478,349,67878,1,0,0:2:0:0:
462,352,67969,1,0,0:2:0:0:
448,355,68060,1,8,1:2:0:0:
274,356,68241,6,0,L|286:297,1,35,0|0,0:2|0:2,0:2:0:0:
324,107,68423,1,0,1:2:0:0:
143,189,68605,1,0,0:2:0:0:
151,145,68696,1,0,0:2:0:0:
157,99,68787,1,8,1:2:0:0:
272,267,68969,1,0,0:2:0:0:
267,240,69060,1,0,0:2:0:0:
263,214,69151,1,0,1:2:0:0:
215,328,69332,1,8,0:2:0:0:
267,133,69514,1,8,1:2:0:0:
198,314,69696,1,8,0:2:0:0:
363,334,69878,5,0,1:2:0:0:
358,356,70060,1,0,0:2:0:0:
354,378,70241,1,8,1:2:0:0:
456,327,70423,5,0,0:2:0:0:
372,259,70605,1,0,1:2:0:0:
367,237,70787,1,0,0:2:0:0:
472,173,70969,5,8,1:2:0:0:
467,195,71151,1,0,0:2:0:0:
393,110,71332,5,0,1:2:0:0:
370,33,71514,1,0,0:2:0:0:
393,110,71696,5,8,1:2:0:0:
370,33,71878,1,0,0:2:0:0:
272,197,72060,5,0,1:2:0:0:
316,91,72241,1,0,0:2:0:0:
272,197,72423,5,8,1:2:0:0:
316,91,72604,1,0,0:2:0:0:
320,335,72787,5,0,1:2:0:0:
142,287,72969,1,0,0:2:0:0:
320,335,73150,5,8,1:2:0:0:
142,287,73332,1,0,0:2:0:0:
512,168,73514,6,0,L|477:176,1,35,0|0,1:2|0:2,0:2:0:0:
288,237,73696,2,0,L|322:228,1,35,0|0,0:2|0:2,0:2:0:0:
512,168,73878,6,0,L|477:176,1,35,8|0,1:2|0:2,0:2:0:0:
288,237,74060,2,0,L|322:228,1,35,0|0,0:2|0:2,0:2:0:0:
371,96,74241,6,0,P|323:80|277:93,1,70,0|0,1:2|0:2,0:2:0:0:
207,81,74514,1,0,0:2:0:0:
207,81,74605,2,0,P|172:81|141:96,1,70,8|0,1:2|0:2,0:2:0:0:
122,266,74969,1,0,1:2:0:0:
187,143,75150,1,0,1:2:0:0:
27,223,75332,2,0,L|40:291,1,70,8|0,1:2|0:2,0:2:0:0:
314,368,75696,5,4,1:2:0:0:
172,335,75878,1,0,0:2:0:0:
346,295,76060,5,8,1:2:0:0:
172,253,76241,1,0,0:2:0:0:
314,223,76423,5,0,1:2:0:0:
234,384,76605,1,0,0:2:0:0:
234,204,76787,2,0,L|251:303,1,70,8|0,1:2|0:0,0:0:0:0:
466,150,77150,5,0,1:2:0:0:
443,254,77332,1,0,0:2:0:0:
412,124,77514,5,8,1:2:0:0:
382,254,77695,1,0,0:2:0:0:
358,150,77877,5,0,1:2:0:0:
478,207,78059,1,8,0:2:0:0:
345,207,78241,1,8,1:2:0:0:
478,207,78423,1,8,0:2:0:0:
203,17,78605,5,0,1:2:0:0:
341,48,78787,1,0,0:2:0:0:
278,176,78969,5,8,1:2:0:0:
169,87,79150,1,0,0:2:0:0:
278,0,79332,5,0,1:2:0:0:
341,127,79514,1,0,0:2:0:0:
203,158,79696,2,0,L|257:86,1,70,8|0,1:2|0:0,0:0:0:0:
55,155,80060,5,0,1:2:0:0:
78,260,80242,1,0,0:2:0:0:
108,129,80424,5,8,1:2:0:0:
138,260,80605,1,0,0:2:0:0:
162,155,80787,5,0,1:2:0:0:
42,212,80969,1,8,0:2:0:0:
175,212,81150,1,8,1:2:0:0:
42,212,81333,1,8,0:2:0:0:
150,329,81514,6,0,L|247:314,1,70,0|0,1:2|0:2,0:2:0:0:
375,371,81878,1,8,1:2:0:0:
301,328,82060,1,0,0:2:0:0:
405,221,82241,5,0,1:2:0:0:
383,306,82423,1,0,0:2:0:0:
212,172,82605,5,8,1:2:0:0:
229,250,82787,1,0,0:2:0:0:
422,117,82969,5,0,1:2:0:0:
451,267,83150,1,0,0:2:0:0:
318,256,83332,5,8,1:2:0:0:
350,155,83514,1,0,0:2:0:0:
223,342,83696,2,0,P|174:327|122:333,1,105,0|0,1:2|0:2,0:2:0:0:
104,348,84060,2,0,L|100:256,1,70,8|0,1:2|0:2,0:2:0:0:
103,139,84423,6,0,P|130:160|146:191,1,70,0|0,1:2|0:2,0:2:0:0:
144,221,84696,1,0,0:2:0:0:
144,221,84787,1,8,1:2:0:0:
37,159,84969,1,0,0:2:0:0:
154,79,85150,2,0,L|223:88,1,70,0|0,1:2|0:2,0:2:0:0:
368,18,85514,2,0,L|298:27,1,70,8|0,1:2|0:2,0:2:0:0:
233,168,85878,6,0,L|209:234,1,70,0|0,1:2|0:2,0:2:0:0:
182,294,86241,1,8,1:2:0:0:
272,256,86423,1,0,0:2:0:0:
202,362,86605,2,0,P|167:363|136:347,1,70,0|0,1:2|1:2,0:2:0:0:
213,104,86969,2,0,P|247:102|278:118,1,70,8|0,1:2|0:2,0:2:0:0:
136,347,87332,5,4,1:2:0:0:
136,160,87514,1,0,0:2:0:0:
26,311,87696,5,8,1:2:0:0:
203,253,87878,1,0,0:2:0:0:
26,195,88060,5,0,1:2:0:0:
136,347,88241,1,0,0:2:0:0:
136,160,88423,2,0,L|109:251,1,70,8|0,1:2|0:0,0:0:0:0:
297,127,88787,5,0,1:2:0:0:
194,52,88969,1,0,0:2:0:0:
320,52,89151,5,8,1:2:0:0:
218,124,89333,1,0,0:2:0:0:
256,6,89515,5,0,1:2:0:0:
297,127,89696,1,0,0:2:0:0:
194,52,89878,2,0,L|264:74,1,70,8|0,1:2|0:0,0:0:0:0:
367,340,90241,5,0,1:2:0:0:
491,299,90423,1,0,0:2:0:0:
291,233,90605,5,8,1:2:0:0:
491,168,90787,1,0,0:2:0:0:
367,128,90969,5,0,1:2:0:0:
367,340,91150,1,0,0:2:0:0:
491,168,91332,2,0,L|411:224,1,70,8|0,1:2|0:0,0:0:0:0:
297,257,91696,5,0,1:2:0:0:
194,332,91878,1,0,0:2:0:0:
320,332,92060,5,8,1:2:0:0:
218,260,92242,1,0,0:2:0:0:
256,378,92424,5,0,1:2:0:0:
297,257,92605,1,0,0:2:0:0:
256,378,92787,1,8,1:2:0:0:
255,202,92969,5,0,0:2:0:0:
255,202,93060,1,0,0:2:0:0:
255,202,93150,2,0,L|256:110,1,70,0|0,1:2|0:2,0:2:0:0:
333,9,93514,5,8,1:2:0:0:
266,73,93696,1,0,0:2:0:0:
440,191,93878,5,0,1:2:0:0:
405,58,94060,1,0,0:2:0:0:
283,213,94241,5,8,1:2:0:0:
265,283,94423,1,0,0:2:0:0:
159,140,94605,5,0,1:2:0:0:
118,0,94787,1,0,0:2:0:0:
40,204,94969,5,8,1:2:0:0:
12,281,95151,1,0,0:2:0:0:
160,264,95332,2,0,P|158:308|128:366,1,105,0|0,1:2|0:2,0:2:0:0:
129,368,95696,2,0,L|224:356,1,70,8|0,1:2|0:2,0:2:0:0:
348,295,96060,6,0,L|278:303,1,70,0|0,1:2|0:2,0:2:0:0:
184,278,96423,1,8,1:2:0:0:
276,373,96605,1,0,0:2:0:0:
255,230,96787,5,0,1:2:0:0:
254,216,96969,1,0,0:2:0:0:
333,168,97150,5,8,1:2:0:0:
334,154,97332,1,0,0:2:0:0:
256,104,97514,5,0,1:2:0:0:
169,291,97696,1,4,0:2:0:0:
172,312,97878,1,8,1:2:0:0:
177,338,98060,1,0,0:2:0:0:
12,203,98241,5,4,1:2:0:0:
19,183,98423,1,0,0:2:0:0:
174,60,98605,5,12,1:2:0:0:
170,79,98787,1,0,0:2:0:0:
16,26,98969,6,0,L|89:15,1,52.5000020027161,4|0,1:2|0:2,0:2:0:0:
122,67,99332,2,0,L|195:56,1,52.5000020027161,0|0,1:2|0:2,0:2:0:0:
264,41,99696,1,0,1:2:0:0:
229,169,99878,2,0,P|224:143|225:117,1,52.5000020027161,2|0,0:1|1:2,0:2:0:0:
341,73,100241,2,0,P|359:91|373:113,1,52.5000020027161,2|0,0:1|1:2,0:2:0:0:
323,260,100605,1,0,0:2:0:0:
273,312,100787,2,0,L|283:388,1,52.5000020027161,2|0,1:1|0:2,0:2:0:0:
391,254,101150,1,0,1:2:0:0:
287,197,101332,1,2,0:1:0:0:
263,192,101423,1,2,0:1:0:0:
241,188,101514,1,2,1:1:0:0:
151,216,101696,1,2,0:1:0:0:
163,93,101878,6,0,P|177:116|184:141,1,52.5000020027161,0|0,1:2|0:2,0:2:0:0:
258,39,102241,2,0,P|251:64|238:87,1,52.5000020027161,2|0,1:1|0:2,0:2:0:0:
365,85,102605,2,0,P|343:98|318:105,1,52.5000020027161,0|2,1:2|0:1,0:2:0:0:
409,193,102969,2,0,P|383:187|360:174,1,52.5000020027161,0|2,1:2|0:1,0:2:0:0:
362,301,103332,2,0,P|349:279|342:254,1,52.5000020027161,0|0,1:2|0:2,0:2:0:0:
254,345,103696,2,0,P|260:319|273:296,1,52.5000020027161,2|0,1:1|0:2,0:2:0:0:
324,355,104060,1,0,1:2:0:0:
185,350,104241,1,2,0:1:0:0:
164,342,104332,1,2,0:1:0:0:
142,333,104423,1,2,1:1:0:0:
118,268,104605,1,2,0:1:0:0:
178,202,104787,6,0,L|187:266,1,52.5000020027161,0|0,1:2|0:2,0:2:0:0:
109,138,105150,2,0,L|100:202,1,52.5000020027161,2|0,1:1|0:2,0:2:0:0:
36,120,105514,1,0,1:2:0:0:
188,141,105696,2,0,P|214:139|238:127,1,52.5000020027161,2|0,0:1|1:2,0:2:0:0:
198,77,106060,2,0,P|217:59|229:36,1,52.5000020027161,2|0,0:1|1:2,0:2:0:0:
158,17,106423,1,0,0:2:0:0:
288,82,106605,2,0,L|364:69,1,52.5000020027161,2|0,1:1|0:2,0:2:0:0:
487,30,106969,1,0,1:2:0:0:
398,21,107150,1,2,0:1:0:0:
412,47,107241,1,2,0:1:0:0:
427,72,107332,1,2,1:1:0:0:
384,135,107514,1,2,0:1:0:0:
435,230,107696,6,0,L|441:177,1,52.5000020027161,0|0,1:2|0:2,0:2:0:0:
317,272,108060,2,0,L|358:239,1,52.5000020027161,2|0,1:1|0:2,0:2:0:0:
206,290,108423,1,0,1:2:0:0:
272,320,108605,5,2,0:1:0:0:
202,354,108787,1,0,1:2:0:0:
135,312,108969,1,2,0:1:0:0:
171,193,109150,6,0,L|155:253,1,52.5000020027161,0|0,1:2|0:2,0:2:0:0:
234,142,109514,1,2,1:1:0:0:
332,158,109696,1,2,0:1:0:0:
326,189,109787,1,2,0:1:0:0:
321,218,109878,1,2,1:1:0:0:
219,62,110060,1,2,1:1:0:0:
225,93,110151,1,2,0:1:0:0:
230,122,110242,1,2,1:1:0:0:
377,0,110423,5,2,0:1:0:0:
368,27,110514,1,2,0:1:0:0:
357,54,110605,2,0,L|285:38,1,52.5000020027161,0|0,1:2|0:2,0:2:0:0:
57,145,110969,2,0,P|92:130|131:132,1,78.7500030040742,8|0,1:2|0:2,0:2:0:0:
144,148,111332,2,0,L|135:199,2,52.5000020027161,0|2|8,1:2|0:1|1:2,0:2:0:0:
150,267,111878,1,2,0:1:0:0:
14,309,112060,6,0,P|58:287|98:294,1,78.7500030040742,0|0,1:2|0:2,0:2:0:0:
95,300,112423,2,0,L|85:366,1,52.5000020027161,8|0,1:2|0:2,0:2:0:0:
261,226,112787,1,2,1:1:0:0:
170,201,112969,1,2,0:1:0:0:
177,234,113060,1,2,0:1:0:0:
184,264,113150,1,8,1:2:0:0:
275,313,113332,1,0,0:2:0:0:
341,198,113514,6,0,L|350:122,1,52.5000020027161,0|0,1:2|0:2,0:2:0:0:
256,24,113878,2,0,L|265:102,1,78.7500030040742,8|0,1:2|0:2,0:2:0:0:
268,117,114241,1,0,1:1:0:0:
389,84,114423,2,0,L|454:70,1,52.5000020027161,2|8,0:1|1:2,0:2:0:0:
450,154,114787,2,0,L|515:140,1,52.5000020027161,2|0,0:1|1:2,0:2:0:0:
428,254,115150,1,0,0:2:0:0:
295,188,115332,6,0,P|331:174|370:178,1,78.7500030040742,8|0,1:2|0:2,0:2:0:0:
387,195,115696,1,2,1:1:0:0:
297,289,115878,1,2,0:1:0:0:
264,282,115969,1,2,0:1:0:0:
228,275,116060,1,8,1:2:0:0:
186,198,116241,1,0,0:2:0:0:
299,104,116423,6,0,P|264:121|225:124,1,78.7500030040742,0|0,1:2|0:2,0:2:0:0:
215,121,116787,2,0,L|223:69,1,52.5000020027161,8|0,1:2|0:2,0:2:0:0:
180,5,117150,1,0,1:2:0:0:
118,63,117332,2,0,L|47:73,2,52.5000020027161,2|8|2,0:1|1:2|0:1,0:2:0:0:
172,170,117878,6,0,L|157:250,1,78.7500030040742,0|0,1:2|0:2,0:2:0:0:
149,256,118241,2,0,L|97:244,1,52.5000020027161,8|0,1:2|0:2,0:2:0:0:
31,327,118605,1,2,1:1:0:0:
133,377,118787,1,2,0:1:0:0:
168,365,118878,1,2,0:1:0:0:
200,351,118969,1,8,1:2:0:0:
114,303,119150,1,0,0:2:0:0:
210,177,119332,6,0,L|195:277,1,78.7500030040742,0|0,1:2|0:2,0:2:0:0:
195,270,119696,2,0,L|246:257,1,52.5000020027161,8|0,1:2|0:2,0:2:0:0:
384,208,120060,1,0,1:2:0:0:
312,237,120241,5,2,0:1:0:0:
350,141,120423,1,8,1:2:0:0:
456,177,120605,1,2,0:1:0:0:
345,314,120787,6,0,L|290:311,1,52.5000020027161,0|0,1:2|0:2,0:2:0:0:
228,240,121150,1,8,1:2:0:0:
357,226,121332,1,2,0:1:0:0:
383,251,121423,1,2,0:1:0:0:
398,280,121514,1,2,1:1:0:0:
475,159,121696,1,2,0:1:0:0:
459,179,121787,1,2,0:1:0:0:
450,200,121878,1,8,1:2:0:0:
392,90,122060,1,0,0:2:0:0:
391,99,122241,6,0,B|333:63|257:96|271:139|201:153|141:108,1,262.500010013581,0|0,0:2|0:2,0:2:0:0:
76,85,123332,6,0,P|75:125|92:160,1,78.7500030040742,0|0,0:2|0:2,0:2:0:0:
159,196,123696,2,0,P|157:238|136:280,1,78.7500030040742,0|0,0:2|0:2,0:2:0:0:
65,323,124060,2,0,L|144:331,1,78.7500030040742,0|0,0:2|0:2,0:2:0:0:
206,289,124423,2,0,L|285:281,1,78.7500030040742,0|0,0:2|0:2,0:2:0:0:
355,298,124787,2,0,P|382:333|396:369,1,78.7500030040742,0|0,0:2|0:2,0:2:0:0:
436,285,125150,6,0,B|484:226|456:138|456:138|394:147|375:199,1,262.500010013581,0|0,0:2|0:2,0:2:0:0:
371,265,126241,2,0,L|286:257,1,78.7500030040742,0|0,0:2|0:2,0:2:0:0:
208,234,126605,6,0,B|112:193|78:241|78:241|141:266|206:167,1,288.750011014939,0|0,0:2|0:2,0:2:0:0:
235,115,127696,2,0,P|238:65|229:16,1,78.7500030040742,0|0,0:2|0:2,0:2:0:0:
186,2,128060,5,4,1:2:0:0:
107,24,128241,1,0,0:2:0:0:
86,103,128423,1,8,1:2:0:0:
144,160,128605,1,0,0:2:0:0:
166,82,128787,1,0,1:2:0:0:
65,181,128969,1,0,0:2:0:0:
86,103,129150,1,8,1:2:0:0:
123,239,129332,1,0,0:2:0:0:
281,197,129514,5,0,1:2:0:0:
223,139,129696,1,0,0:2:0:0:
144,160,129878,1,8,1:2:0:0:
123,239,130060,1,0,0:2:0:0:
260,277,130241,1,0,1:2:0:0:
202,218,130423,1,0,0:2:0:0:
303,118,130605,1,8,1:2:0:0:
281,197,130787,1,0,0:2:0:0:
245,60,130969,5,0,1:2:0:0:
382,96,131150,1,0,0:2:0:0:
324,38,131332,1,8,1:2:0:0:
360,175,131514,1,0,0:2:0:0:
223,139,131696,1,0,1:2:0:0:
303,118,131878,1,0,0:2:0:0:
260,277,132060,1,8,1:2:0:0:
202,218,132241,1,0,0:2:0:0:
339,254,132423,5,0,1:2:0:0:
319,333,132605,1,0,0:2:0:0:
241,356,132787,1,8,1:2:0:0:
182,299,132969,1,0,0:2:0:0:
25,344,133150,5,0,1:2:0:0:
45,265,133332,1,0,0:2:0:0:
123,239,133514,1,8,1:2:0:0:
182,299,133696,1,0,0:2:0:0:
100,320,133878,5,0,1:2:0:0:
100,320,134060,2,0,B|195:372|306:323|306:323|273:276|218:220|172:243|172:243|197:275|300:252|326:226,1,545.999983337403,0|0,0:2|0:2,0:2:0:0:
325,226,135332,5,0,1:2:0:0:
391,183,135514,1,0,0:0:0:0:
416,187,135604,1,0,0:0:0:0:
442,191,135695,1,0,1:0:0:0:
468,195,135786,1,0,0:0:0:0:
494,199,135878,2,0,L|484:145,1,35
393,122,136060,5,0,1:0:0:0:
367,126,136150,1,0,0:0:0:0:
341,130,136241,1,0,0:0:0:0:
315,134,136332,1,0,0:0:0:0:
289,138,136424,2,0,L|299:83,1,35,0|0,1:0|0:0,0:0:0:0:
359,53,136605,2,0,L|352:18,1,35
242,17,136787,5,0,1:2:0:0:
238,38,136878,1,0,0:2:0:0:
234,58,136969,1,0,0:2:0:0:
230,79,137060,1,0,0:2:0:0:
227,99,137150,2,0,L|220:133,1,35,0|0,1:2|0:2,0:2:0:0:
147,128,137332,2,0,L|154:162,1,35,0|0,0:2|0:2,0:2:0:0:
214,230,137514,5,0,1:2:0:0:
187,227,137604,1,0,0:2:0:0:
161,225,137695,1,0,0:2:0:0:
135,223,137786,1,0,0:2:0:0:
109,221,137878,2,0,L|62:218,3,35,0|0|0|0,1:2|0:2|0:2|0:2,0:2:0:0:
0,328,138241,5,0,1:2:0:0:
26,325,138331,1,0,0:2:0:0:
52,323,138422,1,0,0:2:0:0:
78,321,138513,1,0,0:2:0:0:
104,319,138605,2,0,L|151:315,3,35,0|0|0|0,1:2|0:2|0:2|0:2,0:2:0:0:
201,358,138969,5,0,1:2:0:0:
227,361,139059,1,0,0:2:0:0:
253,363,139150,1,0,0:2:0:0:
279,365,139241,1,0,0:2:0:0:
306,369,139332,2,0,L|358:373,1,35,0|0,1:2|0:2,0:2:0:0:
384,323,139514,2,0,L|436:327,1,35,0|0,0:2|0:2,0:2:0:0:
316,303,139696,5,0,1:2:0:0:
314,276,139786,1,0,0:2:0:0:
313,250,139877,1,0,0:2:0:0:
312,224,139968,1,0,0:2:0:0:
310,198,140060,2,0,L|306:145,1,35,0|0,1:2|0:2,0:2:0:0:
375,148,140241,2,0,L|379:94,1,35,0|0,0:2|0:2,0:2:0:0:
456,44,140423,5,0,1:2:0:0:
429,42,140513,1,0,0:2:0:0:
403,40,140604,1,0,0:2:0:0:
377,38,140695,1,0,0:2:0:0:
349,35,140787,2,0,L|300:32,3,35,0|0|0|0,1:2|0:2|0:2|0:2,0:2:0:0:
262,76,141150,5,2,1:2:0:0:
226,90,141241,1,0,0:2:0:0:
188,86,141332,1,0,0:2:0:0:
163,70,141423,1,0,0:2:0:0:
157,53,141514,1,0,1:2:0:0:
162,36,141605,1,0,0:2:0:0:
173,33,141696,5,2,0:2:0:0:
143,55,141787,1,0,0:2:0:0:
129,90,141878,1,0,1:2:0:0:
134,122,141969,1,0,0:2:0:0:
143,140,142060,1,0,0:2:0:0:
156,146,142150,1,0,0:2:0:0:
169,142,142241,5,2,1:2:0:0:
128,137,142332,1,0,0:2:0:0:
88,151,142423,1,0,0:2:0:0:
68,179,142514,1,0,0:2:0:0:
70,200,142605,1,0,1:2:0:0:
78,210,142696,1,0,0:2:0:0:
91,215,142787,5,2,0:2:0:0:
128,190,142878,1,0,0:2:0:0:
170,183,142969,1,0,1:2:0:0:
197,195,143060,1,0,0:2:0:0:
209,212,143150,1,0,0:2:0:0:
210,226,143241,1,0,0:2:0:0:
204,232,143332,5,2,1:2:0:0:
191,202,143423,1,0,0:2:0:0:
198,171,143514,1,0,0:2:0:0:
213,152,143605,1,0,0:2:0:0:
267,120,143696,5,2,1:2:0:0:
283,97,143787,1,0,0:2:0:0:
290,81,143878,1,0,0:2:0:0:
291,71,143969,1,0,0:2:0:0:
287,59,144060,5,2,1:2:0:0:
268,96,144150,1,0,0:2:0:0:
276,138,144241,1,0,0:2:0:0:
298,152,144332,1,0,0:2:0:0:
313,153,144423,1,0,1:2:0:0:
322,146,144514,1,0,0:2:0:0:
326,138,144605,5,2,0:2:0:0:
354,164,144696,1,0,0:2:0:0:
365,204,144787,1,0,1:2:0:0:
352,232,144878,1,0,0:2:0:0:
328,248,144969,1,0,0:2:0:0:
313,245,145060,1,0,0:2:0:0:
305,236,145150,5,2,1:2:0:0:
276,213,145241,1,0,0:2:0:0:
237,218,145332,1,0,0:2:0:0:
211,246,145423,1,0,0:2:0:0:
209,265,145514,1,0,1:2:0:0:
212,275,145605,1,0,0:2:0:0:
218,283,145696,5,2,0:2:0:0:
197,250,145787,1,0,0:2:0:0:
196,214,145878,1,0,1:2:0:0:
215,194,145969,1,0,0:2:0:0:
230,191,146060,1,0,0:2:0:0:
240,196,146150,1,0,0:2:0:0:
247,207,146241,5,2,1:2:0:0:
280,227,146332,1,0,0:2:0:0:
320,221,146423,1,0,0:2:0:0:
340,206,146514,1,0,0:2:0:0:
334,147,146605,5,2,1:2:0:0:
334,147,146696,1,0,0:2:0:0:
380,96,146787,5,2,1:2:0:0:
380,96,146878,1,0,0:2:0:0:
354,32,146969,6,0,L|249:44,1,105,12|0,1:3|0:2,0:2:0:0:
129,87,147332,2,0,L|198:96,1,70,8|0,1:2|0:2,0:2:0:0:
44,47,147696,1,0,1:2:0:0:
54,57,147787,1,0,0:2:0:0:
58,70,147878,1,0,0:2:0:0:
60,84,147969,1,0,0:2:0:0:
55,100,148060,2,0,L|43:135,1,35,8|0,1:2|0:2,0:2:0:0:
103,154,148241,2,0,L|91:189,1,35,0|0,0:2|0:2,0:2:0:0:
14,268,148423,6,0,P|48:256|82:255,1,70,0|0,1:2|0:2,0:2:0:0:
211,306,148787,1,8,1:2:0:0:
137,333,148969,1,0,0:2:0:0:
142,304,149060,1,0,0:2:0:0:
147,280,149150,1,0,1:2:0:0:
252,249,149332,1,0,0:2:0:0:
277,258,149423,1,0,0:2:0:0:
298,262,149514,1,8,1:2:0:0:
322,260,149605,1,0,0:2:0:0:
345,252,149696,2,0,P|364:244|390:227,1,35,0|0,0:2|0:2,0:2:0:0:
443,111,149878,6,0,L|430:196,1,70,0|0,1:2|0:2,0:2:0:0:
426,200,150150,1,0,0:2:0:0:
426,200,150241,1,8,1:2:0:0:
337,118,150423,2,0,L|324:42,1,70,0|0,0:2|1:2,0:2:0:0:
257,179,150787,2,0,L|244:103,1,70,0|8,0:2|1:2,0:2:0:0:
229,32,151150,1,0,0:2:0:0:
141,170,151332,6,0,P|91:181|50:178,1,70,0|0,1:2|0:2,0:2:0:0:
47,265,151696,1,8,1:2:0:0:
52,288,151787,1,0,0:2:0:0:
59,312,151878,2,0,L|67:357,1,35,0|0,0:2|0:2,0:2:0:0:
151,246,152060,2,0,L|142:291,1,35,0|0,1:2|0:2,0:2:0:0:
79,164,152241,1,0,1:2:0:0:
71,136,152332,1,0,1:2:0:0:
61,109,152423,1,8,1:2:0:0:
61,109,152787,6,0,L|122:116,1,35,0|0,1:2|0:2,0:2:0:0:
181,121,152969,1,0,0:2:0:0:
162,30,153150,6,0,L|207:70,1,35,8|0,1:2|0:2,0:2:0:0:
253,108,153332,1,0,0:2:0:0:
291,18,153514,6,0,L|305:77,1,35,0|0,1:2|0:2,0:2:0:0:
320,134,153696,1,0,0:2:0:0:
402,87,153878,6,0,L|379:144,1,35,8|0,1:2|0:2,0:2:0:0:
359,198,154060,1,0,0:2:0:0:
468,202,154241,6,0,L|416:235,1,35,0|0,1:2|0:2,0:2:0:0:
316,303,154423,2,0,L|367:269,1,35,0|0,0:2|0:2,0:2:0:0:
339,168,154605,6,0,L|358:197,1,35,8|0,1:2|0:2,0:2:0:0:
452,331,154787,2,0,L|432:301,1,35,0|0,0:2|0:2,0:2:0:0:
303,233,154969,1,0,1:2:0:0:
285,237,155060,1,0,0:2:0:0:
267,242,155150,2,0,L|221:250,1,35,0|0,0:2|0:2,0:2:0:0:
140,327,155332,1,8,1:2:0:0:
158,331,155423,1,0,0:2:0:0:
176,336,155514,2,0,L|222:344,1,35,0|0,0:2|0:2,0:2:0:0:
340,322,155696,6,0,P|349:308|354:291,1,35,0|0,1:2|0:2,0:2:0:0:
334,191,155878,1,0,0:2:0:0:
412,225,156060,6,0,P|411:207|406:190,1,35,8|0,1:2|0:2,0:2:0:0:
331,120,156242,1,0,0:2:0:0:
414,103,156423,6,0,P|403:89|389:78,1,35,0|0,1:2|0:2,0:2:0:0:
287,63,156605,1,0,0:2:0:0:
347,10,156787,6,0,P|330:4|312:3,1,35,8|0,1:2|0:2,0:2:0:0:
220,50,156969,1,0,0:2:0:0:
257,160,157150,6,0,L|244:105,1,35,0|0,1:2|0:2,0:2:0:0:
167,204,157332,2,0,L|180:149,1,35,0|0,0:2|0:2,0:2:0:0:
138,37,157514,6,0,L|129:71,1,35,8|0,1:2|0:2,0:2:0:0:
48,81,157696,2,0,L|56:115,1,35,0|0,0:2|0:2,0:2:0:0:
80,222,157878,1,0,1:2:0:0:
91,250,157969,1,0,0:2:0:0:
101,278,158060,1,0,0:2:0:0:
190,365,158241,6,0,L|201:276,1,78.7500030040742,12|0,1:2|0:2,0:2:0:0:
259,118,158605,6,0,P|328:108|395:127,1,140,14|8,1:3|1:2,0:2:0:0:
385,269,159150,2,0,P|316:279|250:261,1,140,2|0,0:2|0:2,0:2:0:0:
120,66,159696,2,0,P|121:31|134:0,1,70,14|0,1:2|0:2,0:2:0:0:
313,103,160060,6,0,L|277:120,1,35,0|0,1:2|0:2,0:2:0:0:
228,165,160241,2,0,L|188:165,1,35,0|0,0:2|0:2,0:2:0:0:
121,143,160423,1,8,1:2:0:0:
111,140,160514,1,0,0:2:0:0:
103,138,160605,1,0,0:2:0:0:
251,30,160787,6,0,L|261:76,1,35,0|0,1:2|0:2,0:2:0:0:
295,158,160969,2,0,L|284:203,1,35,0|0,0:2|0:2,0:2:0:0:
216,261,161150,1,8,1:2:0:0:
209,268,161241,1,0,0:2:0:0:
203,274,161332,1,0,0:2:0:0:
71,328,161514,6,0,L|138:340,1,35,0|0,1:2|0:2,0:2:0:0:
195,352,161696,1,0,0:2:0:0:
195,352,161787,1,0,0:2:0:0:
195,352,161878,2,0,L|262:364,1,35,8|0,1:2|0:2,0:2:0:0:
433,275,162060,5,0,0:2:0:0:
433,275,162150,1,0,0:2:0:0:
433,275,162241,2,0,L|366:287,1,35,0|0,1:2|0:2,0:2:0:0:
309,299,162423,1,0,0:2:0:0:
309,299,162514,1,0,0:2:0:0:
309,299,162605,2,0,L|242:311,1,35,8|0,1:2|0:2,0:2:0:0:
170,244,162787,2,0,L|204:250,1,35,0|0,0:2|0:2,0:2:0:0:
351,233,162969,5,0,1:2:0:0:
366,207,163060,1,0,1:2:0:0:
337,156,163150,1,0,1:2:0:0:
338,124,163241,1,0,1:2:0:0:
379,83,163332,2,0,L|387:23,1,35,8|0,1:2|0:2,0:2:0:0:
289,14,163514,2,0,L|293:48,1,35,0|0,1:2|0:2,0:2:0:0:
401,146,163696,1,0,1:2:0:0:
401,146,163878,1,0,1:2:0:0:
243,95,164060,2,0,B|174:79|174:79|108:93,1,105,8|0,1:2|0:2,0:2:0:0:
48,167,164423,6,0,P|57:236|88:298,1,140,2|8,1:2|1:2,0:2:0:0:
271,384,164969,2,0,P|302:321|310:252,1,140,2|0,0:2|0:2,0:2:0:0:
162,195,165514,2,0,P|190:214|224:221,1,70,10|0,1:2|0:2,0:2:0:0:
393,225,165878,6,0,L|414:173,1,35,0|0,1:2|0:2,0:2:0:0:
468,156,166060,2,0,L|465:99,1,35,0|0,0:2|0:2,0:2:0:0:
424,58,166241,1,8,1:2:0:0:
416,53,166332,1,0,0:2:0:0:
409,49,166423,1,0,0:2:0:0:
226,213,166605,6,0,L|273:182,1,35,0|0,1:2|0:2,0:2:0:0:
327,199,166787,2,0,L|356:151,1,35,0|0,0:2|0:2,0:2:0:0:
347,93,166968,1,8,1:2:0:0:
343,85,167059,1,0,0:2:0:0:
340,80,167150,1,0,0:2:0:0:
251,109,167332,6,0,L|195:101,1,35,0|0,1:2|0:2,0:2:0:0:
124,91,167514,1,0,0:2:0:0:
124,91,167605,1,0,0:2:0:0:
124,91,167696,2,0,L|68:83,1,35,8|0,1:2|0:2,0:2:0:0:
0,217,167878,5,0,0:2:0:0:
0,217,167969,1,0,0:2:0:0:
0,217,168060,2,0,L|56:209,1,35,0|0,1:2|0:2,0:2:0:0:
127,199,168242,1,0,0:2:0:0:
127,199,168333,1,0,0:2:0:0:
127,199,168424,2,0,L|183:191,1,35,8|0,1:2|0:2,0:2:0:0:
265,263,168605,2,0,L|209:255,1,35,0|0,0:2|0:2,0:2:0:0:
112,325,168787,5,0,1:2:0:0:
234,185,168969,1,0,1:2:0:0:
242,124,169060,1,0,1:2:0:0:
212,67,169150,2,0,P|202:53|189:42,1,35,0|0,1:2|0:2,0:2:0:0:
44,89,169332,2,0,P|60:95|77:97,1,35,0|0,1:2|0:2,0:2:0:0:
289,64,169514,2,0,L|356:57,1,68.2499968757631,0|0,1:2|0:2,0:2:0:0:
481,30,169878,6,0,B|522:93|479:166|479:166|431:162|431:103,1,199.499994672775,4|0,0:3|0:2,0:2:0:0:
429,71,170241,5,12,1:3:0:0:
414,57,170332,1,0,0:2:0:0:
380,45,170423,1,0,0:2:0:0:
331,61,170514,1,0,0:2:0:0:
281,116,170605,5,8,1:2:0:0:
266,125,170696,1,0,0:2:0:0:
220,121,170787,1,0,0:2:0:0:
187,79,170878,1,0,0:2:0:0:
148,10,170969,5,0,1:2:0:0:
129,7,171060,1,0,0:2:0:0:
72,15,171151,1,0,0:2:0:0:
35,67,171242,1,0,0:2:0:0:
40,143,171332,5,8,1:2:0:0:
59,130,171423,1,0,0:2:0:0:
115,122,171514,1,0,0:2:0:0:
162,165,171605,1,0,0:2:0:0:
125,229,171696,5,0,1:2:0:0:
107,236,171787,1,0,0:2:0:0:
114,240,171878,5,0,1:2:0:0:
96,247,171969,1,0,0:2:0:0:
28,289,172060,5,8,1:2:0:0:
46,296,172151,1,0,0:2:0:0:
39,300,172242,5,0,0:2:0:0:
57,307,172333,1,0,0:2:0:0:
130,303,172423,5,0,1:2:0:0:
136,320,172514,1,0,0:2:0:0:
86,367,172605,5,0,1:2:0:0:
80,384,172696,1,0,0:2:0:0:
152,384,172787,5,8,1:2:0:0:
202,378,172878,1,0,0:2:0:0:
231,354,172969,1,0,0:2:0:0:
247,318,173060,1,0,0:2:0:0:
238,305,173150,5,0,1:2:0:0:
187,295,173240,1,0,0:2:0:0:
146,273,173331,1,0,0:2:0:0:
134,233,173422,1,0,0:2:0:0:
153,201,173514,5,8,1:2:0:0:
176,194,173604,1,0,0:2:0:0:
201,199,173695,1,0,0:2:0:0:
222,215,173787,1,0,0:2:0:0:
242,229,173878,5,0,1:2:0:0:
294,225,173968,1,0,0:2:0:0:
329,182,174059,1,0,0:2:0:0:
329,125,174150,1,0,0:2:0:0:
318,113,174241,5,8,1:2:0:0:
286,100,174331,1,0,0:2:0:0:
257,68,174422,1,0,0:2:0:0:
251,24,174513,1,0,0:2:0:0:
270,2,174605,5,0,1:2:0:0:
306,11,174696,1,0,1:2:0:0:
361,60,174787,1,0,1:2:0:0:
403,46,174878,1,0,1:2:0:0:
459,13,174969,6,0,L|492:21,1,35,8|0,1:2|0:2,0:2:0:0:
415,106,175150,2,0,L|447:93,1,35,0|0,1:2|0:2,0:2:0:0:
416,204,175332,2,0,L|435:175,1,35,0|0,1:2|0:2,0:2:0:0:
465,294,175514,2,0,L|464:259,1,35,0|0,1:2|0:2,0:2:0:0:
323,41,175696,5,8,1:2:0:0:
260,59,175787,1,0,0:2:0:0:
236,117,175878,1,0,1:2:0:0:
270,160,175969,1,0,0:2:0:0:
286,165,176060,6,0,L|282:269,1,105,0|0,1:2|0:2,0:2:0:0:
265,334,176423,5,8,1:2:0:0:
257,342,176514,1,0,0:2:0:0:
194,345,176605,1,0,0:2:0:0:
186,353,176696,1,0,0:2:0:0:
128,366,176787,2,0,L|73:353,1,35,0|0,1:2|0:2,0:2:0:0:
25,286,176969,2,0,L|60:295,1,35,0|0,0:2|0:2,0:2:0:0:
227,239,177150,6,0,P|176:241|133:270,1,105,8|0,1:2|0:2,0:2:0:0:
90,217,177514,5,0,1:2:0:0:
90,205,177605,1,0,0:2:0:0:
40,166,177696,1,0,1:2:0:0:
45,155,177787,1,0,0:2:0:0:
22,97,177878,2,0,L|62:63,1,35,8|0,1:2|0:2,0:2:0:0:
56,14,178060,2,0,L|108:9,1,35,0|0,0:2|0:2,0:2:0:0:
190,37,178241,5,0,1:2:0:0:
180,52,178332,1,0,0:2:0:0:
219,101,178423,1,0,1:2:0:0:
215,118,178514,1,0,0:2:0:0:
257,176,178605,2,0,L|359:154,1,105,8|0,1:2|0:2,0:2:0:0:
359,153,178969,5,0,1:2:0:0:
319,245,179150,2,0,L|284:252,1,35,0|0,0:2|0:2,0:2:0:0:
392,316,179332,2,0,L|359:302,1,35,8|0,1:2|0:2,0:2:0:0:
476,253,179514,2,0,L|443:266,1,35,0|0,0:2|0:2,0:2:0:0:
391,200,179696,5,0,1:2:0:0:
396,183,179787,1,0,0:2:0:0:
355,133,179878,1,0,1:2:0:0:
368,121,179969,1,0,0:2:0:0:
350,57,180059,2,0,L|454:77,1,105,8|0,1:2|0:2,0:2:0:0:
453,76,180423,5,0,1:2:0:0:
300,11,180605,1,0,1:2:0:0:
241,41,180696,1,0,1:2:0:0:
182,14,180787,1,8,1:2:0:0:
86,123,180969,1,0,0:2:0:0:
127,64,181150,5,0,1:2:0:0:
134,80,181241,1,0,0:2:0:0:
192,108,181332,1,0,1:2:0:0:
188,125,181423,1,0,0:2:0:0:
222,182,181514,2,0,L|115:212,1,105,8|0,1:2|0:2,0:2:0:0:
120,210,181878,5,4,3:2:0:0:
51,303,182060,1,0,3:2:0:0:
56,328,182150,1,0,0:2:0:0:
60,354,182241,1,0,0:2:0:0:
128,316,182423,1,0,3:2:0:0:
132,290,182514,1,0,0:2:0:0:
137,265,182604,1,0,0:2:0:0:
203,302,182787,1,0,3:2:0:0:
208,327,182877,1,0,0:2:0:0:
212,353,182968,1,0,0:2:0:0:
278,307,183150,1,0,3:2:0:0:
282,281,183241,1,0,0:2:0:0:
287,256,183331,1,0,0:2:0:0:
357,290,183514,1,0,3:2:0:0:
362,315,183604,1,0,0:2:0:0:
366,341,183695,1,0,0:2:0:0:
452,283,183878,1,0,3:2:0:0:
456,257,183969,1,0,0:2:0:0:
461,232,184059,1,0,0:2:0:0:
354,164,184241,1,0,3:2:0:0:
359,189,184331,1,0,0:2:0:0:
363,215,184422,1,0,0:2:0:0:
453,144,184605,1,0,3:2:0:0:
457,118,184696,1,0,0:2:0:0:
462,93,184787,1,0,0:2:0:0:
355,20,184969,1,0,3:2:0:0:
360,45,185060,1,0,0:2:0:0:
364,71,185150,1,0,0:2:0:0:
382,179,185332,1,0,3:2:0:0:
393,156,185423,1,0,0:2:0:0:
404,133,185514,1,0,0:2:0:0:
379,246,185696,1,0,3:2:0:0:
356,258,185787,1,0,0:2:0:0:
334,271,185878,1,0,0:2:0:0:
246,325,186060,1,0,3:2:0:0:
272,327,186151,1,0,0:2:0:0:
298,331,186241,1,0,0:2:0:0:
75,384,186423,5,0,0:2:0:0:
125,341,186514,1,0,0:2:0:0:
188,343,186605,1,2,0:1:0:0:
17,268,186787,1,2,0:1:0:0:
82,292,186969,1,2,0:1:0:0:
89,258,187060,1,2,0:1:0:0:
94,227,187150,1,2,0:1:0:0:
99,192,187241,1,2,0:1:0:0:
149,136,187332,5,2,0:1:0:0:
155,130,187393,1,2,0:1:0:0:
159,122,187453,1,2,0:1:0:0:
162,114,187514,1,2,0:1:0:0:
163,105,187575,1,2,0:1:0:0:
162,96,187635,1,2,0:1:0:0:
159,89,187696,6,0,L|143:20,1,70,4|0,1:2|0:2,0:2:0:0:
313,34,188060,1,8,1:2:0:0:
306,101,188150,1,0,0:2:0:0:
387,23,188241,1,0,0:2:0:0:
324,38,188332,1,0,0:2:0:0:
295,104,188423,2,0,L|289:165,1,35,0|0,1:2|0:2,0:2:0:0:
357,161,188605,2,0,L|368:214,1,35,0|0,0:2|0:2,0:2:0:0:
437,299,188787,2,0,P|388:280|336:283,1,105,8|0,1:2|0:2,0:2:0:0:
201,274,189150,5,0,1:2:0:0:
248,228,189241,1,0,0:2:0:0:
138,256,189332,1,0,0:2:0:0:
202,284,189423,1,0,0:2:0:0:
258,230,189514,2,0,L|268:180,1,35,8|0,1:2|0:2,0:2:0:0:
157,133,189696,2,0,L|163:167,1,35,0|0,0:2|0:2,0:2:0:0:
122,370,189878,6,0,L|179:360,1,35,0|0,1:2|0:2,0:2:0:0:
215,292,190060,2,0,L|249:298,1,35,0|0,0:2|0:2,0:2:0:0:
422,378,190241,1,8,1:2:0:0:
347,360,190423,1,0,0:2:0:0:
505,289,190605,5,0,1:2:0:0:
380,301,190787,2,0,L|414:305,1,35,0|0,0:2|0:2,0:2:0:0:
512,309,190969,1,8,1:2:0:0:
323,245,191150,2,0,L|354:229,1,35,0|0,0:2|0:2,0:2:0:0:
411,138,191332,2,0,L|380:154,1,35,0|0,1:2|0:2,0:2:0:0:
226,263,191514,2,0,L|243:214,1,35
314,105,191696,2,0,L|302:138,1,35,8|0,1:2|0:0,0:0:0:0:
332,257,191878,1,0,0:2:0:0:
186,335,192060,5,0,1:2:0:0:
151,338,192150,1,0,1:2:0:0:
88,301,192241,1,0,1:2:0:0:
53,289,192332,1,0,1:2:0:0:
0,364,192423,2,0,L|56:353,1,35,8|0,1:2|0:2,0:2:0:0:
146,263,192605,2,0,L|180:269,1,35,0|0,1:2|0:2,0:2:0:0:
38,68,192787,5,0,0:2:0:0:
50,133,192969,1,0,0:2:0:0:
115,121,193150,1,0,0:2:0:0:
103,56,193332,2,0,L|97:25,1,17.5
86,207,193514,5,4,0:2:0:0:
188,138,193696,1,0,0:2:0:0:
196,22,193878,1,8,0:2:0:0:
81,231,194060,5,0,0:2:0:0:
205,146,194241,1,0,0:2:0:0:
37,7,194423,5,0,0:2:0:0:
76,250,194605,1,8,0:2:0:0:
249,371,194787,1,0,0:2:0:0:
247,228,194969,5,0,0:2:0:0:
154,282,195150,1,0,0:2:0:0:
111,374,195332,1,8,0:2:0:0:
246,211,195514,5,0,0:2:0:0:
145,272,195696,1,0,0:2:0:0:
353,379,195878,5,0,0:2:0:0:
331,159,196060,1,8,0:2:0:0:
174,34,196241,1,0,0:2:0:0:
211,142,196423,5,0,0:2:0:0:
311,66,196605,1,0,0:2:0:0:
446,84,196787,1,8,0:2:0:0:
201,125,196969,5,0,0:2:0:0:
326,70,197150,1,0,0:2:0:0:
461,104,197332,1,0,0:2:0:0:
215,106,197514,5,8,0:2:0:0:
476,124,197696,1,0,0:2:0:0:
376,273,197878,5,0,0:2:0:0:
100,249,198060,1,0,0:2:0:0:
284,223,198241,5,8,0:2:0:0:
18,338,198423,1,0,0:2:0:0:
203,290,198605,5,0,0:2:0:0:
188,189,198787,1,0,0:2:0:0:
226,114,198969,1,8,0:2:0:0:
208,29,199150,1,0,0:2:0:0:
67,25,199332,6,0,L|59:54,1,17.5,0|0,0:2|0:2,0:2:0:0:
20,141,199514,1,0,0:2:0:0:
69,252,199696,1,8,0:2:0:0:
33,357,199878,1,0,0:2:0:0:
186,273,200060,5,0,0:0:0:0:
291,207,200241,1,0,0:0:0:0:
357,307,200423,2,0,L|494:333,1,140,8|0,0:2|0:2,0:2:0:0:
406,235,200969,6,0,L|398:206,1,17.5,0|0,0:2|0:2,0:2:0:0:
313,136,201150,1,8,0:2:0:0:
407,35,201332,1,0,0:2:0:0:
258,11,201514,6,0,L|229:19,1,17.5,0|0,0:2|0:2,0:2:0:0:
143,107,201696,2,0,L|114:99,1,17.5,0|0,0:2|0:2,0:2:0:0:
15,31,201878,1,8,0:2:0:0:
164,7,202060,1,0,0:2:0:0:
230,192,202241,5,0,0:2:0:0:
247,94,202423,1,0,0:2:0:0:
230,192,202605,1,8,0:2:0:0:
247,94,202787,1,0,0:2:0:0:
326,228,202969,5,0,0:2:0:0:
420,222,203150,1,0,0:2:0:0:
489,159,203332,1,8,0:2:0:0:
498,54,203514,1,0,0:2:0:0:
186,228,203696,5,0,0:2:0:0:
92,222,203877,1,0,0:2:0:0:
23,159,204059,1,8,0:2:0:0:
14,54,204241,1,0,0:2:0:0:
303,10,204423,5,0,0:2:0:0:
232,123,204605,1,0,0:2:0:0:
305,233,204787,1,8,0:2:0:0:
248,380,204969,1,0,0:2:0:0:
133,278,205150,6,0,L|148:227,2,46.6666666666667,0|0|0,0:2|0:2|0:2,0:2:0:0:
59,96,205514,5,0,0:2:0:0:
35,157,205635,1,0,0:0:0:0:
79,205,205756,1,0,0:0:0:0:
172,124,205878,5,0,0:2:0:0:
190,70,205999,1,0,0:2:0:0:
165,20,206120,1,0,0:2:0:0:
101,149,206241,5,0,0:2:0:0:
152,130,206363,1,0,0:2:0:0:
204,158,206484,1,0,0:2:0:0:
285,253,206605,5,0,0:2:0:0:
181,219,206726,1,0,0:2:0:0:
264,270,206847,5,0,0:2:0:0:
175,226,206969,1,0,0:2:0:0:
238,279,207090,5,0,0:2:0:0:
166,232,207211,1,0,0:2:0:0:
215,283,207332,5,0,0:2:0:0:
157,235,207453,1,0,0:2:0:0:
186,284,207575,5,0,0:2:0:0:
148,235,207696,1,0,0:2:0:0:
159,278,207817,5,0,0:2:0:0:
137,234,207938,1,0,0:2:0:0:
141,172,208060,6,0,B|154:132|199:105|199:105|249:33|164:4|121:77|199:105|199:105|246:103|279:127|279:127|324:132|362:104|362:104|386:135|441:130,1,525,0|0,0:2|0:2,0:2:0:0:
434,130,209514,6,0,L|443:213,1,83.9999974365235,4|0,1:2|0:2,0:2:0:0:
350,160,209878,2,0,L|359:243,1,83.9999974365235,0|0,1:2|0:2,0:2:0:0:
265,189,210241,2,0,L|274:272,1,83.9999974365235,0|0,1:2|0:2,0:2:0:0:
180,218,210605,2,0,L|189:301,1,83.9999974365235,0|0,1:2|0:2,0:2:0:0:
95,247,210969,2,0,L|99:288,1,41.9999987182618,0|0,1:2|0:2,0:2:0:0:
99,288,211150,2,0,L|103:329,1,41.9999987182618,0|0,0:2|0:2,0:2:0:0:
4,276,211332,2,0,L|13:359,1,83.9999974365235,0|0,1:2|0:2,0:2:0:0:
95,247,211696,2,0,L|99:288,1,41.9999987182618,0|0,1:2|0:2,0:2:0:0:
99,288,211878,2,0,L|103:329,1,41.9999987182618,0|0,0:2|0:2,0:2:0:0:
12,193,212060,2,0,L|8:234,1,41.9999987182618,0|0,1:2|0:2,0:2:0:0:
8,234,212241,2,0,L|4:275,1,41.9999987182618,0|0,0:2|0:2,0:2:0:0:
95,77,212423,6,0,L|86:160,1,83.9999974365235,0|0,1:2|0:2,0:2:0:0:
173,131,212787,2,0,L|164:214,1,83.9999974365235,0|0,1:2|0:2,0:2:0:0:
251,185,213150,2,0,L|242:268,1,83.9999974365235,0|0,1:2|0:2,0:2:0:0:
329,239,213514,2,0,L|320:322,1,83.9999974365235,0|0,1:2|0:2,0:2:0:0:
407,293,213878,2,0,L|402:334,1,41.9999987182618,0|0,1:2|0:2,0:2:0:0:
397,375,214060,2,0,L|402:334,1,41.9999987182618,0|0,0:2|0:2,0:2:0:0:
483,207,214241,2,0,L|487:248,1,41.9999987182618,0|0,1:2|0:2,0:2:0:0:
492,290,214423,2,0,L|487:248,1,41.9999987182618,0|0,0:2|0:2,0:2:0:0:
403,170,214605,6,0,P|383:167|363:160,1,41.9999987182618,0|0,1:2|0:2,0:2:0:0:
402,105,214787,2,0,P|387:90|375:72,1,41.9999987182618,0|0,0:2|0:2,0:2:0:0:
181,58,214969,2,0,P|243:61|294:96,1,125.999996154785,0|0,1:2|0:2,0:2:0:0:
294,96,215332,6,0,P|252:93|207:61,1,83.9999974365235,0|0,1:2|0:2,0:2:0:0:
301,224,215696,2,0,P|268:197|249:145,1,83.9999974365235,0|0,1:2|0:2,0:2:0:0:
237,330,216060,2,0,P|225:289|240:236,1,83.9999974365235,0|0,1:2|0:2,0:2:0:0:
126,381,216423,2,0,P|139:341|182:306,1,83.9999974365235,0|0,1:2|0:2,0:2:0:0:
5,340,216787,2,0,P|19:325|38:315,1,41.9999987182618,0|0,1:2|0:2,0:2:0:0:
163,318,216969,2,0,P|142:321|121:318,1,41.9999987182618,0|0,0:2|0:2,0:2:0:0:
88,179,217150,2,0,P|94:220|86:261,1,83.9999974365235,0|0,1:2|0:2,0:2:0:0:
33,138,217514,6,0,P|38:112|55:91,1,41.9999987182618,0|0,1:2|0:2,0:2:0:0:
118,41,217696,2,0,P|143:32|169:36,1,41.9999987182618,0|0,0:2|0:2,0:2:0:0:
271,103,217878,2,0,P|262:84|247:69,1,41.9999987182618,0|0,1:2|0:2,0:2:0:0:
158,33,218060,2,0,P|137:33|118:41,1,41.9999987182618,0|0,0:2|0:2,0:2:0:0:
165,163,218241,6,0,L|275:137,1,83.9999974365235,0|0,1:2|0:2,0:2:0:0:
326,12,218605,2,0,L|245:32,1,83.9999974365235,0|0,1:2|0:2,0:2:0:0:
222,256,218969,2,0,L|303:236,1,83.9999974365235,0|0,1:2|0:2,0:2:0:0:
392,72,219332,2,0,L|433:82,1,41.9999987182618,0|0,1:2|0:2,0:2:0:0:
474,92,219514,2,0,L|433:82,1,41.9999987182618,0|0,0:2|0:2,0:2:0:0:
346,175,219696,5,0,1:2:0:0:
360,205,219787,1,0,1:2:0:0:
327,258,219878,1,0,1:2:0:0:
318,285,219969,1,0,1:2:0:0:
356,346,220060,1,0,1:2:0:0:
360,357,220241,5,0,1:2:0:0:
236,271,220423,2,0,L|188:265,1,41.9999987182618,0|0,0:2|0:2,0:2:0:0:
36,316,220605,2,0,L|84:310,1,41.9999987182618,0|0,0:2|0:2,0:2:0:0:
135,122,220787,2,0,B|121:168|121:168|129:199|129:199|121:246,1,125.999996154785,0|0,0:2|0:2,0:2:0:0:
60,198,221150,5,4,1:2:0:0:
186,169,221332,1,0,0:2:0:0:
63,136,221514,5,8,1:2:0:0:
186,169,221696,1,0,0:2:0:0:
96,79,221878,5,0,1:2:0:0:
186,169,222060,1,0,0:2:0:0:
154,47,222241,5,8,1:2:0:0:
186,169,222423,1,0,0:2:0:0:
154,47,222605,5,0,1:2:0:0:
252,69,222787,1,0,0:2:0:0:
352,92,222969,1,8,1:2:0:0:
252,69,223150,1,0,0:2:0:0:
154,47,223332,5,0,1:2:0:0:
352,92,223514,1,0,0:2:0:0:
154,47,223696,5,8,1:2:0:0:
352,92,223878,1,0,0:2:0:0:
479,50,224060,5,0,1:2:0:0:
352,92,224241,1,0,0:2:0:0:
483,120,224423,5,8,1:2:0:0:
352,92,224604,1,0,0:2:0:0:
452,182,224787,5,0,1:2:0:0:
352,92,224968,1,0,0:2:0:0:
394,220,225150,5,8,1:2:0:0:
352,92,225331,1,0,0:2:0:0:
325,224,225514,1,0,1:2:0:0:
331,191,225604,1,0,1:2:0:0:
338,158,225695,1,0,1:2:0:0:
345,125,225786,1,0,1:2:0:0:
352,92,225877,1,8,1:2:0:0:
394,220,226060,1,0,0:2:0:0:
222,294,226241,5,0,1:2:0:0:
394,220,226423,1,0,0:2:0:0:
222,294,226605,2,0,L|230:379,1,83.9999974365235,8|0,1:2|0:2,0:2:0:0:
309,217,226969,5,0,1:2:0:0:
347,62,227150,1,0,0:2:0:0:
296,24,227332,5,8,1:2:0:0:
355,172,227514,1,0,0:2:0:0:
240,178,227696,5,0,1:2:0:0:
288,40,227878,1,0,0:2:0:0:
235,11,228060,5,8,1:2:0:0:
300,194,228241,1,0,0:2:0:0:
178,162,228423,5,0,1:2:0:0:
89,136,228605,1,0,0:2:0:0:
3,108,228787,1,8,1:2:0:0:
89,136,228969,1,0,0:2:0:0:
178,162,229150,5,0,1:2:0:0:
3,108,229332,1,0,0:2:0:0:
178,162,229514,5,8,1:2:0:0:
3,108,229696,1,0,0:2:0:0:
228,106,229878,5,0,1:2:0:0:
199,355,230060,1,0,0:2:0:0:
152,313,230241,1,8,1:2:0:0:
386,213,230423,1,0,0:2:0:0:
374,275,230604,1,0,1:2:0:0:
167,126,230787,1,0,0:2:0:0:
228,106,230969,1,8,1:2:0:0:
296,350,231150,1,0,0:2:0:0:
231,281,231332,5,0,1:2:0:0:
239,248,231423,1,0,1:2:0:0:
289,196,231514,1,0,1:2:0:0:
277,167,231605,1,0,1:2:0:0:
228,106,231696,2,0,L|241:8,1,83.9999974365235,8|0,1:2|1:2,0:2:0:0:
176,252,232060,5,0,1:2:0:0:
277,167,232241,1,0,1:2:0:0:
166,80,232423,1,8,1:2:0:0:
297,0,232605,1,0,1:2:0:0:
182,178,232787,6,0,B|152:182|152:182|93:191|44:151|44:151|92:168|132:137|132:137|42:223|80:317,1,416.500007944107,2|0,1:2|0:2,0:2:0:0:
138,343,233514,6,0,B|271:308|319:338|319:338|222:373|177:264,1,367.49998878479,2|0,1:2|0:2,0:2:0:0:
167,117,234060,6,0,B|156:66|223:14|223:14|267:107|220:185,1,293.999991027832,2|0,1:2|1:2,0:2:0:0:
156,187,234514,1,0,0:2:0:0:
131,192,234605,1,8,1:2:0:0:
99,190,234696,1,0,0:2:0:0:
73,182,234787,1,0,0:2:0:0:
54,162,234878,1,0,0:2:0:0:
48,135,234969,1,0,1:2:0:0:
51,126,235060,5,0,0:2:0:0:
71,121,235150,1,0,1:2:0:0:
94,109,235241,1,0,0:2:0:0:
116,85,235332,1,8,1:2:0:0:
141,55,235423,1,0,0:2:0:0:
206,26,235514,1,0,0:2:0:0:
279,40,235605,2,0,P|310:58|334:87,1,73.4999977569581,0|0,0:2|1:2,0:2:0:0:
472,203,235787,5,0,0:2:0:0:
472,246,235878,1,0,1:2:0:0:
448,283,235969,1,0,0:2:0:0:
407,296,236060,1,8,1:2:0:0:
349,277,236150,5,0,0:2:0:0:
298,252,236241,1,0,0:2:0:0:
242,266,236332,1,0,0:2:0:0:
206,313,236423,1,0,1:2:0:0:
161,369,236514,5,0,0:2:0:0:
86,374,236605,1,0,1:2:0:0:
39,324,236696,1,0,0:2:0:0:
35,253,236787,6,0,L|49:170,1,73.4999977569581,8|0,1:2|0:2,0:2:0:0:
116,73,236969,2,0,L|128:145,1,73.4999977569581,0|0,0:2|0:2,0:2:0:0:
190,267,237150,5,0,1:2:0:0:
226,273,237241,1,0,1:2:0:0:
285,223,237332,1,0,1:2:0:0:
317,219,237423,1,0,1:2:0:0:
383,259,237514,2,0,L|395:352,1,73.4999977569581,8|0,1:2|0:2,0:2:0:0:
475,158,237696,2,0,L|463:251,1,73.4999977569581,0|0,0:2|0:2,0:2:0:0:
358,141,237878,1,0,1:2:0:0:
343,106,237969,1,0,0:2:0:0:
346,72,238060,5,0,0:2:0:0:
351,64,238120,1,0,0:2:0:0:
356,54,238181,1,0,0:2:0:0:
361,44,238241,2,0,B|267:36|219:81|219:81|218:40|155:0,1,220.499993270874,8|0,1:2|0:2,0:2:0:0:
76,102,238605,5,0,1:2:0:0:
154,80,238696,1,0,0:2:0:0:
102,126,238787,5,0,2:2:0:0:
154,80,238878,1,0,2:2:0:0:
129,133,238969,5,8,1:2:0:0:
154,80,239060,1,0,2:2:0:0:
154,133,239150,5,0,2:2:0:0:
154,80,239241,1,0,2:2:0:0:
121,23,239332,6,0,L|32:39,1,73.4999977569581,0|0,1:2|0:2,0:2:0:0:
0,169,239514,2,0,L|89:185,1,73.4999977569581,0|0,0:2|0:2,0:2:0:0:
245,151,239696,2,0,L|156:167,1,73.4999977569581,8|0,1:2|0:2,0:2:0:0:
116,284,239878,2,0,L|205:300,1,73.4999977569581,0|0,0:2|0:2,0:2:0:0:
264,297,240059,5,0,1:2:0:0:
215,231,240150,1,0,0:2:0:0:
276,264,240241,5,0,2:2:0:0:
215,231,240332,1,0,2:2:0:0:
274,237,240423,5,8,1:2:0:0:
215,231,240514,1,0,2:2:0:0:
265,212,240604,5,0,2:2:0:0:
215,231,240695,1,0,2:2:0:0:
183,281,240787,6,0,P|183:332|207:380,1,73.4999977569581,0|0,1:2|0:2,0:2:0:0:
343,240,240969,2,0,P|336:203|318:171,1,73.4999977569581,0|0,0:2|0:2,0:2:0:0:
28,59,241150,1,8,1:2:0:0:
54,40,241241,1,0,0:2:0:0:
106,42,241332,1,0,0:2:0:0:
140,99,241423,1,0,0:2:0:0:
108,167,241514,6,0,L|89:256,1,73.4999977569581,0|0,1:2|0:2,0:2:0:0:
230,377,241696,2,0,L|214:305,1,73.4999977569581,0|0,0:2|0:2,0:2:0:0:
301,149,241878,1,8,1:2:0:0:
301,149,241969,5,0,0:2:0:0:
285,166,242060,1,0,0:2:0:0:
278,193,242150,1,0,0:2:0:0:
390,188,242241,1,0,1:2:0:0:
381,165,242332,5,0,0:2:0:0:
360,150,242423,1,0,0:2:0:0:
286,251,242514,1,0,0:2:0:0:
309,267,242605,5,8,1:2:0:0:
334,270,242696,1,0,0:2:0:0:
388,246,242787,5,0,0:2:0:0:
395,233,242877,1,0,0:2:0:0:
419,172,242969,5,8,1:2:0:0:
416,165,243029,1,0,0:2:0:0:
414,158,243090,1,0,0:2:0:0:
415,153,243150,1,8,0:2:0:0:
416,147,243211,1,0,0:2:0:0:
418,140,243272,1,0,0:2:0:0:
440,112,243332,5,8,1:2:0:0:
443,105,243392,1,0,0:2:0:0:
445,98,243453,1,0,0:2:0:0:
444,93,243513,1,8,0:2:0:0:
443,87,243574,1,0,0:2:0:0:
441,80,243635,1,0,0:2:0:0:
418,64,243696,6,0,L|418:30,5,30.3333319447836,8|0|0|8|0|0,1:2|0:2|0:2|0:2|0:2|0:2,0:2:0:0:
343,89,244060,6,0,B|308:94|285:112|285:112|240:74|158:88|158:88|193:103,1,220.499993270874,8|0,1:2|0:2,0:2:0:0:
217,149,244423,5,4,1:2:0:0:
227,176,244514,1,0,0:2:0:0:
216,204,244605,1,0,0:2:0:0:
203,178,244696,1,0,0:2:0:0:
217,149,244787,5,8,1:2:0:0:
238,124,244878,1,0,0:2:0:0:
232,96,244969,1,0,0:2:0:0:
214,120,245060,1,0,0:2:0:0:
217,149,245150,5,0,1:2:0:0:
208,177,245241,1,0,0:2:0:0:
182,191,245332,1,0,0:2:0:0:
188,163,245423,1,0,0:2:0:0:
217,149,245514,5,8,1:2:0:0:
248,154,245605,1,0,0:2:0:0:
269,134,245696,1,0,0:2:0:0:
240,131,245787,1,0,0:2:0:0:
217,149,245878,5,0,1:2:0:0:
177,142,245969,1,0,0:2:0:0:
149,115,246060,1,0,0:2:0:0:
136,122,246150,5,0,0:2:0:0:
107,93,246241,1,8,1:2:0:0:
99,55,246332,1,0,0:2:0:0:
87,60,246423,5,0,0:2:0:0:
99,96,246514,1,0,0:2:0:0:
88,136,246605,1,0,1:2:0:0:
101,143,246696,5,0,0:2:0:0:
90,179,246787,1,0,0:2:0:0:
58,205,246878,1,0,0:2:0:0:
70,213,246969,5,8,1:2:0:0:
42,235,247060,1,0,0:2:0:0:
2,238,247151,1,0,0:2:0:0:
10,232,247241,1,0,0:2:0:0:
20,224,247332,5,0,1:2:0:0:
35,244,247423,1,0,0:2:0:0:
42,275,247514,1,0,0:2:0:0:
33,313,247605,5,0,0:2:0:0:
59,289,247696,1,8,1:2:0:0:
94,278,247787,1,0,0:2:0:0:
160,284,247878,1,0,0:2:0:0:
166,295,247969,1,0,0:2:0:0:
171,305,248060,5,0,1:2:0:0:
183,276,248150,1,0,0:2:0:0:
210,248,248241,1,0,0:2:0:0:
225,246,248332,5,0,0:2:0:0:
201,218,248423,1,8,1:2:0:0:
202,186,248514,1,0,0:2:0:0:
246,135,248605,1,0,0:2:0:0:
259,131,248696,1,0,0:2:0:0:
274,128,248787,5,0,1:2:0:0:
266,120,248878,1,0,1:2:0:0:
257,84,248969,1,0,1:2:0:0:
272,33,249060,1,0,1:2:0:0:
316,0,249150,5,8,1:2:0:0:
357,39,249241,1,0,0:2:0:0:
367,92,249332,1,0,1:2:0:0:
354,143,249423,1,0,0:2:0:0:
357,151,249514,5,0,1:2:0:0:
371,149,249605,1,0,0:2:0:0:
395,152,249696,1,0,0:2:0:0:
423,167,249787,1,0,0:2:0:0:
444,202,249878,5,8,1:2:0:0:
408,223,249969,1,0,0:2:0:0:
370,219,250060,1,0,0:2:0:0:
352,209,250150,1,0,0:2:0:0:
347,200,250241,5,0,1:2:0:0:
358,238,250332,1,0,0:2:0:0:
348,279,250423,1,0,0:2:0:0:
358,282,250514,5,0,0:2:0:0:
315,302,250605,1,8,1:2:0:0:
268,302,250696,1,0,0:2:0:0:
263,314,250787,5,0,0:2:0:0:
221,301,250878,1,0,0:2:0:0:
212,304,250969,5,0,1:2:0:0:
242,265,251060,1,0,0:2:0:0:
240,217,251150,1,0,0:2:0:0:
226,213,251241,5,0,0:2:0:0:
244,168,251332,1,8,1:2:0:0:
291,159,251423,1,0,0:2:0:0:
301,169,251514,5,0,0:2:0:0:
341,142,251605,1,0,0:2:0:0:
354,87,251696,5,0,1:2:0:0:
300,65,251787,1,0,0:2:0:0:
248,83,251878,1,0,0:2:0:0:
240,69,251969,5,0,0:2:0:0:
184,83,252060,1,8,1:2:0:0:
128,58,252150,1,0,0:2:0:0:
135,43,252241,5,0,0:2:0:0:
142,30,252332,1,0,0:2:0:0:
53,76,252423,5,0,1:2:0:0:
70,84,252514,1,0,0:2:0:0:
49,153,252605,5,0,0:2:0:0:
65,146,252696,1,0,0:2:0:0:
121,188,252787,5,8,1:2:0:0:
124,175,252878,1,0,0:2:0:0:
202,171,252969,5,0,0:2:0:0:
189,157,253060,1,0,0:2:0:0:
215,205,253150,5,0,1:2:0:0:
210,240,253241,1,0,0:2:0:0:
190,266,253332,1,0,0:2:0:0:
155,274,253423,1,0,0:2:0:0:
120,259,253514,5,8,1:2:0:0:
156,242,253605,1,0,0:2:0:0:
200,246,253696,1,0,0:2:0:0:
235,271,253787,1,0,0:2:0:0:
261,307,253878,5,0,1:2:0:0:
202,300,253969,1,0,0:2:0:0:
172,251,254060,1,0,0:2:0:0:
175,191,254150,1,0,0:2:0:0:
210,143,254241,5,8,1:2:0:0:
210,143,254605,5,0,1:2:0:0:
247,144,254696,1,0,0:2:0:0:
282,133,254787,1,0,0:2:0:0:
304,103,254878,1,0,0:2:0:0:
311,69,254969,5,0,1:2:0:0:
264,101,255060,1,0,0:2:0:0:
254,157,255150,1,0,0:2:0:0:
286,209,255241,1,0,0:2:0:0:
355,237,255332,5,0,1:2:0:0:
290,192,255423,1,0,0:2:0:0:
204,195,255514,1,0,0:2:0:0:
131,249,255605,1,0,0:2:0:0:
91,328,255696,2,0,L|103:399,1,57.7500017623902,0|0,1:2|0:2,0:2:0:0:
100,384,256060,5,12,1:3:0:0:
27,278,256241,1,0,0:2:0:0:
24,249,256332,1,0,0:2:0:0:
22,222,256423,1,8,1:2:0:0:
125,118,256605,1,0,0:2:0:0:
123,145,256696,1,0,0:2:0:0:
120,174,256787,1,0,1:2:0:0:
22,114,256969,1,0,0:2:0:0:
19,85,257060,1,0,0:2:0:0:
16,55,257150,2,0,B|107:27|191:82|191:82|227:41|306:57,1,293.999991027832,8|0,1:2|0:2,0:2:0:0:
259,120,257514,5,0,1:2:0:0:
251,145,257605,1,0,0:2:0:0:
316,192,257696,1,0,1:2:0:0:
320,212,257787,1,0,0:2:0:0:
266,283,257878,5,8,1:2:0:0:
433,355,258060,5,0,0:2:0:0:
440,337,258150,1,0,0:2:0:0:
400,287,258241,1,0,1:2:0:0:
397,274,258332,1,0,0:2:0:0:
443,215,258423,1,0,1:2:0:0:
446,203,258514,1,0,0:2:0:0:
403,144,258605,6,0,P|355:39|315:147,1,293.999991027832,8|0,1:2|0:2,0:2:0:0:
368,196,258969,5,0,1:2:0:0:
226,149,259150,1,0,0:2:0:0:
211,144,259241,1,0,0:2:0:0:
196,140,259332,1,8,1:2:0:0:
0,257,259514,1,0,0:2:0:0:
15,252,259605,1,0,0:2:0:0:
31,249,259696,1,0,1:2:0:0:
45,245,259787,1,0,0:2:0:0:
50,178,259878,1,0,0:2:0:0:
66,182,259969,1,0,0:2:0:0:
123,198,260060,6,0,L|219:214,1,97.9999970092774,8|0,1:2|0:2,0:2:0:0:
400,103,260241,2,0,L|303:119,1,97.9999970092774,0|0,0:2|0:2,0:2:0:0:
176,277,260423,2,0,L|272:293,1,97.9999970092774,0|0,1:2|1:2,0:2:0:0:
454,166,260605,2,0,L|357:182,1,97.9999970092774,0|0,1:2|1:2,0:2:0:0:
201,349,260787,2,0,L|297:365,1,97.9999970092774,8|0,1:2|0:2,0:2:0:0:
508,230,260969,2,0,L|411:246,1,97.9999970092774,0|0,0:2|0:2,0:2:0:0:
224,278,261150,5,0,1:2:0:0:
169,311,261241,1,0,0:2:0:0:
113,269,261332,1,0,0:2:0:0:
65,316,261423,1,0,0:2:0:0:
11,293,261514,1,8,1:2:0:0:
121,370,261696,1,0,0:2:0:0:
197,212,261878,5,4,1:2:0:0:
118,58,262060,1,0,0:2:0:0:
113,87,262150,1,0,0:2:0:0:
108,113,262241,1,8,1:2:0:0:
279,210,262423,1,0,0:2:0:0:
274,184,262514,1,0,0:2:0:0:
269,155,262604,5,0,1:2:0:0:
269,155,262696,1,0,0:2:0:0:
269,155,262787,2,0,L|261:189,1,35
81,267,262969,5,8,1:2:0:0:
81,267,263061,1,0,0:2:0:0:
81,267,263150,1,0,0:2:0:0:
350,357,263332,5,0,1:2:0:0:
350,357,263423,1,0,0:2:0:0:
350,357,263514,1,0,1:2:0:0:
118,0,263696,5,8,1:2:0:0:
118,0,263787,1,0,0:2:0:0:
118,0,263878,1,0,0:2:0:0:
198,244,264060,5,0,1:2:0:0:
198,244,264150,1,0,0:2:0:0:
198,244,264241,1,0,1:2:0:0:
350,100,264423,5,8,1:2:0:0:
350,100,264514,1,0,0:2:0:0:
350,100,264605,1,0,0:2:0:0:
160,172,264787,6,0,L|211:159,1,52.5000020027161,0|0,1:2|0:2,0:2:0:0:
330,67,264969,2,0,L|279:54,1,52.5000020027161,0|0,0:2|0:2,0:2:0:0:
274,199,265150,1,8,1:2:0:0:
274,199,265241,2,0,L|325:186,1,52.5000020027161,0|0,0:2|0:2,0:2:0:0:
452,80,265423,1,0,0:0:0:0:
452,80,265514,2,0,L|401:67,1,52.5000020027161,0|0,1:2|0:2,0:2:0:0:
235,284,265696,1,0,0:0:0:0:
235,284,265787,2,0,L|286:271,1,52.5000020027161,0|8,0:2|1:2,0:2:0:0:
482,232,265969,5,0,0:0:0:0:
483,246,266060,1,0,0:2:0:0:
479,262,266150,1,0,0:2:0:0:
472,275,266241,1,0,1:2:0:0:
264,331,266423,1,0,1:2:0:0:
462,360,266605,1,0,1:2:0:0:
426,352,266696,1,0,0:2:0:0:
393,328,266787,1,0,1:2:0:0:
379,298,266878,1,0,0:2:0:0:
377,257,266969,5,0,1:2:0:0:
383,245,267060,1,0,0:2:0:0:
334,179,267150,5,0,1:2:0:0:
328,167,267241,1,0,0:2:0:0:
384,111,267332,5,0,1:2:0:0:
332,62,267423,1,0,1:2:0:0:
256,50,267514,1,0,1:2:0:0:
189,78,267605,1,0,1:2:0:0:
159,152,267696,6,0,L|182:264,1,105.000004005432,4|0,1:2|0:2,0:2:0:0:
38,340,268060,2,0,L|60:238,1,105.000004005432,8|0,1:2|0:2,0:2:0:0:
388,279,268423,2,0,L|180:254,1,210.000008010865,0|8,1:2|1:2,0:2:0:0:
60,238,268969,1,0,0:2:0:0:
208,188,269150,5,0,1:2:0:0:
125,310,269332,1,0,1:2:0:0:
161,141,269514,1,8,1:2:0:0:
183,341,269696,1,0,0:2:0:0:
92,135,269878,6,0,P|158:67|230:130,1,210.000008010865,0|8,1:2|1:2,0:2:0:0:
167,222,270423,1,0,0:2:0:0:
217,51,270605,5,0,1:2:0:0:
390,91,270787,1,0,0:2:0:0:
217,51,270969,1,8,1:2:0:0:
307,72,271150,1,0,0:2:0:0:
217,51,271332,5,0,1:2:0:0:
291,211,271514,1,0,0:2:0:0:
217,51,271696,1,8,1:2:0:0:
252,131,271877,1,0,0:2:0:0:
111,158,272060,5,0,1:2:0:0:
138,130,272150,1,0,1:2:0:0:
165,104,272241,1,0,1:2:0:0:
192,75,272332,1,0,1:2:0:0:
217,51,272423,1,8,1:2:0:0:
165,104,272605,1,0,1:2:0:0:
111,158,272787,5,0,1:2:0:0:
175,254,272969,1,0,0:2:0:0:
93,237,273150,1,8,1:2:0:0:
191,176,273332,1,0,0:2:0:0:
116,334,273514,6,0,L|219:317,1,105.000004005432,4|0,1:2|0:2,0:2:0:0:
411,375,273878,2,0,L|307:358,1,105.000004005432,8|0,1:2|0:2,0:2:0:0:
329,148,274241,2,0,P|368:234|284:280,1,210.000008010865,0|8,1:2|1:2,0:2:0:0:
229,183,274787,1,0,0:2:0:0:
429,192,274969,5,0,1:2:0:0:
310,75,275150,1,0,1:2:0:0:
353,171,275332,1,8,1:2:0:0:
349,1,275514,1,0,0:2:0:0:
80,135,275696,2,0,B|170:137|170:137|197:160|197:160|280:145,1,210.000008010865,0|8,1:2|1:2,0:2:0:0:
280,145,276241,1,0,0:2:0:0:
125,53,276423,5,0,1:2:0:0:
49,156,276605,1,0,0:2:0:0:
79,272,276787,1,8,1:2:0:0:
31,150,276969,5,0,0:2:0:0:
86,290,277150,1,0,1:2:0:0:
284,298,277332,1,0,0:2:0:0:
93,308,277514,5,8,1:2:0:0:
301,308,277696,1,0,0:2:0:0:
423,33,277878,5,8,1:2:0:0:
321,318,278060,1,8,0:2:0:0:
23,338,278241,1,8,1:2:0:0:
512,289,278423,5,8,0:2:0:0:
194,369,278605,1,8,1:2:0:0:
0,147,278787,1,8,0:2:0:0:
166,342,278969,5,8,0:2:0:0:
165,333,279029,1,8,0:2:0:0:
160,326,279090,1,8,0:2:0:0:
152,321,279150,1,8,0:2:0:0:
144,319,279211,1,8,0:2:0:0:
136,318,279272,1,8,0:2:0:0:
127,317,279332,6,0,B|95:197|167:62|167:62|197:161|250:191|250:191|331:157|382:173|382:173|356:239|288:246,1,682.50002603531,4|0,0:3|0:2,0:2:0:0:
194,271,280605,6,0,P|242:332|318:338,1,157.500006008148,2|0,0:2|0:2,0:2:0:0:
408,249,280969,6,0,B|456:118|406:-3|406:-3|283:126|314:196|314:196|368:139|296:30,1,630.000024032594,2|2,0:2|0:2,0:2:0:0:
34,49,282241,6,0,B|206:41|254:12|254:12|206:41|158:160|158:160|280:257|185:379,1,630.000024032594,2|10,0:2|0:2,0:2:0:0:
56,289,283514,1,0,0:2:0:0:
248,309,283696,5,2,1:2:0:0:
274,313,283787,1,0,1:2:0:0:
296,316,283878,1,0,1:2:0:0:
317,320,283969,1,0,1:2:0:0:
339,324,284060,1,8,1:2:0:0:
251,232,284241,1,0,1:2:0:0:
146,323,284423,5,0,1:2:0:0:
318,261,284605,1,0,0:2:0:0:
229,53,284787,1,8,1:2:0:0:
222,235,284969,1,0,0:2:0:0:
409,331,285150,6,0,B|483:269|433:117|433:117|401:81|345:87|345:87|378:184|501:158|501:158|471:59,1,577.500022029878,6|0,0:2|0:2,0:2:0:0:
353,16,286241,6,0,P|285:49|281:124,1,157.500006008148,2|0,0:2|0:2,0:2:0:0:
373,255,286605,6,0,P|254:202|129:231,1,262.500010013581,2|0,0:2|0:2,0:2:0:0:
107,382,287150,2,0,B|124:271|124:271|73:126,1,262.500010013581,2|0,0:2|0:2,0:2:0:0:
129,87,287696,2,0,P|103:23|45:60,1,157.500006008148,2|0,0:2|0:2,0:2:0:0:
158,152,288060,6,0,P|260:116|433:114,1,262.500010013581,2|0,0:2|0:2,0:2:0:0:
486,132,288605,2,0,P|494:237|406:178,1,262.500010013581,2|0,0:2|0:2,0:2:0:0:
326,4,289150,2,0,P|345:81|330:157,1,157.500006008148,2|0,0:2|0:2,0:2:0:0:
262,216,289514,5,2,0:2:0:0:
248,220,289605,1,0,0:2:0:0:
234,223,289696,1,0,0:2:0:0:
219,226,289787,1,0,0:2:0:0:
206,230,289878,1,0,0:2:0:0:
59,222,290060,5,2,0:2:0:0:
175,301,290241,1,0,0:2:0:0:
86,151,290423,1,0,0:2:0:0:
103,340,290605,5,2,0:2:0:0:
288,359,290787,1,0,0:2:0:0:
431,278,290969,5,4,1:2:0:0:
434,267,291059,1,0,0:2:0:0:
435,259,291150,1,0,0:2:0:0:
433,252,291241,1,0,0:2:0:0:
430,246,291332,1,0,1:2:0:0:
424,241,291423,1,0,0:2:0:0:
416,236,291514,1,0,0:2:0:0:
408,233,291605,1,0,0:2:0:0:
402,231,291696,1,0,1:2:0:0:
404,222,291788,1,0,0:2:0:0:
404,212,291878,1,0,0:2:0:0:
398,201,291969,1,0,0:2:0:0:
381,189,292060,1,0,1:2:0:0:
353,183,292151,1,0,0:2:0:0:
319,187,292242,1,0,0:2:0:0:
282,205,292333,1,0,0:2:0:0:
236,210,292423,5,0,1:2:0:0:
180,193,292515,1,0,0:2:0:0:
146,140,292606,1,0,0:2:0:0:
162,74,292697,1,0,0:2:0:0:
232,47,292788,1,0,1:2:0:0:
290,91,292878,1,0,0:2:0:0:
264,148,292969,1,0,0:2:0:0:
225,153,293060,1,0,0:2:0:0:
211,143,293151,1,0,1:2:0:0:
210,130,293242,1,0,0:2:0:0:
215,125,293333,1,0,0:2:0:0:
225,124,293423,1,0,0:2:0:0:
237,136,293514,1,0,1:2:0:0:
245,169,293605,1,0,0:2:0:0:
226,236,293696,1,0,0:2:0:0:
153,289,293787,1,0,0:2:0:0:
65,263,293878,5,0,1:2:0:0:
52,191,293969,1,0,0:2:0:0:
39,115,294060,1,0,0:2:0:0:
28,47,294150,1,0,0:2:0:0:
45,43,294241,6,0,L|122:63,1,52.5000020027161,0|0,1:2|0:2,0:2:0:0:
177,75,294423,1,0,0:2:0:0:
255,91,294514,1,0,0:2:0:0:
329,107,294605,1,0,1:2:0:0:
401,125,294696,1,0,0:2:0:0:
419,133,294787,6,0,L|393:208,1,52.5000020027161,0|0,0:2|0:2,0:2:0:0:
361,266,294969,1,0,1:2:0:0:
294,309,295060,1,0,0:2:0:0:
217,295,295150,1,0,0:2:0:0:
178,224,295241,1,0,0:2:0:0:
198,148,295332,6,8,L|210:88,5,35.0000013351441,8|8|8|8|8|8,1:2|0:2|0:2|0:2|0:2|0:2,0:2:0:0:
141,44,295696,2,8,L|129:-16,5,35.0000013351441,8|8|8|8|8|8,1:2|0:2|0:2|0:2|0:2|0:2,0:2:0:0:
201,48,296060,5,8,0:2:0:0:
221,54,296120,1,8,0:2:0:0:
241,54,296181,1,8,0:2:0:0:
258,48,296241,1,8,0:2:0:0:
270,42,296302,1,8,0:2:0:0:
282,32,296363,1,8,0:2:0:0:
289,21,296423,5,8,1:2:0:0:
283,36,296484,1,8,0:2:0:0:
279,48,296544,1,8,0:2:0:0:
277,59,296605,1,8,1:2:0:0:
277,70,296666,1,8,0:2:0:0:
279,83,296726,1,8,0:2:0:0:
281,94,296787,6,0,B|416:31|416:31|401:174|401:174|475:281|475:281|342:284|342:284|270:376|270:376|212:281|212:281|104:225|104:225|186:161|186:161|172:31|172:31|251:82,1,1232.00003759766,4|0,1:3|0:2,0:2:0:0:
