osu file format v14

[General]
AudioFilename: midnight siege cut x1,267 p1,267.mp3
AudioLeadIn: 0
PreviewTime: 15345
Countdown: 0
SampleSet: Soft
StackLeniency: 0.3
Mode: 0
LetterboxInBreaks: 0
WidescreenStoryboard: 0

[Editor]
Bookmarks: 15345,25448,40602,60807,81012
DistanceSpacing: 1
BeatDivisor: 4
GridSize: 8
TimelineZoom: 2.2

[Metadata]
Title:Midnight Siege
TitleUnicode:Midnight Siege
Artist:Dimrain47
ArtistUnicode:Dimrain47
Creator:Kastellan
Version:190
Source:
Tags:stamina practice fingercontrol
BeatmapID:2156115
BeatmapSetID:1031040

[Difficulty]
HPDrainRate:6.7
CircleSize:4
OverallDifficulty:9.1
ApproachRate:9.1
SliderMultiplier:1.4
SliderTickRate:1

[Events]
//Background and Video events
0,0,"Cool-Space-Wallpaper.jpg",0,0
//Break Periods
//Storyboard Layer 0 (Background)
//Storyboard Layer 1 (Fail)
//Storyboard Layer 2 (Pass)
//Storyboard Layer 3 (Foreground)
//Storyboard Layer 4 (Overlay)
//Storyboard Sound Samples

[TimingPoints]
232,315.706393054459,4,2,1,50,1,0
35591,-100,4,2,1,20,0,0
36854,-100,4,2,1,30,0,0
38116,-100,4,2,1,40,0,0
38748,-100,4,2,1,45,0,0
39379,-100,4,2,1,50,0,0
81052,-100,4,2,1,30,0,0
82947,-100,4,2,1,35,0,0
83262,-100,4,2,1,40,0,0
83578,-100,4,2,1,45,0,0
83894,-100,4,2,1,50,0,0

[Colours]
Combo1 : 231,210,71
Combo2 : 27,180,224
Combo3 : 38,117,234
Combo4 : 232,108,34

[HitObjects]
38,84,10334,5,2,2:2:0:0:
160,78,10650,1,2,0:0:0:0:
166,200,10966,1,2,2:2:0:0:
44,206,11281,1,2,2:2:0:0:
38,84,11439,1,2,2:2:0:0:
166,200,11755,5,2,2:2:0:0:
288,194,11913,1,2,2:2:0:0:
230,84,12228,5,2,2:2:0:0:
352,78,12386,1,2,2:2:0:0:
470,44,12544,1,2,2:2:0:0:
471,54,12623,1,2,2:2:0:0:
472,64,12702,1,2,2:2:0:0:
473,74,12781,1,2,2:2:0:0:
474,84,12860,5,2,2:2:0:0:
352,78,13175,1,2,0:0:0:0:
346,200,13491,1,2,2:2:0:0:
468,206,13807,1,2,2:2:0:0:
474,84,13965,1,2,2:2:0:0:
346,200,14280,5,2,2:2:0:0:
224,194,14438,1,2,2:2:0:0:
282,84,14754,5,2,2:2:0:0:
160,78,14912,1,2,2:2:0:0:
42,44,15070,1,2,2:2:0:0:
41,54,15149,1,2,2:2:0:0:
40,64,15228,1,2,2:2:0:0:
39,74,15306,1,2,2:2:0:0:
36,84,15385,5,6,2:2:0:0:
87,72,15464,1,0,0:0:0:0:
139,79,15543,1,0,0:0:0:0:
184,105,15622,1,0,0:0:0:0:
214,147,15701,1,10,2:2:0:0:
259,173,15780,1,0,0:0:0:0:
311,180,15859,2,0,P|334:180|364:167,1,35,0|0,0:0|0:0,0:0:0:0:
367,46,16017,5,2,2:2:0:0:
367,46,16096,2,0,P|355:65|351:98,1,35,0|0,0:0|0:0,0:0:0:0:
455,161,16254,1,0,0:0:0:0:
455,161,16333,2,0,P|443:141|417:121,1,35,10|0,2:2|0:0,0:0:0:0:
347,243,16490,2,0,P|352:259|361:274,1,35,2|0,2:2|0:0,0:0:0:0:
461,369,16648,5,2,2:2:0:0:
412,348,16727,1,0,0:0:0:0:
359,347,16806,1,0,0:0:0:0:
312,371,16885,1,0,0:0:0:0:
262,354,16964,2,0,P|259:336|260:319,1,35,10|0,2:2|0:0,0:0:0:0:
222,177,17122,1,0,0:0:0:0:
222,177,17201,1,0,0:0:0:0:
222,177,17280,6,0,L|203:242,3,35,2|0|0|0,2:2|0:0|0:0|0:0,0:0:0:0:
121,275,17595,2,0,L|140:210,3,35,14|0|2|0,2:2|0:0|2:2|0:0,0:0:0:0:
36,284,17911,5,6,2:2:0:0:
57,331,17990,1,0,0:0:0:0:
102,357,18069,1,0,0:0:0:0:
154,354,18148,1,0,0:0:0:0:
193,319,18227,1,10,2:2:0:0:
232,284,18306,1,0,0:0:0:0:
284,281,18385,2,0,P|300:289|326:312,1,35,0|0,0:0|0:0,0:0:0:0:
423,371,18542,5,2,2:2:0:0:
423,371,18621,2,0,L|374:384,1,35,0|0,0:0|0:0,0:0:0:0:
447,273,18779,1,0,0:0:0:0:
447,273,18858,2,0,L|398:286,1,35,10|0,2:2|0:0,0:0:0:0:
465,178,19016,2,0,L|416:191,1,35,2|0,2:2|0:0,0:0:0:0:
314,215,19174,5,2,2:2:0:0:
265,235,19253,1,0,0:0:0:0:
213,243,19332,1,0,0:0:0:0:
161,234,19411,1,0,0:0:0:0:
116,206,19490,2,0,L|127:159,1,35,10|0,2:2|0:0,0:0:0:0:
71,21,19647,1,0,0:0:0:0:
71,21,19726,1,0,0:0:0:0:
71,21,19805,6,0,L|53:83,3,35,6|0|0|0,2:2|0:0|0:0|0:0,0:0:0:0:
120,140,20121,2,0,L|129:106,1,35,14|0,2:2|0:0,0:0:0:0:
217,37,20279,2,0,L|208:71,1,35,2|0,2:2|0:0,0:0:0:0:
314,16,20437,5,6,2:2:0:0:
314,68,20516,1,0,0:0:0:0:
345,109,20595,1,0,0:0:0:0:
391,133,20673,1,0,0:0:0:0:
442,141,20752,2,0,P|451:165|449:198,1,35,10|0,2:2|0:0,0:0:0:0:
495,289,20910,2,0,P|469:284|442:266,1,35,0|0,0:0|0:0,0:0:0:0:
363,227,21068,5,2,2:2:0:0:
311,216,21147,1,0,0:0:0:0:
259,225,21226,1,0,0:0:0:0:
216,255,21305,1,0,0:0:0:0:
188,299,21384,2,0,L|178:346,1,35,10|0,2:2|0:0,0:0:0:0:
88,374,21542,2,0,L|95:339,1,35,2|0,2:2|0:0,0:0:0:0:
29,273,21700,5,2,2:2:0:0:
51,225,21778,1,0,0:0:0:0:
48,172,21857,1,0,0:0:0:0:
19,127,21936,1,0,0:0:0:0:
2,77,22015,1,10,2:2:0:0:
19,27,22094,1,0,0:0:0:0:
67,6,22173,1,0,0:0:0:0:
118,13,22252,1,0,0:0:0:0:
149,55,22331,1,2,2:2:0:0:
149,107,22410,1,0,0:0:0:0:
164,157,22489,1,0,0:0:0:0:
200,194,22568,1,0,0:0:0:0:
252,199,22647,1,14,2:2:0:0:
298,175,22726,1,0,0:0:0:0:
326,130,22805,2,0,L|351:77,1,35,2|0,2:2|0:0,0:0:0:0:
262,2,22962,6,0,L|295:50,1,35,6|0,2:2|0:0,0:0:0:0:
408,7,23120,1,0,0:0:0:0:
408,7,23199,2,0,L|349:11,1,35,0|10,0:0|2:2,0:0:0:0:
463,86,23357,1,0,0:0:0:0:
463,86,23436,2,0,L|521:90,1,35,0|0,0:0|0:0,0:0:0:0:
410,165,23594,5,2,2:2:0:0:
410,165,23673,1,0,0:0:0:0:
410,165,23752,2,0,L|351:169,1,35,0|0,0:0|0:0,0:0:0:0:
484,217,23909,1,10,2:2:0:0:
479,244,23988,1,0,0:0:0:0:
480,271,24067,1,2,2:2:0:0:
486,298,24146,1,0,0:0:0:0:
496,323,24225,5,2,2:2:0:0:
444,314,24304,1,0,0:0:0:0:
391,313,24383,1,0,0:0:0:0:
340,326,24462,1,0,0:0:0:0:
294,352,24541,2,0,L|241:378,1,35,10|0,2:2|0:0,0:0:0:0:
123,338,24699,2,0,L|154:322,1,35,0|0,0:0|0:0,0:0:0:0:
281,257,24857,5,2,2:2:0:0:
333,252,24936,1,0,0:0:0:0:
373,219,25014,1,0,0:0:0:0:
385,167,25093,1,0,0:0:0:0:
360,120,25172,2,0,L|316:82,1,35,14|0,2:2|0:0,0:0:0:0:
189,56,25330,2,0,L|215:78,1,35,2|0,2:2|0:0,0:0:0:0:
256,165,25488,6,0,L|247:221,3,35,6|0|0|0,2:2|0:0|0:0|0:0,0:0:0:0:
302,268,25804,2,0,L|336:273,3,35,10|0|0|0,2:2|0:0|0:0|0:0,0:0:0:0:
407,223,26119,6,0,L|416:167,3,35,2|0|0|0,2:2|0:0|0:0|0:0,0:0:0:0:
361,120,26435,2,0,L|326:114,3,35,10|0|0|0,2:2|0:0|0:0|0:0,0:0:0:0:
479,76,26751,5,2,2:2:0:0:
479,76,26830,1,0,0:0:0:0:
479,76,26909,2,0,L|425:104,1,35,0|0,0:0|0:0,0:0:0:0:
369,35,27067,1,10,2:2:0:0:
369,35,27145,1,0,0:0:0:0:
369,35,27224,2,0,L|315:7,1,35,0|0,0:0|0:0,0:0:0:0:
246,84,27382,5,2,2:2:0:0:
246,84,27461,1,0,0:0:0:0:
246,84,27540,2,0,L|192:112,1,35,4|0,0:0|0:0,0:0:0:0:
136,43,27698,1,10,2:2:0:0:
136,43,27777,1,0,0:0:0:0:
136,43,27856,2,0,L|82:15,1,35,6|0,0:0|0:0,0:0:0:0:
20,80,28014,6,0,L|30:131,3,35,2|0|0|0,2:2|0:0|0:0|0:0,0:0:0:0:
117,179,28329,2,0,L|110:144,3,35,10|0|0|0,2:2|0:0|0:0|0:0,0:0:0:0:
9,199,28645,6,0,L|19:250,3,35,2|0|0|0,2:2|0:0|0:0|0:0,0:0:0:0:
106,298,28961,2,0,L|99:263,3,35,10|0|0|0,2:2|0:0|0:0|0:0,0:0:0:0:
37,376,29276,5,2,2:2:0:0:
85,355,29355,1,0,0:0:0:0:
137,352,29434,1,0,0:0:0:0:
187,366,29513,1,0,0:0:0:0:
238,358,29592,1,10,2:2:0:0:
276,322,29671,1,0,0:0:0:0:
289,271,29750,1,0,0:0:0:0:
264,224,29829,1,0,0:0:0:0:
246,174,29908,1,2,2:2:0:0:
259,123,29987,1,0,0:0:0:0:
300,90,30066,1,4,0:0:0:0:
352,90,30145,1,0,0:0:0:0:
396,118,30224,6,0,L|419:172,3,35,10|0|6|0,2:2|0:0|0:0|0:0,0:0:0:0:
493,179,30539,6,0,L|469:233,3,35,6|0|0|0,2:2|0:0|0:0|0:0,0:0:0:0:
493,289,30855,2,0,L|479:321,3,35,10|0|0|0,2:2|0:0|0:0|0:0,0:0:0:0:
394,374,31171,6,0,L|407:341,3,35,2|0|0|0,2:2|0:0|0:0|0:0,0:0:0:0:
304,371,31486,2,0,L|317:338,3,35,10|0|0|0,2:2|0:0|0:0|0:0,0:0:0:0:
203,327,31802,5,2,2:2:0:0:
203,327,31881,1,0,0:0:0:0:
203,327,31960,2,0,L|249:317,1,35,0|0,0:0|0:0,0:0:0:0:
287,245,32118,1,10,2:2:0:0:
287,245,32197,1,0,0:0:0:0:
287,245,32276,2,0,L|277:199,1,35,0|0,0:0|0:0,0:0:0:0:
205,161,32434,5,2,2:2:0:0:
205,161,32512,1,0,0:0:0:0:
205,161,32591,2,0,L|159:171,1,35,4|0,0:0|0:0,0:0:0:0:
121,243,32749,1,10,2:2:0:0:
121,243,32828,1,0,0:0:0:0:
121,243,32907,2,0,L|131:289,1,35,6|0,0:0|0:0,0:0:0:0:
203,327,33065,6,0,L|249:317,3,35,2|0|0|0,2:2|0:0|0:0|0:0,0:0:0:0:
235,245,33381,2,0,L|189:235,3,35,10|0|0|0,2:2|0:0|0:0|0:0,0:0:0:0:
203,163,33696,6,0,L|249:153,3,35,2|0|0|0,2:2|0:0|0:0|0:0,0:0:0:0:
235,81,34012,2,0,L|189:71,3,35,10|0|0|0,2:2|0:0|0:0|0:0,0:0:0:0:
303,136,34328,5,6,2:2:0:0:
318,85,34407,1,0,0:0:0:0:
303,34,34486,1,0,0:0:0:0:
260,2,34565,1,0,0:0:0:0:
207,2,34643,1,10,2:2:0:0:
166,35,34722,1,0,0:0:0:0:
152,85,34801,1,0,0:0:0:0:
170,134,34880,1,0,0:0:0:0:
188,183,34959,1,6,2:2:0:0:
206,232,35038,1,0,0:0:0:0:
192,282,35117,1,0,0:0:0:0:
151,315,35196,1,0,0:0:0:0:
98,315,35275,1,10,2:2:0:0:
55,283,35354,1,0,0:0:0:0:
40,232,35433,2,0,L|47:189,1,35,0|0,0:0|0:0,0:0:0:0:
97,89,35591,5,6,2:2:0:0:
99,99,35670,1,0,0:0:0:0:
101,109,35748,1,0,0:0:0:0:
103,119,35827,1,0,0:0:0:0:
105,129,35906,1,2,2:2:0:0:
107,139,35985,1,0,0:0:0:0:
109,149,36064,1,0,0:0:0:0:
111,159,36143,1,0,0:0:0:0:
113,169,36222,1,2,2:2:0:0:
115,179,36301,1,0,0:0:0:0:
117,189,36380,1,0,0:0:0:0:
119,199,36459,1,0,0:0:0:0:
121,209,36538,1,2,2:2:0:0:
123,219,36617,1,0,0:0:0:0:
125,229,36696,2,0,L|136:288,1,35,2|0,2:2|0:0,0:0:0:0:
191,359,36853,5,6,2:2:0:0:
193,349,36932,1,0,0:0:0:0:
195,339,37011,1,0,0:0:0:0:
197,329,37090,1,0,0:0:0:0:
199,319,37169,1,2,2:2:0:0:
201,309,37248,1,0,0:0:0:0:
203,299,37327,1,0,0:0:0:0:
205,289,37406,1,0,0:0:0:0:
207,279,37485,1,2,2:2:0:0:
209,269,37564,1,0,0:0:0:0:
211,259,37643,1,0,0:0:0:0:
213,249,37722,1,0,0:0:0:0:
215,239,37801,1,2,2:2:0:0:
217,229,37879,1,0,0:0:0:0:
219,219,37958,2,0,L|225:184,1,35,2|2,2:2|2:2,0:0:0:0:
248,16,38116,5,6,2:2:0:0:
250,26,38195,1,0,0:0:0:0:
252,36,38274,1,0,0:0:0:0:
254,46,38353,1,0,0:0:0:0:
256,56,38432,1,2,2:2:0:0:
258,66,38511,1,0,0:0:0:0:
260,76,38590,2,0,L|271:135,1,35,0|0,0:0|0:0,0:0:0:0:
362,157,38748,5,6,2:2:0:0:
360,167,38827,1,0,0:0:0:0:
358,177,38906,1,0,0:0:0:0:
356,187,38984,1,0,0:0:0:0:
354,197,39063,1,2,2:2:0:0:
352,207,39142,1,0,0:0:0:0:
350,217,39221,2,0,L|343:251,1,35,2|0,2:2|0:0,0:0:0:0:
215,274,39379,5,6,2:2:0:0:
225,276,39458,1,0,0:0:0:0:
235,278,39537,2,0,L|294:289,1,35,2|0,2:2|0:0,0:0:0:0:
387,338,39695,1,6,2:2:0:0:
377,340,39774,1,0,0:0:0:0:
367,342,39853,2,0,L|308:353,1,35,2|0,2:2|0:0,0:0:0:0:
245,370,40011,5,6,2:2:0:0:
194,360,40089,1,2,2:2:0:0:
157,323,40168,1,2,2:2:0:0:
146,273,40247,1,2,2:2:0:0:
165,225,40326,1,6,2:2:0:0:
208,195,40405,1,2,2:2:0:0:
259,194,40484,1,2,2:2:0:0:
303,222,40563,1,2,2:2:0:0:
328,268,40642,5,6,2:2:0:0:
371,295,40721,1,0,0:0:0:0:
423,294,40800,1,0,0:0:0:0:
465,265,40879,1,0,0:0:0:0:
484,217,40958,2,0,L|438:210,1,35,10|0,2:2|0:0,0:0:0:0:
434,102,41115,2,0,L|457:145,1,35,0|0,0:0|0:0,0:0:0:0:
502,53,41273,5,2,2:2:0:0:
462,18,41352,1,0,0:0:0:0:
409,16,41431,1,0,0:0:0:0:
365,45,41510,1,0,0:0:0:0:
348,94,41589,1,10,2:2:0:0:
304,123,41668,1,0,0:0:0:0:
251,121,41747,2,0,L|206:94,1,35,2|0,2:2|0:0,0:0:0:0:
82,5,41905,5,2,2:2:0:0:
117,44,41984,1,0,0:0:0:0:
119,97,42063,1,0,0:0:0:0:
90,141,42142,1,0,0:0:0:0:
41,158,42220,1,10,2:2:0:0:
12,202,42299,1,0,0:0:0:0:
14,255,42378,2,0,L|41:300,1,35,0|0,0:0|0:0,0:0:0:0:
176,226,42536,5,2,2:2:0:0:
176,226,42615,1,0,0:0:0:0:
176,226,42694,2,0,L|123:226,1,35,0|0,0:0|0:0,0:0:0:0:
120,380,42852,1,14,2:2:0:0:
120,380,42931,1,0,0:0:0:0:
120,380,43010,2,0,L|145:334,1,35,6|0,2:2|0:0,0:0:0:0:
259,321,43168,5,6,2:2:0:0:
295,358,43246,1,0,0:0:0:0:
342,380,43325,1,0,0:0:0:0:
394,383,43404,1,0,0:0:0:0:
444,368,43483,2,0,L|485:331,1,35,10|0,2:2|0:0,0:0:0:0:
487,224,43641,2,0,L|441:255,1,35,0|0,0:0|0:0,0:0:0:0:
362,282,43799,5,2,2:2:0:0:
320,250,43878,1,0,0:0:0:0:
293,206,43957,1,0,0:0:0:0:
285,154,44036,1,0,0:0:0:0:
298,104,44115,1,10,2:2:0:0:
290,52,44194,1,0,0:0:0:0:
263,8,44273,2,0,L|204:27,1,35,2|0,2:2|0:0,0:0:0:0:
55,82,44430,5,2,2:2:0:0:
87,124,44509,1,0,0:0:0:0:
131,151,44588,1,0,0:0:0:0:
183,159,44667,1,0,0:0:0:0:
233,146,44746,1,10,2:2:0:0:
285,154,44825,1,0,0:0:0:0:
329,181,44904,2,0,L|378:220,1,35,0|0,0:0|0:0,0:0:0:0:
435,291,45062,5,6,2:2:0:0:
435,291,45141,1,0,0:0:0:0:
435,291,45220,2,0,L|386:330,1,35,0|0,0:0|0:0,0:0:0:0:
305,377,45378,1,14,2:2:0:0:
305,377,45456,1,0,0:0:0:0:
305,377,45535,2,0,L|277:355,1,35,2|0,2:2|0:0,0:0:0:0:
191,285,45693,5,6,2:2:0:0:
171,333,45772,1,0,0:0:0:0:
130,364,45851,1,0,0:0:0:0:
78,368,45930,1,0,0:0:0:0:
32,344,46009,1,10,2:2:0:0:
5,300,46088,1,0,0:0:0:0:
6,248,46167,1,0,0:0:0:0:
34,204,46246,1,0,0:0:0:0:
81,182,46325,1,2,2:2:0:0:
126,156,46404,1,0,0:0:0:0:
154,111,46482,1,0,0:0:0:0:
149,58,46561,1,0,0:0:0:0:
117,16,46640,1,10,2:2:0:0:
166,33,46719,1,0,0:0:0:0:
218,36,46798,1,2,2:2:0:0:
269,25,46877,1,0,0:0:0:0:
320,14,46956,5,2,2:2:0:0:
371,4,47035,1,0,0:0:0:0:
422,15,47114,1,0,0:0:0:0:
465,45,47193,1,0,0:0:0:0:
494,88,47272,1,10,2:2:0:0:
504,139,47351,1,0,0:0:0:0:
494,191,47430,1,0,0:0:0:0:
465,234,47509,1,0,0:0:0:0:
422,264,47587,1,2,2:2:0:0:
371,275,47666,1,0,0:0:0:0:
320,266,47745,1,0,0:0:0:0:
276,238,47824,1,0,0:0:0:0:
224,229,47903,1,14,2:2:0:0:
173,240,47982,1,0,0:0:0:0:
130,269,48061,2,0,L|182:285,1,35,2|0,2:2|0:0,0:0:0:0:
282,351,48219,5,6,2:2:0:0:
327,376,48298,1,0,0:0:0:0:
379,383,48377,1,0,0:0:0:0:
430,372,48456,1,0,0:0:0:0:
473,343,48535,1,10,2:2:0:0:
503,300,48614,1,0,0:0:0:0:
512,250,48692,1,0,0:0:0:0:
509,198,48771,1,0,0:0:0:0:
485,152,48850,1,2,2:2:0:0:
446,117,48929,1,0,0:0:0:0:
397,100,49008,1,0,0:0:0:0:
344,100,49087,1,0,0:0:0:0:
296,120,49166,1,10,2:2:0:0:
243,120,49245,1,0,0:0:0:0:
194,102,49324,2,0,L|237:62,1,35,2|0,2:2|0:0,0:0:0:0:
320,26,49482,5,2,2:2:0:0:
368,6,49561,1,0,0:0:0:0:
419,10,49640,1,0,0:0:0:0:
464,38,49718,1,0,0:0:0:0:
490,82,49797,1,10,2:2:0:0:
494,134,49876,1,0,0:0:0:0:
474,182,49955,1,0,0:0:0:0:
434,215,50034,1,0,0:0:0:0:
383,227,50113,1,6,2:2:0:0:
395,277,50192,1,0,0:0:0:0:
383,327,50271,1,0,0:0:0:0:
348,366,50350,1,0,0:0:0:0:
300,384,50429,1,14,2:2:0:0:
248,377,50508,1,0,0:0:0:0:
206,346,50587,1,2,2:2:0:0:
183,299,50666,1,0,0:0:0:0:
185,247,50745,6,0,L|199:187,3,35,6|0|0|0,2:2|0:0|0:0|0:0,0:0:0:0:
297,130,51060,2,0,L|289:164,3,35,10|0|0|0,2:2|0:0|0:0|0:0,0:0:0:0:
183,133,51376,6,0,L|243:147,3,35,2|0|0|0,2:2|0:0|0:0|0:0,0:0:0:0:
298,252,51692,2,0,L|264:244,3,35,10|0|0|0,2:2|0:0|0:0|0:0,0:0:0:0:
361,159,52007,5,2,2:2:0:0:
361,159,52086,1,0,0:0:0:0:
361,159,52165,2,0,L|355:211,1,35,0|0,0:0|0:0,0:0:0:0:
476,125,52323,1,10,2:2:0:0:
476,125,52402,1,0,0:0:0:0:
476,125,52481,2,0,L|482:177,1,35,0|0,0:0|0:0,0:0:0:0:
358,84,52639,5,2,2:2:0:0:
358,84,52718,1,0,0:0:0:0:
358,84,52797,2,0,L|364:136,1,35,4|0,0:0|0:0,0:0:0:0:
243,50,52954,1,10,2:2:0:0:
243,50,53033,1,0,0:0:0:0:
243,50,53112,2,0,L|237:102,1,35,6|0,0:0|0:0,0:0:0:0:
128,51,53270,6,0,L|132:16,3,35,2|0|0|0,2:2|0:0|0:0|0:0,0:0:0:0:
47,33,53586,2,0,L|42:67,3,35,10|0|0|0,2:2|0:0|0:0|0:0,0:0:0:0:
95,121,53902,2,0,L|90:155,3,35,2|0|0|0,2:2|0:0|0:0|0:0,0:0:0:0:
5,172,54217,2,0,L|9:137,3,35,10|0|0|0,2:2|0:0|0:0|0:0,0:0:0:0:
31,270,54533,5,2,2:2:0:0:
33,218,54612,1,0,0:0:0:0:
60,173,54691,1,0,0:0:0:0:
106,148,54770,1,0,0:0:0:0:
157,149,54849,1,10,2:2:0:0:
202,175,54928,1,0,0:0:0:0:
229,220,55007,1,0,0:0:0:0:
255,264,55085,1,0,0:0:0:0:
300,290,55164,1,2,2:2:0:0:
352,291,55243,1,0,0:0:0:0:
397,266,55322,1,4,0:0:0:0:
425,221,55401,1,0,0:0:0:0:
427,170,55480,6,0,L|485:192,3,35,10|0|6|0,2:2|0:0|0:0|0:0,0:0:0:0:
350,209,55796,6,0,L|292:231,3,35,6|0|0|0,2:2|0:0|0:0|0:0,0:0:0:0:
427,248,56112,2,0,L|485:270,3,35,10|0|0|0,2:2|0:0|0:0|0:0,0:0:0:0:
350,287,56427,6,0,L|292:309,3,35,2|0|0|0,2:2|0:0|0:0|0:0,0:0:0:0:
427,326,56743,2,0,L|485:348,3,35,10|0|0|0,2:2|0:0|0:0|0:0,0:0:0:0:
348,364,57059,5,2,2:2:0:0:
348,364,57138,1,0,0:0:0:0:
348,364,57217,2,0,L|290:386,1,35,0|0,0:0|0:0,0:0:0:0:
251,327,57374,1,10,2:2:0:0:
251,327,57453,1,0,0:0:0:0:
251,327,57532,2,0,L|193:305,1,35,0|0,0:0|0:0,0:0:0:0:
158,371,57690,5,2,2:2:0:0:
158,371,57769,1,0,0:0:0:0:
158,371,57848,2,0,L|100:393,1,35,4|0,0:0|0:0,0:0:0:0:
61,334,58006,1,10,2:2:0:0:
61,334,58085,1,0,0:0:0:0:
61,334,58164,2,0,L|3:312,1,35,6|0,0:0|0:0,0:0:0:0:
0,208,58321,6,0,L|32:220,3,35,2|0|0|0,2:2|0:0|0:0|0:0,0:0:0:0:
73,123,58637,2,0,L|60:155,3,35,10|0|0|0,2:2|0:0|0:0|0:0,0:0:0:0:
159,199,58953,6,0,L|126:186,3,35,2|0|0|0,2:2|0:0|0:0|0:0,0:0:0:0:
86,284,59269,2,0,L|98:251,3,35,10|0|0|0,2:2|0:0|0:0|0:0,0:0:0:0:
237,237,59584,5,6,2:2:0:0:
244,185,59663,1,0,0:0:0:0:
221,139,59742,1,0,0:0:0:0:
176,113,59821,1,0,0:0:0:0:
125,118,59900,1,10,2:2:0:0:
84,150,59979,1,0,0:0:0:0:
70,200,60058,1,0,0:0:0:0:
85,249,60137,1,0,0:0:0:0:
126,281,60216,5,6,2:2:0:0:
178,287,60295,1,0,0:0:0:0:
230,293,60374,1,0,0:0:0:0:
282,299,60452,1,0,0:0:0:0:
334,306,60531,1,10,2:2:0:0:
338,311,60610,1,0,0:0:0:0:
342,316,60689,1,0,0:0:0:0:
346,321,60768,1,0,0:0:0:0:
350,326,60847,5,6,2:2:0:0:
386,362,60926,1,0,0:0:0:0:
437,370,61005,1,0,0:0:0:0:
484,347,61084,1,0,0:0:0:0:
508,302,61163,1,10,2:2:0:0:
502,251,61242,1,0,0:0:0:0:
468,212,61321,2,0,L|417:254,1,35,0|0,0:0|0:0,0:0:0:0:
343,283,61479,5,2,2:2:0:0:
343,283,61557,2,0,L|332:218,1,35,0|0,0:0|0:0,0:0:0:0:
344,139,61715,1,0,0:0:0:0:
344,139,61794,2,0,L|405:162,1,35,10|0,2:2|0:0,0:0:0:0:
494,90,61952,2,0,L|432:113,1,35,2|0,2:2|0:0,0:0:0:0:
369,65,62110,5,2,2:2:0:0:
335,25,62189,1,0,0:0:0:0:
284,14,62268,1,0,0:0:0:0:
237,34,62347,1,0,0:0:0:0:
210,78,62426,1,10,2:2:0:0:
183,122,62505,1,0,0:0:0:0:
135,141,62584,1,0,0:0:0:0:
85,130,62662,1,0,0:0:0:0:
51,91,62741,6,0,L|69:37,3,35,2|0|0|0,2:2|0:0|0:0|0:0,0:0:0:0:
143,37,63057,1,14,2:2:0:0:
139,89,63136,1,0,0:0:0:0:
135,141,63215,1,2,2:2:0:0:
131,193,63294,1,0,0:0:0:0:
116,243,63373,5,6,2:2:0:0:
163,221,63452,1,0,0:0:0:0:
215,223,63531,1,0,0:0:0:0:
261,246,63610,1,0,0:0:0:0:
293,288,63688,1,10,2:2:0:0:
338,311,63767,1,0,0:0:0:0:
391,312,63846,2,0,L|376:251,1,35,0|0,0:0|0:0,0:0:0:0:
284,354,64004,5,2,2:2:0:0:
284,354,64083,2,0,L|347:367,1,35,0|0,0:0|0:0,0:0:0:0:
180,314,64241,1,0,0:0:0:0:
180,314,64320,2,0,L|243:301,1,35,10|0,2:2|0:0,0:0:0:0:
114,360,64478,2,0,L|51:347,1,35,2|0,2:2|0:0,0:0:0:0:
21,255,64636,5,2,2:2:0:0:
21,255,64715,2,0,L|9:305,1,35,0|0,0:0|0:0,0:0:0:0:
125,221,64872,1,0,0:0:0:0:
125,221,64951,2,0,L|137:271,1,35,10|0,2:2|0:0,0:0:0:0:
41,134,65109,2,0,L|29:184,1,35,0|0,0:0|0:0,0:0:0:0:
2,63,65267,5,6,2:2:0:0:
35,52,65346,1,0,0:0:0:0:
69,56,65425,2,0,L|110:89,1,35,0|0,0:0|0:0,0:0:0:0:
159,150,65583,1,14,2:2:0:0:
192,161,65662,1,0,0:0:0:0:
226,157,65741,2,0,L|267:124,1,35,2|0,2:2|0:0,0:0:0:0:
297,10,65898,5,6,2:2:0:0:
297,10,65977,2,0,L|312:64,1,35,0|0,0:0|0:0,0:0:0:0:
416,80,66135,1,0,0:0:0:0:
416,80,66214,2,0,L|431:134,1,35,10|0,2:2|0:0,0:0:0:0:
333,139,66372,2,0,L|318:193,1,35,0|0,0:0|0:0,0:0:0:0:
211,237,66530,5,2,2:2:0:0:
245,276,66609,1,0,0:0:0:0:
292,298,66688,1,0,0:0:0:0:
344,299,66767,1,0,0:0:0:0:
392,280,66846,1,10,2:2:0:0:
429,242,66924,1,0,0:0:0:0:
447,194,67003,2,0,L|392:207,1,35,2|0,2:2|0:0,0:0:0:0:
294,219,67161,6,0,L|349:231,1,35,2|0,2:2|0:0,0:0:0:0:
227,120,67319,1,0,0:0:0:0:
227,120,67398,2,0,L|210:65,1,35,0|10,0:0|2:2,0:0:0:0:
174,227,67556,1,0,0:0:0:0:
174,227,67635,2,0,L|135:268,1,35,0|0,0:0|0:0,0:0:0:0:
299,202,67793,6,0,L|357:203,1,35,2|0,2:2|0:0,0:0:0:0:
213,119,67951,1,0,0:0:0:0:
213,119,68029,2,0,L|185:69,1,35,0|14,0:0|2:2,0:0:0:0:
184,235,68187,1,0,0:0:0:0:
184,235,68266,2,0,L|154:284,1,35,2|0,2:2|0:0,0:0:0:0:
8,355,68424,5,6,2:2:0:0:
53,329,68503,1,0,0:0:0:0:
105,324,68582,1,0,0:0:0:0:
155,336,68661,1,0,0:0:0:0:
198,367,68740,1,10,2:2:0:0:
248,379,68819,1,0,0:0:0:0:
300,373,68898,2,0,L|345:342,1,35,0|0,0:0|0:0,0:0:0:0:
469,381,69055,5,2,2:2:0:0:
470,328,69134,1,0,0:0:0:0:
453,279,69213,1,0,0:0:0:0:
419,239,69292,1,0,0:0:0:0:
373,214,69371,1,10,2:2:0:0:
322,207,69450,1,0,0:0:0:0:
271,219,69529,2,0,L|281:277,1,35,2|0,2:2|0:0,0:0:0:0:
381,369,69687,5,2,2:2:0:0:
363,319,69766,1,0,0:0:0:0:
361,266,69845,1,0,0:0:0:0:
373,214,69924,1,0,0:0:0:0:
401,169,70003,2,0,L|434:130,1,35,10|0,2:2|0:0,0:0:0:0:
489,42,70160,1,0,0:0:0:0:
489,42,70239,1,0,0:0:0:0:
489,42,70318,6,0,L|504:99,3,35,6|0|0|0,2:2|0:0|0:0|0:0,0:0:0:0:
362,22,70634,1,14,2:2:0:0:
362,22,70713,1,0,0:0:0:0:
362,22,70792,2,0,L|307:37,1,35,2|0,2:2|0:0,0:0:0:0:
163,12,70950,6,0,L|218:27,3,35,6|0|0|0,2:2|0:0|0:0|0:0,0:0:0:0:
257,101,71265,2,0,L|202:116,3,35,10|0|0|0,2:2|0:0|0:0|0:0,0:0:0:0:
126,110,71581,6,0,L|71:95,3,35,2|0|0|0,2:2|0:0|0:0|0:0,0:0:0:0:
32,21,71897,2,0,L|87:6,3,35,10|0|0|0,2:2|0:0|0:0|0:0,0:0:0:0:
11,120,72213,5,2,2:2:0:0:
11,120,72291,1,0,0:0:0:0:
11,120,72370,2,0,L|17:167,1,35,0|0,0:0|0:0,0:0:0:0:
103,199,72528,1,10,2:2:0:0:
103,199,72607,1,0,0:0:0:0:
103,199,72686,2,0,L|97:246,1,35,0|0,0:0|0:0,0:0:0:0:
8,246,72844,5,2,2:2:0:0:
8,246,72923,1,0,0:0:0:0:
8,246,73002,2,0,L|14:293,1,35,4|0,0:0|0:0,0:0:0:0:
100,325,73160,1,10,2:2:0:0:
100,325,73239,1,0,0:0:0:0:
100,325,73318,2,0,L|94:372,1,35,6|0,0:0|0:0,0:0:0:0:
183,353,73475,6,0,L|217:357,3,35,2|0|0|0,2:2|0:0|0:0|0:0,0:0:0:0:
297,300,73791,2,0,L|262:295,3,35,10|0|0|0,2:2|0:0|0:0|0:0,0:0:0:0:
294,374,74107,6,0,L|328:378,3,35,2|0|0|0,2:2|0:0|0:0|0:0,0:0:0:0:
408,321,74423,2,0,L|373:316,3,35,10|0|0|0,2:2|0:0|0:0|0:0,0:0:0:0:
509,384,74738,5,2,2:2:0:0:
484,337,74817,1,0,0:0:0:0:
469,287,74896,1,0,0:0:0:0:
466,235,74975,1,0,0:0:0:0:
474,183,75054,1,10,2:2:0:0:
465,131,75133,1,0,0:0:0:0:
435,87,75212,1,0,0:0:0:0:
386,65,75291,1,0,0:0:0:0:
334,74,75370,1,2,2:2:0:0:
294,108,75449,1,0,0:0:0:0:
285,159,75527,1,4,0:0:0:0:
302,208,75606,1,0,0:0:0:0:
344,238,75685,6,0,L|396:232,3,35,10|0|6|0,2:2|0:0|0:0|0:0,0:0:0:0:
224,236,76001,6,0,L|172:230,3,35,6|0|0|0,2:2|0:0|0:0|0:0,0:0:0:0:
138,164,76317,2,0,L|144:112,3,35,10|0|0|0,2:2|0:0|0:0|0:0,0:0:0:0:
214,78,76632,6,0,L|266:84,3,35,2|0|0|0,2:2|0:0|0:0|0:0,0:0:0:0:
300,150,76948,2,0,L|294:202,3,35,10|0|0|0,2:2|0:0|0:0|0:0,0:0:0:0:
195,206,77264,5,2,2:2:0:0:
195,206,77343,1,0,0:0:0:0:
195,206,77422,2,0,L|201:258,1,35,0|0,0:0|0:0,0:0:0:0:
291,266,77580,1,10,2:2:0:0:
291,266,77658,1,0,0:0:0:0:
291,266,77737,2,0,L|285:318,1,35,0|0,0:0|0:0,0:0:0:0:
203,322,77895,5,2,2:2:0:0:
203,322,77974,1,0,0:0:0:0:
203,322,78053,2,0,L|197:374,1,35,4|0,0:0|0:0,0:0:0:0:
108,277,78211,1,10,2:2:0:0:
108,277,78290,1,0,0:0:0:0:
108,277,78369,2,0,L|114:329,1,35,6|0,0:0|0:0,0:0:0:0:
9,252,78527,6,0,L|13:217,3,35,2|0|0|0,2:2|0:0|0:0|0:0,0:0:0:0:
34,106,78842,2,0,L|38:140,3,35,10|0|0|0,2:2|0:0|0:0|0:0,0:0:0:0:
100,219,79158,6,0,L|104:184,3,35,2|0|0|0,2:2|0:0|0:0|0:0,0:0:0:0:
125,73,79474,2,0,L|129:107,3,35,10|0|0|0,2:2|0:0|0:0|0:0,0:0:0:0:
214,45,79790,5,6,2:2:0:0:
173,12,79868,1,0,0:0:0:0:
122,3,79947,1,0,0:0:0:0:
73,20,80026,1,0,0:0:0:0:
37,58,80105,1,10,2:2:0:0:
25,108,80184,1,0,0:0:0:0:
38,158,80263,1,0,0:0:0:0:
73,196,80342,1,0,0:0:0:0:
123,212,80421,5,6,2:2:0:0:
175,205,80500,1,0,0:0:0:0:
227,198,80579,1,0,0:0:0:0:
279,191,80658,1,0,0:0:0:0:
331,184,80737,2,0,L|369:153,3,35,14|0|4|0,2:2|0:0|2:2|0:0,0:0:0:0:
284,19,81052,5,0,0:0:0:0:
282,23,81131,1,0,0:0:0:0:
280,28,81210,1,0,0:0:0:0:
278,33,81289,1,0,0:0:0:0:
276,38,81368,1,0,0:0:0:0:
275,43,81447,1,0,0:0:0:0:
273,48,81526,1,0,0:0:0:0:
272,53,81605,1,0,0:0:0:0:
270,58,81684,1,0,0:0:0:0:
269,63,81763,1,0,0:0:0:0:
268,69,81842,1,0,0:0:0:0:
267,74,81921,1,0,0:0:0:0:
266,79,81999,1,0,0:0:0:0:
265,84,82078,1,0,0:0:0:0:
264,89,82157,1,0,0:0:0:0:
264,94,82236,1,0,0:0:0:0:
263,100,82315,1,0,0:0:0:0:
263,105,82394,1,0,0:0:0:0:
262,110,82473,1,0,0:0:0:0:
262,115,82552,1,0,0:0:0:0:
262,121,82631,1,0,0:0:0:0:
262,126,82710,1,0,0:0:0:0:
262,131,82789,1,0,0:0:0:0:
262,136,82868,1,0,0:0:0:0:
262,142,82947,1,0,0:0:0:0:
262,147,83026,1,0,0:0:0:0:
263,152,83104,1,0,0:0:0:0:
263,157,83183,1,0,0:0:0:0:
264,163,83262,1,0,0:0:0:0:
265,168,83341,1,0,0:0:0:0:
266,173,83420,1,0,0:0:0:0:
266,178,83499,1,0,0:0:0:0:
267,183,83578,5,0,0:0:0:0:
282,187,83657,1,0,0:0:0:0:
296,194,83736,1,0,0:0:0:0:
309,202,83815,1,0,0:0:0:0:
320,213,83894,1,0,0:0:0:0:
330,226,83973,1,0,0:0:0:0:
338,239,84052,1,0,0:0:0:0:
343,254,84130,1,0,0:0:0:0:
346,270,84209,1,0,0:0:0:0:
347,285,84288,1,0,0:0:0:0:
345,301,84367,1,0,0:0:0:0:
341,316,84446,1,0,0:0:0:0:
334,330,84525,1,0,0:0:0:0:
325,343,84604,1,0,0:0:0:0:
315,355,84683,1,0,0:0:0:0:
302,365,84762,1,0,0:0:0:0:
289,372,84841,1,0,0:0:0:0:
274,378,84920,1,0,0:0:0:0:
258,381,84999,1,0,0:0:0:0:
243,382,85078,1,0,0:0:0:0:
227,380,85157,1,0,0:0:0:0:
212,376,85235,1,0,0:0:0:0:
198,369,85314,1,0,0:0:0:0:
184,361,85393,1,0,0:0:0:0:
173,350,85472,1,0,0:0:0:0:
163,338,85551,1,0,0:0:0:0:
155,324,85630,1,0,0:0:0:0:
150,309,85709,1,0,0:0:0:0:
146,294,85788,1,0,0:0:0:0:
148,278,85867,1,0,0:0:0:0:
151,262,85946,2,0,L|165:222,1,35,0|0,0:0|0:0,0:0:0:0:
218,144,86104,5,0,0:0:0:0:
218,144,86183,2,0,L|230:187,1,35,0|0,0:0|0:0,0:0:0:0:
133,90,86340,1,0,0:0:0:0:
133,90,86419,2,0,L|121:133,1,35,0|0,0:0|0:0,0:0:0:0:
213,23,86577,2,0,L|279:40,1,35,0|0,0:0|0:0,0:0:0:0:
311,104,86735,5,0,0:0:0:0:
311,104,86814,2,0,L|345:96,1,35,0|0,0:0|0:0,0:0:0:0:
412,8,86972,1,0,0:0:0:0:
412,8,87051,2,0,L|417:66,1,35,0|0,0:0|0:0,0:0:0:0:
497,101,87209,2,0,L|492:159,1,35,0|0,0:0|0:0,0:0:0:0:
404,159,87366,6,0,L|409:217,1,35,0|0,0:0|0:0,0:0:0:0:
497,239,87524,1,0,0:0:0:0:
497,239,87603,2,0,L|492:297,1,35,0|0,0:0|0:0,0:0:0:0:
403,308,87761,1,0,0:0:0:0:
403,308,87840,2,0,L|408:366,1,35,0|0,0:0|0:0,0:0:0:0:
293,384,87998,6,0,L|298:326,1,35,0|0,0:0|0:0,0:0:0:0:
159,344,88156,1,0,0:0:0:0:
159,344,88235,2,0,L|154:286,1,35,0|0,0:0|0:0,0:0:0:0:
241,277,88393,1,0,0:0:0:0:
241,277,88471,2,0,L|246:219,1,35,0|0,0:0|0:0,0:0:0:0:
329,257,88629,5,0,0:0:0:0:
351,230,88708,1,0,0:0:0:0:
366,198,88787,1,0,0:0:0:0:
372,164,88866,1,0,0:0:0:0:
369,129,88945,1,0,0:0:0:0:
356,97,89024,1,0,0:0:0:0:
336,69,89103,1,0,0:0:0:0:
308,47,89182,1,0,0:0:0:0:
276,34,89261,1,0,0:0:0:0:
241,29,89340,1,0,0:0:0:0:
207,34,89419,1,0,0:0:0:0:
175,48,89497,1,0,0:0:0:0:
148,70,89576,1,0,0:0:0:0:
127,99,89655,1,0,0:0:0:0:
116,132,89734,2,0,L|133:190,1,35,0|0,0:0|0:0,0:0:0:0:
21,215,89892,5,0,0:0:0:0:
42,242,89971,1,0,0:0:0:0:
71,262,90050,1,0,0:0:0:0:
104,273,90129,1,0,0:0:0:0:
139,274,90208,1,0,0:0:0:0:
173,265,90287,1,0,0:0:0:0:
203,248,90366,2,0,L|239:209,1,35,0|0,0:0|0:0,0:0:0:0:
277,128,90524,5,0,0:0:0:0:
298,100,90602,1,0,0:0:0:0:
327,80,90681,1,0,0:0:0:0:
360,69,90760,1,0,0:0:0:0:
395,68,90839,1,0,0:0:0:0:
429,77,90918,1,0,0:0:0:0:
459,94,90997,1,0,0:0:0:0:
483,118,91076,1,0,0:0:0:0:
496,150,91155,5,6,0:0:0:0:
