osu file format v14

[General]
AudioFilename: midnight siege cut x1,20 p1,20.mp3
AudioLeadIn: 0
PreviewTime: 16200
Countdown: 0
SampleSet: Soft
StackLeniency: 0.3
Mode: 0
LetterboxInBreaks: 0
WidescreenStoryboard: 0

[Editor]
Bookmarks: 16200,26866,42866,64200,85533
DistanceSpacing: 1
BeatDivisor: 4
GridSize: 8
TimelineZoom: 2.2

[Metadata]
Title:Midnight Siege
TitleUnicode:Midnight Siege
Artist:Dimrain47
ArtistUnicode:Dimrain47
Creator:Kastellan
Version:180 (270)
Source:
Tags:stamina practice fingercontrol
BeatmapID:2156114
BeatmapSetID:1031040

[Difficulty]
HPDrainRate:6.4
CircleSize:4
OverallDifficulty:8.9
ApproachRate:8.8
SliderMultiplier:1.4
SliderTickRate:1

[Events]
//Background and Video events
0,0,"Cool-Space-Wallpaper.jpg",0,0
//Break Periods
//Storyboard Layer 0 (Background)
//Storyboard Layer 1 (Fail)
//Storyboard Layer 2 (Pass)
//Storyboard Layer 3 (Foreground)
//Storyboard Layer 4 (Overlay)
//Storyboard Sound Samples

[TimingPoints]
240,333.333333333333,4,2,1,50,1,0
37573,-100,4,2,1,20,0,0
38906,-100,4,2,1,30,0,0
40240,-100,4,2,1,40,0,0
40906,-100,4,2,1,45,0,0
41573,-100,4,2,1,50,0,0
85573,-100,4,2,1,30,0,0
87573,-100,4,2,1,35,0,0
87906,-100,4,2,1,40,0,0
88240,-100,4,2,1,45,0,0
88573,-100,4,2,1,50,0,0

[Colours]
Combo1 : 231,210,71
Combo2 : 27,180,224
Combo3 : 38,117,234
Combo4 : 232,108,34

[HitObjects]
38,84,10906,5,2,2:2:0:0:
160,78,11239,1,2,0:0:0:0:
166,200,11573,1,2,2:2:0:0:
44,206,11906,1,2,2:2:0:0:
38,84,12073,1,2,2:2:0:0:
166,200,12406,5,2,2:2:0:0:
288,194,12573,1,2,2:2:0:0:
230,84,12906,5,2,2:2:0:0:
352,78,13073,1,2,2:2:0:0:
470,44,13239,1,2,2:2:0:0:
471,54,13323,1,2,2:2:0:0:
472,64,13406,1,2,2:2:0:0:
473,74,13489,1,2,2:2:0:0:
474,84,13573,5,2,2:2:0:0:
352,78,13906,1,2,0:0:0:0:
346,200,14239,1,2,2:2:0:0:
468,206,14573,1,2,2:2:0:0:
474,84,14739,1,2,2:2:0:0:
346,200,15073,5,2,2:2:0:0:
224,194,15239,1,2,2:2:0:0:
282,84,15573,5,2,2:2:0:0:
160,78,15739,1,2,2:2:0:0:
42,44,15906,1,2,2:2:0:0:
41,54,15989,1,2,2:2:0:0:
40,64,16073,1,2,2:2:0:0:
39,74,16156,1,2,2:2:0:0:
36,84,16239,5,6,2:2:0:0:
87,72,16323,1,0,0:0:0:0:
139,79,16406,1,0,0:0:0:0:
184,105,16489,1,0,0:0:0:0:
214,147,16573,1,10,2:2:0:0:
259,173,16656,1,0,0:0:0:0:
311,180,16739,2,0,P|334:180|364:167,1,35,0|0,0:0|0:0,0:0:0:0:
367,46,16906,5,2,2:2:0:0:
367,46,16989,2,0,P|355:65|351:98,1,35,0|0,0:0|0:0,0:0:0:0:
455,161,17156,1,0,0:0:0:0:
455,161,17239,2,0,P|443:141|417:121,1,35,10|0,2:2|0:0,0:0:0:0:
347,243,17406,2,0,P|352:259|361:274,1,35,2|0,2:2|0:0,0:0:0:0:
461,369,17573,5,2,2:2:0:0:
412,348,17656,1,0,0:0:0:0:
359,347,17739,1,0,0:0:0:0:
312,371,17823,1,0,0:0:0:0:
262,354,17906,2,0,P|259:336|260:319,1,35,10|0,2:2|0:0,0:0:0:0:
222,177,18073,1,0,0:0:0:0:
222,177,18156,1,0,0:0:0:0:
222,177,18239,6,0,L|203:242,3,35,2|0|0|0,2:2|0:0|0:0|0:0,0:0:0:0:
121,275,18573,2,0,L|140:210,3,35,14|0|2|0,2:2|0:0|2:2|0:0,0:0:0:0:
36,284,18906,5,6,2:2:0:0:
57,331,18989,1,0,0:0:0:0:
102,357,19073,1,0,0:0:0:0:
154,354,19156,1,0,0:0:0:0:
193,319,19239,1,10,2:2:0:0:
232,284,19323,1,0,0:0:0:0:
284,281,19406,2,0,P|300:289|326:312,1,35,0|0,0:0|0:0,0:0:0:0:
423,371,19573,5,2,2:2:0:0:
423,371,19656,2,0,L|374:384,1,35,0|0,0:0|0:0,0:0:0:0:
447,273,19823,1,0,0:0:0:0:
447,273,19906,2,0,L|398:286,1,35,10|0,2:2|0:0,0:0:0:0:
465,178,20073,2,0,L|416:191,1,35,2|0,2:2|0:0,0:0:0:0:
314,215,20239,5,2,2:2:0:0:
265,235,20323,1,0,0:0:0:0:
213,243,20406,1,0,0:0:0:0:
161,234,20489,1,0,0:0:0:0:
116,206,20573,2,0,L|127:159,1,35,10|0,2:2|0:0,0:0:0:0:
71,21,20739,1,0,0:0:0:0:
71,21,20823,1,0,0:0:0:0:
71,21,20906,6,0,L|53:83,3,35,6|0|0|0,2:2|0:0|0:0|0:0,0:0:0:0:
120,140,21239,2,0,L|129:106,1,35,14|0,2:2|0:0,0:0:0:0:
217,37,21406,2,0,L|208:71,1,35,2|0,2:2|0:0,0:0:0:0:
314,16,21573,5,6,2:2:0:0:
314,68,21656,1,0,0:0:0:0:
345,109,21739,1,0,0:0:0:0:
391,133,21823,1,0,0:0:0:0:
442,141,21906,2,0,P|451:165|449:198,1,35,10|0,2:2|0:0,0:0:0:0:
495,289,22073,2,0,P|469:284|442:266,1,35,0|0,0:0|0:0,0:0:0:0:
363,227,22239,5,2,2:2:0:0:
311,216,22323,1,0,0:0:0:0:
259,225,22406,1,0,0:0:0:0:
216,255,22489,1,0,0:0:0:0:
188,299,22573,2,0,L|178:346,1,35,10|0,2:2|0:0,0:0:0:0:
88,374,22739,2,0,L|95:339,1,35,2|0,2:2|0:0,0:0:0:0:
29,273,22906,5,2,2:2:0:0:
51,225,22989,1,0,0:0:0:0:
48,172,23073,1,0,0:0:0:0:
19,127,23156,1,0,0:0:0:0:
2,77,23239,1,10,2:2:0:0:
19,27,23323,1,0,0:0:0:0:
67,6,23406,1,0,0:0:0:0:
118,13,23489,1,0,0:0:0:0:
149,55,23573,1,2,2:2:0:0:
149,107,23656,1,0,0:0:0:0:
164,157,23739,1,0,0:0:0:0:
200,194,23823,1,0,0:0:0:0:
252,199,23906,1,14,2:2:0:0:
298,175,23989,1,0,0:0:0:0:
326,130,24073,2,0,L|351:77,1,35,2|0,2:2|0:0,0:0:0:0:
262,2,24239,6,0,L|295:50,1,35,6|0,2:2|0:0,0:0:0:0:
408,7,24406,1,0,0:0:0:0:
408,7,24489,2,0,L|349:11,1,35,0|10,0:0|2:2,0:0:0:0:
463,86,24656,1,0,0:0:0:0:
463,86,24739,2,0,L|521:90,1,35,0|0,0:0|0:0,0:0:0:0:
410,165,24906,5,2,2:2:0:0:
410,165,24989,1,0,0:0:0:0:
410,165,25073,2,0,L|351:169,1,35,0|0,0:0|0:0,0:0:0:0:
484,217,25239,1,10,2:2:0:0:
479,244,25323,1,0,0:0:0:0:
480,271,25406,1,2,2:2:0:0:
486,298,25489,1,0,0:0:0:0:
496,323,25573,5,2,2:2:0:0:
444,314,25656,1,0,0:0:0:0:
391,313,25739,1,0,0:0:0:0:
340,326,25823,1,0,0:0:0:0:
294,352,25906,2,0,L|241:378,1,35,10|0,2:2|0:0,0:0:0:0:
123,338,26073,2,0,L|154:322,1,35,0|0,0:0|0:0,0:0:0:0:
281,257,26239,5,2,2:2:0:0:
333,252,26323,1,0,0:0:0:0:
373,219,26406,1,0,0:0:0:0:
385,167,26489,1,0,0:0:0:0:
360,120,26573,2,0,L|316:82,1,35,14|0,2:2|0:0,0:0:0:0:
189,56,26739,2,0,L|215:78,1,35,2|0,2:2|0:0,0:0:0:0:
256,165,26906,6,0,L|247:221,3,35,6|0|0|0,2:2|0:0|0:0|0:0,0:0:0:0:
302,268,27239,2,0,L|336:273,3,35,10|0|0|0,2:2|0:0|0:0|0:0,0:0:0:0:
407,223,27573,6,0,L|416:167,3,35,2|0|0|0,2:2|0:0|0:0|0:0,0:0:0:0:
361,120,27906,2,0,L|326:114,3,35,10|0|0|0,2:2|0:0|0:0|0:0,0:0:0:0:
479,76,28239,5,2,2:2:0:0:
479,76,28323,1,0,0:0:0:0:
479,76,28406,2,0,L|425:104,1,35,0|0,0:0|0:0,0:0:0:0:
369,35,28573,1,10,2:2:0:0:
369,35,28656,1,0,0:0:0:0:
369,35,28739,2,0,L|315:7,1,35,0|0,0:0|0:0,0:0:0:0:
246,84,28906,5,2,2:2:0:0:
246,84,28989,1,0,0:0:0:0:
246,84,29073,2,0,L|192:112,1,35,4|0,0:0|0:0,0:0:0:0:
136,43,29239,1,10,2:2:0:0:
136,43,29323,1,0,0:0:0:0:
136,43,29406,2,0,L|82:15,1,35,6|0,0:0|0:0,0:0:0:0:
20,80,29573,6,0,L|30:131,3,35,2|0|0|0,2:2|0:0|0:0|0:0,0:0:0:0:
117,179,29906,2,0,L|110:144,3,35,10|0|0|0,2:2|0:0|0:0|0:0,0:0:0:0:
9,199,30239,6,0,L|19:250,3,35,2|0|0|0,2:2|0:0|0:0|0:0,0:0:0:0:
106,298,30573,2,0,L|99:263,3,35,10|0|0|0,2:2|0:0|0:0|0:0,0:0:0:0:
37,376,30906,5,2,2:2:0:0:
85,355,30989,1,0,0:0:0:0:
137,352,31073,1,0,0:0:0:0:
187,366,31156,1,0,0:0:0:0:
238,358,31239,1,10,2:2:0:0:
276,322,31323,1,0,0:0:0:0:
289,271,31406,1,0,0:0:0:0:
264,224,31489,1,0,0:0:0:0:
246,174,31573,1,2,2:2:0:0:
259,123,31656,1,0,0:0:0:0:
300,90,31739,1,4,0:0:0:0:
352,90,31823,1,0,0:0:0:0:
396,118,31906,6,0,L|419:172,3,35,10|0|6|0,2:2|0:0|0:0|0:0,0:0:0:0:
493,179,32239,6,0,L|469:233,3,35,6|0|0|0,2:2|0:0|0:0|0:0,0:0:0:0:
493,289,32573,2,0,L|479:321,3,35,10|0|0|0,2:2|0:0|0:0|0:0,0:0:0:0:
394,374,32906,6,0,L|407:341,3,35,2|0|0|0,2:2|0:0|0:0|0:0,0:0:0:0:
304,371,33239,2,0,L|317:338,3,35,10|0|0|0,2:2|0:0|0:0|0:0,0:0:0:0:
203,327,33573,5,2,2:2:0:0:
203,327,33656,1,0,0:0:0:0:
203,327,33739,2,0,L|249:317,1,35,0|0,0:0|0:0,0:0:0:0:
287,245,33906,1,10,2:2:0:0:
287,245,33989,1,0,0:0:0:0:
287,245,34073,2,0,L|277:199,1,35,0|0,0:0|0:0,0:0:0:0:
205,161,34239,5,2,2:2:0:0:
205,161,34323,1,0,0:0:0:0:
205,161,34406,2,0,L|159:171,1,35,4|0,0:0|0:0,0:0:0:0:
121,243,34573,1,10,2:2:0:0:
121,243,34656,1,0,0:0:0:0:
121,243,34739,2,0,L|131:289,1,35,6|0,0:0|0:0,0:0:0:0:
203,327,34906,6,0,L|249:317,3,35,2|0|0|0,2:2|0:0|0:0|0:0,0:0:0:0:
235,245,35239,2,0,L|189:235,3,35,10|0|0|0,2:2|0:0|0:0|0:0,0:0:0:0:
203,163,35573,6,0,L|249:153,3,35,2|0|0|0,2:2|0:0|0:0|0:0,0:0:0:0:
235,81,35906,2,0,L|189:71,3,35,10|0|0|0,2:2|0:0|0:0|0:0,0:0:0:0:
303,136,36239,5,6,2:2:0:0:
318,85,36323,1,0,0:0:0:0:
303,34,36406,1,0,0:0:0:0:
260,2,36489,1,0,0:0:0:0:
207,2,36573,1,10,2:2:0:0:
166,35,36656,1,0,0:0:0:0:
152,85,36739,1,0,0:0:0:0:
170,134,36823,1,0,0:0:0:0:
188,183,36906,1,6,2:2:0:0:
206,232,36989,1,0,0:0:0:0:
192,282,37073,1,0,0:0:0:0:
151,315,37156,1,0,0:0:0:0:
98,315,37239,1,10,2:2:0:0:
55,283,37323,1,0,0:0:0:0:
40,232,37406,2,0,L|47:189,1,35,0|0,0:0|0:0,0:0:0:0:
97,89,37573,5,6,2:2:0:0:
99,99,37656,1,0,0:0:0:0:
101,109,37739,1,0,0:0:0:0:
103,119,37823,1,0,0:0:0:0:
105,129,37906,1,2,2:2:0:0:
107,139,37989,1,0,0:0:0:0:
109,149,38073,1,0,0:0:0:0:
111,159,38156,1,0,0:0:0:0:
113,169,38239,1,2,2:2:0:0:
115,179,38323,1,0,0:0:0:0:
117,189,38406,1,0,0:0:0:0:
119,199,38489,1,0,0:0:0:0:
121,209,38573,1,2,2:2:0:0:
123,219,38656,1,0,0:0:0:0:
125,229,38739,2,0,L|136:288,1,35,2|0,2:2|0:0,0:0:0:0:
191,359,38906,5,6,2:2:0:0:
193,349,38989,1,0,0:0:0:0:
195,339,39073,1,0,0:0:0:0:
197,329,39156,1,0,0:0:0:0:
199,319,39239,1,2,2:2:0:0:
201,309,39323,1,0,0:0:0:0:
203,299,39406,1,0,0:0:0:0:
205,289,39489,1,0,0:0:0:0:
207,279,39573,1,2,2:2:0:0:
209,269,39656,1,0,0:0:0:0:
211,259,39739,1,0,0:0:0:0:
213,249,39823,1,0,0:0:0:0:
215,239,39906,1,2,2:2:0:0:
217,229,39989,1,0,0:0:0:0:
219,219,40073,2,0,L|225:184,1,35,2|2,2:2|2:2,0:0:0:0:
248,16,40239,5,6,2:2:0:0:
250,26,40323,1,0,0:0:0:0:
252,36,40406,1,0,0:0:0:0:
254,46,40489,1,0,0:0:0:0:
256,56,40573,1,2,2:2:0:0:
258,66,40656,1,0,0:0:0:0:
260,76,40739,2,0,L|271:135,1,35,0|0,0:0|0:0,0:0:0:0:
362,157,40906,5,6,2:2:0:0:
360,167,40989,1,0,0:0:0:0:
358,177,41073,1,0,0:0:0:0:
356,187,41156,1,0,0:0:0:0:
354,197,41239,1,2,2:2:0:0:
352,207,41323,1,0,0:0:0:0:
350,217,41406,2,0,L|343:251,1,35,2|0,2:2|0:0,0:0:0:0:
215,274,41573,5,6,2:2:0:0:
225,276,41656,1,0,0:0:0:0:
235,278,41739,2,0,L|294:289,1,35,2|0,2:2|0:0,0:0:0:0:
387,338,41906,1,6,2:2:0:0:
377,340,41989,1,0,0:0:0:0:
367,342,42073,2,0,L|308:353,1,35,2|0,2:2|0:0,0:0:0:0:
245,370,42239,5,6,2:2:0:0:
194,360,42323,1,2,2:2:0:0:
157,323,42406,1,2,2:2:0:0:
146,273,42489,1,2,2:2:0:0:
165,225,42573,1,6,2:2:0:0:
208,195,42656,1,2,2:2:0:0:
259,194,42739,1,2,2:2:0:0:
303,222,42823,1,2,2:2:0:0:
328,268,42906,5,6,2:2:0:0:
371,295,42989,1,0,0:0:0:0:
423,294,43073,1,0,0:0:0:0:
465,265,43156,1,0,0:0:0:0:
484,217,43239,2,0,L|438:210,1,35,10|0,2:2|0:0,0:0:0:0:
434,102,43406,2,0,L|457:145,1,35,0|0,0:0|0:0,0:0:0:0:
502,53,43573,5,2,2:2:0:0:
462,18,43656,1,0,0:0:0:0:
409,16,43739,1,0,0:0:0:0:
365,45,43823,1,0,0:0:0:0:
348,94,43906,1,10,2:2:0:0:
304,123,43989,1,0,0:0:0:0:
251,121,44073,2,0,L|206:94,1,35,2|0,2:2|0:0,0:0:0:0:
82,5,44239,5,2,2:2:0:0:
117,44,44323,1,0,0:0:0:0:
119,97,44406,1,0,0:0:0:0:
90,141,44489,1,0,0:0:0:0:
41,158,44573,1,10,2:2:0:0:
12,202,44656,1,0,0:0:0:0:
14,255,44739,2,0,L|41:300,1,35,0|0,0:0|0:0,0:0:0:0:
176,226,44906,5,2,2:2:0:0:
176,226,44989,1,0,0:0:0:0:
176,226,45073,2,0,L|123:226,1,35,0|0,0:0|0:0,0:0:0:0:
120,380,45239,1,14,2:2:0:0:
120,380,45323,1,0,0:0:0:0:
120,380,45406,2,0,L|145:334,1,35,6|0,2:2|0:0,0:0:0:0:
259,321,45573,5,6,2:2:0:0:
295,358,45656,1,0,0:0:0:0:
342,380,45739,1,0,0:0:0:0:
394,383,45823,1,0,0:0:0:0:
444,368,45906,2,0,L|485:331,1,35,10|0,2:2|0:0,0:0:0:0:
487,224,46073,2,0,L|441:255,1,35,0|0,0:0|0:0,0:0:0:0:
362,282,46239,5,2,2:2:0:0:
320,250,46323,1,0,0:0:0:0:
293,206,46406,1,0,0:0:0:0:
285,154,46489,1,0,0:0:0:0:
298,104,46573,1,10,2:2:0:0:
290,52,46656,1,0,0:0:0:0:
263,8,46739,2,0,L|204:27,1,35,2|0,2:2|0:0,0:0:0:0:
55,82,46906,5,2,2:2:0:0:
87,124,46989,1,0,0:0:0:0:
131,151,47073,1,0,0:0:0:0:
183,159,47156,1,0,0:0:0:0:
233,146,47239,1,10,2:2:0:0:
285,154,47323,1,0,0:0:0:0:
329,181,47406,2,0,L|378:220,1,35,0|0,0:0|0:0,0:0:0:0:
435,291,47573,5,6,2:2:0:0:
435,291,47656,1,0,0:0:0:0:
435,291,47739,2,0,L|386:330,1,35,0|0,0:0|0:0,0:0:0:0:
305,377,47906,1,14,2:2:0:0:
305,377,47989,1,0,0:0:0:0:
305,377,48073,2,0,L|277:355,1,35,2|0,2:2|0:0,0:0:0:0:
191,285,48239,5,6,2:2:0:0:
171,333,48323,1,0,0:0:0:0:
130,364,48406,1,0,0:0:0:0:
78,368,48489,1,0,0:0:0:0:
32,344,48573,1,10,2:2:0:0:
5,300,48656,1,0,0:0:0:0:
6,248,48739,1,0,0:0:0:0:
34,204,48823,1,0,0:0:0:0:
81,182,48906,1,2,2:2:0:0:
126,156,48989,1,0,0:0:0:0:
154,111,49073,1,0,0:0:0:0:
149,58,49156,1,0,0:0:0:0:
117,16,49239,1,10,2:2:0:0:
166,33,49323,1,0,0:0:0:0:
218,36,49406,1,2,2:2:0:0:
269,25,49489,1,0,0:0:0:0:
320,14,49573,5,2,2:2:0:0:
371,4,49656,1,0,0:0:0:0:
422,15,49739,1,0,0:0:0:0:
465,45,49823,1,0,0:0:0:0:
494,88,49906,1,10,2:2:0:0:
504,139,49989,1,0,0:0:0:0:
494,191,50073,1,0,0:0:0:0:
465,234,50156,1,0,0:0:0:0:
422,264,50239,1,2,2:2:0:0:
371,275,50323,1,0,0:0:0:0:
320,266,50406,1,0,0:0:0:0:
276,238,50489,1,0,0:0:0:0:
224,229,50573,1,14,2:2:0:0:
173,240,50656,1,0,0:0:0:0:
130,269,50739,2,0,L|182:285,1,35,2|0,2:2|0:0,0:0:0:0:
282,351,50906,5,6,2:2:0:0:
327,376,50989,1,0,0:0:0:0:
379,383,51073,1,0,0:0:0:0:
430,372,51156,1,0,0:0:0:0:
473,343,51239,1,10,2:2:0:0:
503,300,51323,1,0,0:0:0:0:
512,250,51406,1,0,0:0:0:0:
509,198,51489,1,0,0:0:0:0:
485,152,51573,1,2,2:2:0:0:
446,117,51656,1,0,0:0:0:0:
397,100,51739,1,0,0:0:0:0:
344,100,51823,1,0,0:0:0:0:
296,120,51906,1,10,2:2:0:0:
243,120,51989,1,0,0:0:0:0:
194,102,52073,2,0,L|237:62,1,35,2|0,2:2|0:0,0:0:0:0:
320,26,52239,5,2,2:2:0:0:
368,6,52323,1,0,0:0:0:0:
419,10,52406,1,0,0:0:0:0:
464,38,52489,1,0,0:0:0:0:
490,82,52573,1,10,2:2:0:0:
494,134,52656,1,0,0:0:0:0:
474,182,52739,1,0,0:0:0:0:
434,215,52823,1,0,0:0:0:0:
383,227,52906,1,6,2:2:0:0:
395,277,52989,1,0,0:0:0:0:
383,327,53073,1,0,0:0:0:0:
348,366,53156,1,0,0:0:0:0:
300,384,53239,1,14,2:2:0:0:
248,377,53323,1,0,0:0:0:0:
206,346,53406,1,2,2:2:0:0:
183,299,53489,1,0,0:0:0:0:
185,247,53573,6,0,L|199:187,3,35,6|0|0|0,2:2|0:0|0:0|0:0,0:0:0:0:
297,130,53906,2,0,L|289:164,3,35,10|0|0|0,2:2|0:0|0:0|0:0,0:0:0:0:
183,133,54239,6,0,L|243:147,3,35,2|0|0|0,2:2|0:0|0:0|0:0,0:0:0:0:
298,252,54573,2,0,L|264:244,3,35,10|0|0|0,2:2|0:0|0:0|0:0,0:0:0:0:
361,159,54906,5,2,2:2:0:0:
361,159,54989,1,0,0:0:0:0:
361,159,55073,2,0,L|355:211,1,35,0|0,0:0|0:0,0:0:0:0:
476,125,55239,1,10,2:2:0:0:
476,125,55323,1,0,0:0:0:0:
476,125,55406,2,0,L|482:177,1,35,0|0,0:0|0:0,0:0:0:0:
358,84,55573,5,2,2:2:0:0:
358,84,55656,1,0,0:0:0:0:
358,84,55739,2,0,L|364:136,1,35,4|0,0:0|0:0,0:0:0:0:
243,50,55906,1,10,2:2:0:0:
243,50,55989,1,0,0:0:0:0:
243,50,56073,2,0,L|237:102,1,35,6|0,0:0|0:0,0:0:0:0:
128,51,56239,6,0,L|132:16,3,35,2|0|0|0,2:2|0:0|0:0|0:0,0:0:0:0:
47,33,56573,2,0,L|42:67,3,35,10|0|0|0,2:2|0:0|0:0|0:0,0:0:0:0:
95,121,56906,2,0,L|90:155,3,35,2|0|0|0,2:2|0:0|0:0|0:0,0:0:0:0:
5,172,57239,2,0,L|9:137,3,35,10|0|0|0,2:2|0:0|0:0|0:0,0:0:0:0:
31,270,57573,5,2,2:2:0:0:
33,218,57656,1,0,0:0:0:0:
60,173,57739,1,0,0:0:0:0:
106,148,57823,1,0,0:0:0:0:
157,149,57906,1,10,2:2:0:0:
202,175,57989,1,0,0:0:0:0:
229,220,58073,1,0,0:0:0:0:
255,264,58156,1,0,0:0:0:0:
300,290,58239,1,2,2:2:0:0:
352,291,58323,1,0,0:0:0:0:
397,266,58406,1,4,0:0:0:0:
425,221,58489,1,0,0:0:0:0:
427,170,58573,6,0,L|485:192,3,35,10|0|6|0,2:2|0:0|0:0|0:0,0:0:0:0:
350,209,58906,6,0,L|292:231,3,35,6|0|0|0,2:2|0:0|0:0|0:0,0:0:0:0:
427,248,59239,2,0,L|485:270,3,35,10|0|0|0,2:2|0:0|0:0|0:0,0:0:0:0:
350,287,59573,6,0,L|292:309,3,35,2|0|0|0,2:2|0:0|0:0|0:0,0:0:0:0:
427,326,59906,2,0,L|485:348,3,35,10|0|0|0,2:2|0:0|0:0|0:0,0:0:0:0:
348,364,60239,5,2,2:2:0:0:
348,364,60323,1,0,0:0:0:0:
348,364,60406,2,0,L|290:386,1,35,0|0,0:0|0:0,0:0:0:0:
251,327,60573,1,10,2:2:0:0:
251,327,60656,1,0,0:0:0:0:
251,327,60739,2,0,L|193:305,1,35,0|0,0:0|0:0,0:0:0:0:
158,371,60906,5,2,2:2:0:0:
158,371,60989,1,0,0:0:0:0:
158,371,61073,2,0,L|100:393,1,35,4|0,0:0|0:0,0:0:0:0:
61,334,61239,1,10,2:2:0:0:
61,334,61323,1,0,0:0:0:0:
61,334,61406,2,0,L|3:312,1,35,6|0,0:0|0:0,0:0:0:0:
0,208,61573,6,0,L|32:220,3,35,2|0|0|0,2:2|0:0|0:0|0:0,0:0:0:0:
73,123,61906,2,0,L|60:155,3,35,10|0|0|0,2:2|0:0|0:0|0:0,0:0:0:0:
159,199,62239,6,0,L|126:186,3,35,2|0|0|0,2:2|0:0|0:0|0:0,0:0:0:0:
86,284,62573,2,0,L|98:251,3,35,10|0|0|0,2:2|0:0|0:0|0:0,0:0:0:0:
237,237,62906,5,6,2:2:0:0:
244,185,62989,1,0,0:0:0:0:
221,139,63073,1,0,0:0:0:0:
176,113,63156,1,0,0:0:0:0:
125,118,63239,1,10,2:2:0:0:
84,150,63323,1,0,0:0:0:0:
70,200,63406,1,0,0:0:0:0:
85,249,63489,1,0,0:0:0:0:
126,281,63573,5,6,2:2:0:0:
178,287,63656,1,0,0:0:0:0:
230,293,63739,1,0,0:0:0:0:
282,299,63823,1,0,0:0:0:0:
334,306,63906,1,10,2:2:0:0:
338,311,63989,1,0,0:0:0:0:
342,316,64073,1,0,0:0:0:0:
346,321,64156,1,0,0:0:0:0:
350,326,64239,5,6,2:2:0:0:
386,362,64323,1,0,0:0:0:0:
437,370,64406,1,0,0:0:0:0:
484,347,64489,1,0,0:0:0:0:
508,302,64573,1,10,2:2:0:0:
502,251,64656,1,0,0:0:0:0:
468,212,64739,2,0,L|417:254,1,35,0|0,0:0|0:0,0:0:0:0:
343,283,64906,5,2,2:2:0:0:
343,283,64989,2,0,L|332:218,1,35,0|0,0:0|0:0,0:0:0:0:
344,139,65156,1,0,0:0:0:0:
344,139,65239,2,0,L|405:162,1,35,10|0,2:2|0:0,0:0:0:0:
494,90,65406,2,0,L|432:113,1,35,2|0,2:2|0:0,0:0:0:0:
369,65,65573,5,2,2:2:0:0:
335,25,65656,1,0,0:0:0:0:
284,14,65739,1,0,0:0:0:0:
237,34,65823,1,0,0:0:0:0:
210,78,65906,1,10,2:2:0:0:
183,122,65989,1,0,0:0:0:0:
135,141,66073,1,0,0:0:0:0:
85,130,66156,1,0,0:0:0:0:
51,91,66239,6,0,L|69:37,3,35,2|0|0|0,2:2|0:0|0:0|0:0,0:0:0:0:
143,37,66573,1,14,2:2:0:0:
139,89,66656,1,0,0:0:0:0:
135,141,66739,1,2,2:2:0:0:
131,193,66823,1,0,0:0:0:0:
116,243,66906,5,6,2:2:0:0:
163,221,66989,1,0,0:0:0:0:
215,223,67073,1,0,0:0:0:0:
261,246,67156,1,0,0:0:0:0:
293,288,67239,1,10,2:2:0:0:
338,311,67323,1,0,0:0:0:0:
391,312,67406,2,0,L|376:251,1,35,0|0,0:0|0:0,0:0:0:0:
284,354,67573,5,2,2:2:0:0:
284,354,67656,2,0,L|347:367,1,35,0|0,0:0|0:0,0:0:0:0:
180,314,67823,1,0,0:0:0:0:
180,314,67906,2,0,L|243:301,1,35,10|0,2:2|0:0,0:0:0:0:
114,360,68073,2,0,L|51:347,1,35,2|0,2:2|0:0,0:0:0:0:
21,255,68239,5,2,2:2:0:0:
21,255,68323,2,0,L|9:305,1,35,0|0,0:0|0:0,0:0:0:0:
125,221,68489,1,0,0:0:0:0:
125,221,68573,2,0,L|137:271,1,35,10|0,2:2|0:0,0:0:0:0:
41,134,68739,2,0,L|29:184,1,35,0|0,0:0|0:0,0:0:0:0:
2,63,68906,5,6,2:2:0:0:
35,52,68989,1,0,0:0:0:0:
69,56,69073,2,0,L|110:89,1,35,0|0,0:0|0:0,0:0:0:0:
159,150,69239,1,14,2:2:0:0:
192,161,69323,1,0,0:0:0:0:
226,157,69406,2,0,L|267:124,1,35,2|0,2:2|0:0,0:0:0:0:
297,10,69573,5,6,2:2:0:0:
297,10,69656,2,0,L|312:64,1,35,0|0,0:0|0:0,0:0:0:0:
416,80,69823,1,0,0:0:0:0:
416,80,69906,2,0,L|431:134,1,35,10|0,2:2|0:0,0:0:0:0:
333,139,70073,2,0,L|318:193,1,35,0|0,0:0|0:0,0:0:0:0:
211,237,70239,5,2,2:2:0:0:
245,276,70323,1,0,0:0:0:0:
292,298,70406,1,0,0:0:0:0:
344,299,70489,1,0,0:0:0:0:
392,280,70573,1,10,2:2:0:0:
429,242,70656,1,0,0:0:0:0:
447,194,70739,2,0,L|392:207,1,35,2|0,2:2|0:0,0:0:0:0:
294,219,70906,6,0,L|349:231,1,35,2|0,2:2|0:0,0:0:0:0:
227,120,71073,1,0,0:0:0:0:
227,120,71156,2,0,L|210:65,1,35,0|10,0:0|2:2,0:0:0:0:
174,227,71323,1,0,0:0:0:0:
174,227,71406,2,0,L|135:268,1,35,0|0,0:0|0:0,0:0:0:0:
299,202,71573,6,0,L|357:203,1,35,2|0,2:2|0:0,0:0:0:0:
213,119,71739,1,0,0:0:0:0:
213,119,71823,2,0,L|185:69,1,35,0|14,0:0|2:2,0:0:0:0:
184,235,71989,1,0,0:0:0:0:
184,235,72073,2,0,L|154:284,1,35,2|0,2:2|0:0,0:0:0:0:
8,355,72239,5,6,2:2:0:0:
53,329,72323,1,0,0:0:0:0:
105,324,72406,1,0,0:0:0:0:
155,336,72489,1,0,0:0:0:0:
198,367,72573,1,10,2:2:0:0:
248,379,72656,1,0,0:0:0:0:
300,373,72739,2,0,L|345:342,1,35,0|0,0:0|0:0,0:0:0:0:
469,381,72906,5,2,2:2:0:0:
470,328,72989,1,0,0:0:0:0:
453,279,73073,1,0,0:0:0:0:
419,239,73156,1,0,0:0:0:0:
373,214,73239,1,10,2:2:0:0:
322,207,73323,1,0,0:0:0:0:
271,219,73406,2,0,L|281:277,1,35,2|0,2:2|0:0,0:0:0:0:
381,369,73573,5,2,2:2:0:0:
363,319,73656,1,0,0:0:0:0:
361,266,73739,1,0,0:0:0:0:
373,214,73823,1,0,0:0:0:0:
401,169,73906,2,0,L|434:130,1,35,10|0,2:2|0:0,0:0:0:0:
489,42,74073,1,0,0:0:0:0:
489,42,74156,1,0,0:0:0:0:
489,42,74239,6,0,L|504:99,3,35,6|0|0|0,2:2|0:0|0:0|0:0,0:0:0:0:
362,22,74573,1,14,2:2:0:0:
362,22,74656,1,0,0:0:0:0:
362,22,74739,2,0,L|307:37,1,35,2|0,2:2|0:0,0:0:0:0:
163,12,74906,6,0,L|218:27,3,35,6|0|0|0,2:2|0:0|0:0|0:0,0:0:0:0:
257,101,75239,2,0,L|202:116,3,35,10|0|0|0,2:2|0:0|0:0|0:0,0:0:0:0:
126,110,75573,6,0,L|71:95,3,35,2|0|0|0,2:2|0:0|0:0|0:0,0:0:0:0:
32,21,75906,2,0,L|87:6,3,35,10|0|0|0,2:2|0:0|0:0|0:0,0:0:0:0:
11,120,76239,5,2,2:2:0:0:
11,120,76323,1,0,0:0:0:0:
11,120,76406,2,0,L|17:167,1,35,0|0,0:0|0:0,0:0:0:0:
103,199,76573,1,10,2:2:0:0:
103,199,76656,1,0,0:0:0:0:
103,199,76739,2,0,L|97:246,1,35,0|0,0:0|0:0,0:0:0:0:
8,246,76906,5,2,2:2:0:0:
8,246,76989,1,0,0:0:0:0:
8,246,77073,2,0,L|14:293,1,35,4|0,0:0|0:0,0:0:0:0:
100,325,77239,1,10,2:2:0:0:
100,325,77323,1,0,0:0:0:0:
100,325,77406,2,0,L|94:372,1,35,6|0,0:0|0:0,0:0:0:0:
183,353,77573,6,0,L|217:357,3,35,2|0|0|0,2:2|0:0|0:0|0:0,0:0:0:0:
297,300,77906,2,0,L|262:295,3,35,10|0|0|0,2:2|0:0|0:0|0:0,0:0:0:0:
294,374,78239,6,0,L|328:378,3,35,2|0|0|0,2:2|0:0|0:0|0:0,0:0:0:0:
408,321,78573,2,0,L|373:316,3,35,10|0|0|0,2:2|0:0|0:0|0:0,0:0:0:0:
509,384,78906,5,2,2:2:0:0:
484,337,78989,1,0,0:0:0:0:
469,287,79073,1,0,0:0:0:0:
466,235,79156,1,0,0:0:0:0:
474,183,79239,1,10,2:2:0:0:
465,131,79323,1,0,0:0:0:0:
435,87,79406,1,0,0:0:0:0:
386,65,79489,1,0,0:0:0:0:
334,74,79573,1,2,2:2:0:0:
294,108,79656,1,0,0:0:0:0:
285,159,79739,1,4,0:0:0:0:
302,208,79823,1,0,0:0:0:0:
344,238,79906,6,0,L|396:232,3,35,10|0|6|0,2:2|0:0|0:0|0:0,0:0:0:0:
224,236,80239,6,0,L|172:230,3,35,6|0|0|0,2:2|0:0|0:0|0:0,0:0:0:0:
138,164,80573,2,0,L|144:112,3,35,10|0|0|0,2:2|0:0|0:0|0:0,0:0:0:0:
214,78,80906,6,0,L|266:84,3,35,2|0|0|0,2:2|0:0|0:0|0:0,0:0:0:0:
300,150,81239,2,0,L|294:202,3,35,10|0|0|0,2:2|0:0|0:0|0:0,0:0:0:0:
195,206,81573,5,2,2:2:0:0:
195,206,81656,1,0,0:0:0:0:
195,206,81739,2,0,L|201:258,1,35,0|0,0:0|0:0,0:0:0:0:
291,266,81906,1,10,2:2:0:0:
291,266,81989,1,0,0:0:0:0:
291,266,82073,2,0,L|285:318,1,35,0|0,0:0|0:0,0:0:0:0:
203,322,82239,5,2,2:2:0:0:
203,322,82323,1,0,0:0:0:0:
203,322,82406,2,0,L|197:374,1,35,4|0,0:0|0:0,0:0:0:0:
108,277,82573,1,10,2:2:0:0:
108,277,82656,1,0,0:0:0:0:
108,277,82739,2,0,L|114:329,1,35,6|0,0:0|0:0,0:0:0:0:
9,252,82906,6,0,L|13:217,3,35,2|0|0|0,2:2|0:0|0:0|0:0,0:0:0:0:
34,106,83239,2,0,L|38:140,3,35,10|0|0|0,2:2|0:0|0:0|0:0,0:0:0:0:
100,219,83573,6,0,L|104:184,3,35,2|0|0|0,2:2|0:0|0:0|0:0,0:0:0:0:
125,73,83906,2,0,L|129:107,3,35,10|0|0|0,2:2|0:0|0:0|0:0,0:0:0:0:
214,45,84239,5,6,2:2:0:0:
173,12,84323,1,0,0:0:0:0:
122,3,84406,1,0,0:0:0:0:
73,20,84489,1,0,0:0:0:0:
37,58,84573,1,10,2:2:0:0:
25,108,84656,1,0,0:0:0:0:
38,158,84739,1,0,0:0:0:0:
73,196,84823,1,0,0:0:0:0:
123,212,84906,5,6,2:2:0:0:
175,205,84989,1,0,0:0:0:0:
227,198,85073,1,0,0:0:0:0:
279,191,85156,1,0,0:0:0:0:
331,184,85239,2,0,L|369:153,3,35,14|0|4|0,2:2|0:0|2:2|0:0,0:0:0:0:
284,19,85573,5,0,0:0:0:0:
282,23,85656,1,0,0:0:0:0:
280,28,85739,1,0,0:0:0:0:
278,33,85823,1,0,0:0:0:0:
276,38,85906,1,0,0:0:0:0:
275,43,85989,1,0,0:0:0:0:
273,48,86073,1,0,0:0:0:0:
272,53,86156,1,0,0:0:0:0:
270,58,86239,1,0,0:0:0:0:
269,63,86323,1,0,0:0:0:0:
268,69,86406,1,0,0:0:0:0:
267,74,86489,1,0,0:0:0:0:
266,79,86573,1,0,0:0:0:0:
265,84,86656,1,0,0:0:0:0:
264,89,86739,1,0,0:0:0:0:
264,94,86823,1,0,0:0:0:0:
263,100,86906,1,0,0:0:0:0:
263,105,86989,1,0,0:0:0:0:
262,110,87073,1,0,0:0:0:0:
262,115,87156,1,0,0:0:0:0:
262,121,87239,1,0,0:0:0:0:
262,126,87323,1,0,0:0:0:0:
262,131,87406,1,0,0:0:0:0:
262,136,87489,1,0,0:0:0:0:
262,142,87573,1,0,0:0:0:0:
262,147,87656,1,0,0:0:0:0:
263,152,87739,1,0,0:0:0:0:
263,157,87823,1,0,0:0:0:0:
264,163,87906,1,0,0:0:0:0:
265,168,87989,1,0,0:0:0:0:
266,173,88073,1,0,0:0:0:0:
266,178,88156,1,0,0:0:0:0:
267,183,88239,5,0,0:0:0:0:
282,187,88323,1,0,0:0:0:0:
296,194,88406,1,0,0:0:0:0:
309,202,88489,1,0,0:0:0:0:
320,213,88573,1,0,0:0:0:0:
330,226,88656,1,0,0:0:0:0:
338,239,88739,1,0,0:0:0:0:
343,254,88823,1,0,0:0:0:0:
346,270,88906,1,0,0:0:0:0:
347,285,88989,1,0,0:0:0:0:
345,301,89073,1,0,0:0:0:0:
341,316,89156,1,0,0:0:0:0:
334,330,89239,1,0,0:0:0:0:
325,343,89323,1,0,0:0:0:0:
315,355,89406,1,0,0:0:0:0:
302,365,89489,1,0,0:0:0:0:
289,372,89573,1,0,0:0:0:0:
274,378,89656,1,0,0:0:0:0:
258,381,89739,1,0,0:0:0:0:
243,382,89823,1,0,0:0:0:0:
227,380,89906,1,0,0:0:0:0:
212,376,89989,1,0,0:0:0:0:
198,369,90073,1,0,0:0:0:0:
184,361,90156,1,0,0:0:0:0:
173,350,90239,1,0,0:0:0:0:
163,338,90323,1,0,0:0:0:0:
155,324,90406,1,0,0:0:0:0:
150,309,90489,1,0,0:0:0:0:
146,294,90573,1,0,0:0:0:0:
148,278,90656,1,0,0:0:0:0:
151,262,90739,2,0,L|165:222,1,35,0|0,0:0|0:0,0:0:0:0:
218,144,90906,5,0,0:0:0:0:
218,144,90989,2,0,L|230:187,1,35,0|0,0:0|0:0,0:0:0:0:
133,90,91156,1,0,0:0:0:0:
133,90,91239,2,0,L|121:133,1,35,0|0,0:0|0:0,0:0:0:0:
213,23,91406,2,0,L|279:40,1,35,0|0,0:0|0:0,0:0:0:0:
311,104,91573,5,0,0:0:0:0:
311,104,91656,2,0,L|345:96,1,35,0|0,0:0|0:0,0:0:0:0:
412,8,91823,1,0,0:0:0:0:
412,8,91906,2,0,L|417:66,1,35,0|0,0:0|0:0,0:0:0:0:
497,101,92073,2,0,L|492:159,1,35,0|0,0:0|0:0,0:0:0:0:
404,159,92239,6,0,L|409:217,1,35,0|0,0:0|0:0,0:0:0:0:
497,239,92406,1,0,0:0:0:0:
497,239,92489,2,0,L|492:297,1,35,0|0,0:0|0:0,0:0:0:0:
403,308,92656,1,0,0:0:0:0:
403,308,92739,2,0,L|408:366,1,35,0|0,0:0|0:0,0:0:0:0:
293,384,92906,6,0,L|298:326,1,35,0|0,0:0|0:0,0:0:0:0:
159,344,93073,1,0,0:0:0:0:
159,344,93156,2,0,L|154:286,1,35,0|0,0:0|0:0,0:0:0:0:
241,277,93323,1,0,0:0:0:0:
241,277,93406,2,0,L|246:219,1,35,0|0,0:0|0:0,0:0:0:0:
329,257,93573,5,0,0:0:0:0:
351,230,93656,1,0,0:0:0:0:
366,198,93739,1,0,0:0:0:0:
372,164,93823,1,0,0:0:0:0:
369,129,93906,1,0,0:0:0:0:
356,97,93989,1,0,0:0:0:0:
336,69,94073,1,0,0:0:0:0:
308,47,94156,1,0,0:0:0:0:
276,34,94239,1,0,0:0:0:0:
241,29,94323,1,0,0:0:0:0:
207,34,94406,1,0,0:0:0:0:
175,48,94489,1,0,0:0:0:0:
148,70,94573,1,0,0:0:0:0:
127,99,94656,1,0,0:0:0:0:
116,132,94739,2,0,L|133:190,1,35,0|0,0:0|0:0,0:0:0:0:
21,215,94906,5,0,0:0:0:0:
42,242,94989,1,0,0:0:0:0:
71,262,95073,1,0,0:0:0:0:
104,273,95156,1,0,0:0:0:0:
139,274,95239,1,0,0:0:0:0:
173,265,95323,1,0,0:0:0:0:
203,248,95406,2,0,L|239:209,1,35,0|0,0:0|0:0,0:0:0:0:
277,128,95573,5,0,0:0:0:0:
298,100,95656,1,0,0:0:0:0:
327,80,95739,1,0,0:0:0:0:
360,69,95823,1,0,0:0:0:0:
395,68,95906,1,0,0:0:0:0:
429,77,95989,1,0,0:0:0:0:
459,94,96073,1,0,0:0:0:0:
483,118,96156,1,0,0:0:0:0:
496,150,96239,5,6,0:0:0:0:
