osu file format v14

[General]
AudioFilename: midnight siege cut x1,156 p1,156.mp3
AudioLeadIn: 0
PreviewTime: 16814
Countdown: 0
SampleSet: Soft
StackLeniency: 0.3
Mode: 0
LetterboxInBreaks: 0
WidescreenStoryboard: 0

[Editor]
Bookmarks: 16814,27887,44496,66641,88787
DistanceSpacing: 1
BeatDivisor: 4
GridSize: 8
TimelineZoom: 2.2

[Metadata]
Title:Midnight Siege
TitleUnicode:Midnight Siege
Artist:Dimrain47
ArtistUnicode:Dimrain47
Creator:Kastellan
Version:173 (260)
Source:
Tags:stamina practice fingercontrol
BeatmapID:2156113
BeatmapSetID:1031040

[Difficulty]
HPDrainRate:6.1
CircleSize:4
OverallDifficulty:8.7
ApproachRate:8.7
SliderMultiplier:1.4
SliderTickRate:1

[Events]
//Background and Video events
0,0,"Cool-Space-Wallpaper.jpg",0,0
//Break Periods
//Storyboard Layer 0 (Background)
//Storyboard Layer 1 (Fail)
//Storyboard Layer 2 (Pass)
//Storyboard Layer 3 (Foreground)
//Storyboard Layer 4 (Overlay)
//Storyboard Sound Samples

[TimingPoints]
245,346.020761245675,4,2,1,50,1,0
39000,-100,4,2,1,20,0,0
40384,-100,4,2,1,30,0,0
41768,-100,4,2,1,40,0,0
42460,-100,4,2,1,45,0,0
43152,-100,4,2,1,50,0,0
88827,-100,4,2,1,30,0,0
90903,-100,4,2,1,35,0,0
91249,-100,4,2,1,40,0,0
91595,-100,4,2,1,45,0,0
91941,-100,4,2,1,50,0,0

[Colours]
Combo1 : 231,210,71
Combo2 : 27,180,224
Combo3 : 38,117,234
Combo4 : 232,108,34

[HitObjects]
38,84,11317,5,2,2:2:0:0:
160,78,11663,1,2,0:0:0:0:
166,200,12009,1,2,2:2:0:0:
44,206,12355,1,2,2:2:0:0:
38,84,12528,1,2,2:2:0:0:
166,200,12874,5,2,2:2:0:0:
288,194,13047,1,2,2:2:0:0:
230,84,13393,5,2,2:2:0:0:
352,78,13566,1,2,2:2:0:0:
470,44,13739,1,2,2:2:0:0:
471,54,13826,1,2,2:2:0:0:
472,64,13912,1,2,2:2:0:0:
473,74,13999,1,2,2:2:0:0:
474,84,14085,5,2,2:2:0:0:
352,78,14431,1,2,0:0:0:0:
346,200,14777,1,2,2:2:0:0:
468,206,15123,1,2,2:2:0:0:
474,84,15296,1,2,2:2:0:0:
346,200,15642,5,2,2:2:0:0:
224,194,15815,1,2,2:2:0:0:
282,84,16161,5,2,2:2:0:0:
160,78,16334,1,2,2:2:0:0:
42,44,16507,1,2,2:2:0:0:
41,54,16594,1,2,2:2:0:0:
40,64,16680,1,2,2:2:0:0:
39,74,16767,1,2,2:2:0:0:
36,84,16853,5,6,2:2:0:0:
87,72,16940,1,0,0:0:0:0:
139,79,17027,1,0,0:0:0:0:
184,105,17113,1,0,0:0:0:0:
214,147,17200,1,10,2:2:0:0:
259,173,17286,1,0,0:0:0:0:
311,180,17373,2,0,P|334:180|364:167,1,35,0|0,0:0|0:0,0:0:0:0:
367,46,17546,5,2,2:2:0:0:
367,46,17632,2,0,P|355:65|351:98,1,35,0|0,0:0|0:0,0:0:0:0:
455,161,17805,1,0,0:0:0:0:
455,161,17892,2,0,P|443:141|417:121,1,35,10|0,2:2|0:0,0:0:0:0:
347,243,18065,2,0,P|352:259|361:274,1,35,2|0,2:2|0:0,0:0:0:0:
461,369,18238,5,2,2:2:0:0:
412,348,18324,1,0,0:0:0:0:
359,347,18411,1,0,0:0:0:0:
312,371,18497,1,0,0:0:0:0:
262,354,18584,2,0,P|259:336|260:319,1,35,10|0,2:2|0:0,0:0:0:0:
222,177,18757,1,0,0:0:0:0:
222,177,18843,1,0,0:0:0:0:
222,177,18930,6,0,L|203:242,3,35,2|0|0|0,2:2|0:0|0:0|0:0,0:0:0:0:
121,275,19276,2,0,L|140:210,3,35,14|0|2|0,2:2|0:0|2:2|0:0,0:0:0:0:
36,284,19622,5,6,2:2:0:0:
57,331,19708,1,0,0:0:0:0:
102,357,19795,1,0,0:0:0:0:
154,354,19881,1,0,0:0:0:0:
193,319,19968,1,10,2:2:0:0:
232,284,20054,1,0,0:0:0:0:
284,281,20141,2,0,P|300:289|326:312,1,35,0|0,0:0|0:0,0:0:0:0:
423,371,20314,5,2,2:2:0:0:
423,371,20400,2,0,L|374:384,1,35,0|0,0:0|0:0,0:0:0:0:
447,273,20573,1,0,0:0:0:0:
447,273,20660,2,0,L|398:286,1,35,10|0,2:2|0:0,0:0:0:0:
465,178,20833,2,0,L|416:191,1,35,2|0,2:2|0:0,0:0:0:0:
314,215,21006,5,2,2:2:0:0:
265,235,21092,1,0,0:0:0:0:
213,243,21179,1,0,0:0:0:0:
161,234,21265,1,0,0:0:0:0:
116,206,21352,2,0,L|127:159,1,35,10|0,2:2|0:0,0:0:0:0:
71,21,21525,1,0,0:0:0:0:
71,21,21611,1,0,0:0:0:0:
71,21,21698,6,0,L|53:83,3,35,6|0|0|0,2:2|0:0|0:0|0:0,0:0:0:0:
120,140,22044,2,0,L|129:106,1,35,14|0,2:2|0:0,0:0:0:0:
217,37,22217,2,0,L|208:71,1,35,2|0,2:2|0:0,0:0:0:0:
314,16,22390,5,6,2:2:0:0:
314,68,22476,1,0,0:0:0:0:
345,109,22563,1,0,0:0:0:0:
391,133,22649,1,0,0:0:0:0:
442,141,22736,2,0,P|451:165|449:198,1,35,10|0,2:2|0:0,0:0:0:0:
495,289,22909,2,0,P|469:284|442:266,1,35,0|0,0:0|0:0,0:0:0:0:
363,227,23082,5,2,2:2:0:0:
311,216,23168,1,0,0:0:0:0:
259,225,23255,1,0,0:0:0:0:
216,255,23341,1,0,0:0:0:0:
188,299,23428,2,0,L|178:346,1,35,10|0,2:2|0:0,0:0:0:0:
88,374,23601,2,0,L|95:339,1,35,2|0,2:2|0:0,0:0:0:0:
29,273,23774,5,2,2:2:0:0:
51,225,23860,1,0,0:0:0:0:
48,172,23947,1,0,0:0:0:0:
19,127,24033,1,0,0:0:0:0:
2,77,24120,1,10,2:2:0:0:
19,27,24206,1,0,0:0:0:0:
67,6,24293,1,0,0:0:0:0:
118,13,24379,1,0,0:0:0:0:
149,55,24466,1,2,2:2:0:0:
149,107,24552,1,0,0:0:0:0:
164,157,24639,1,0,0:0:0:0:
200,194,24725,1,0,0:0:0:0:
252,199,24812,1,14,2:2:0:0:
298,175,24898,1,0,0:0:0:0:
326,130,24985,2,0,L|351:77,1,35,2|0,2:2|0:0,0:0:0:0:
262,2,25158,6,0,L|295:50,1,35,6|0,2:2|0:0,0:0:0:0:
408,7,25331,1,0,0:0:0:0:
408,7,25418,2,0,L|349:11,1,35,0|10,0:0|2:2,0:0:0:0:
463,86,25591,1,0,0:0:0:0:
463,86,25677,2,0,L|521:90,1,35,0|0,0:0|0:0,0:0:0:0:
410,165,25850,5,2,2:2:0:0:
410,165,25937,1,0,0:0:0:0:
410,165,26023,2,0,L|351:169,1,35,0|0,0:0|0:0,0:0:0:0:
484,217,26196,1,10,2:2:0:0:
479,244,26283,1,0,0:0:0:0:
480,271,26369,1,2,2:2:0:0:
486,298,26456,1,0,0:0:0:0:
496,323,26542,5,2,2:2:0:0:
444,314,26629,1,0,0:0:0:0:
391,313,26715,1,0,0:0:0:0:
340,326,26802,1,0,0:0:0:0:
294,352,26888,2,0,L|241:378,1,35,10|0,2:2|0:0,0:0:0:0:
123,338,27061,2,0,L|154:322,1,35,0|0,0:0|0:0,0:0:0:0:
281,257,27234,5,2,2:2:0:0:
333,252,27321,1,0,0:0:0:0:
373,219,27407,1,0,0:0:0:0:
385,167,27494,1,0,0:0:0:0:
360,120,27580,2,0,L|316:82,1,35,14|0,2:2|0:0,0:0:0:0:
189,56,27753,2,0,L|215:78,1,35,2|0,2:2|0:0,0:0:0:0:
256,165,27926,6,0,L|247:221,3,35,6|0|0|0,2:2|0:0|0:0|0:0,0:0:0:0:
302,268,28272,2,0,L|336:273,3,35,10|0|0|0,2:2|0:0|0:0|0:0,0:0:0:0:
407,223,28618,6,0,L|416:167,3,35,2|0|0|0,2:2|0:0|0:0|0:0,0:0:0:0:
361,120,28964,2,0,L|326:114,3,35,10|0|0|0,2:2|0:0|0:0|0:0,0:0:0:0:
479,76,29310,5,2,2:2:0:0:
479,76,29397,1,0,0:0:0:0:
479,76,29483,2,0,L|425:104,1,35,0|0,0:0|0:0,0:0:0:0:
369,35,29656,1,10,2:2:0:0:
369,35,29743,1,0,0:0:0:0:
369,35,29829,2,0,L|315:7,1,35,0|0,0:0|0:0,0:0:0:0:
246,84,30002,5,2,2:2:0:0:
246,84,30089,1,0,0:0:0:0:
246,84,30175,2,0,L|192:112,1,35,4|0,0:0|0:0,0:0:0:0:
136,43,30348,1,10,2:2:0:0:
136,43,30435,1,0,0:0:0:0:
136,43,30521,2,0,L|82:15,1,35,6|0,0:0|0:0,0:0:0:0:
20,80,30694,6,0,L|30:131,3,35,2|0|0|0,2:2|0:0|0:0|0:0,0:0:0:0:
117,179,31040,2,0,L|110:144,3,35,10|0|0|0,2:2|0:0|0:0|0:0,0:0:0:0:
9,199,31386,6,0,L|19:250,3,35,2|0|0|0,2:2|0:0|0:0|0:0,0:0:0:0:
106,298,31732,2,0,L|99:263,3,35,10|0|0|0,2:2|0:0|0:0|0:0,0:0:0:0:
37,376,32078,5,2,2:2:0:0:
85,355,32165,1,0,0:0:0:0:
137,352,32251,1,0,0:0:0:0:
187,366,32338,1,0,0:0:0:0:
238,358,32424,1,10,2:2:0:0:
276,322,32511,1,0,0:0:0:0:
289,271,32597,1,0,0:0:0:0:
264,224,32684,1,0,0:0:0:0:
246,174,32770,1,2,2:2:0:0:
259,123,32857,1,0,0:0:0:0:
300,90,32943,1,4,0:0:0:0:
352,90,33030,1,0,0:0:0:0:
396,118,33116,6,0,L|419:172,3,35,10|0|6|0,2:2|0:0|0:0|0:0,0:0:0:0:
493,179,33462,6,0,L|469:233,3,35,6|0|0|0,2:2|0:0|0:0|0:0,0:0:0:0:
493,289,33809,2,0,L|479:321,3,35,10|0|0|0,2:2|0:0|0:0|0:0,0:0:0:0:
394,374,34155,6,0,L|407:341,3,35,2|0|0|0,2:2|0:0|0:0|0:0,0:0:0:0:
304,371,34501,2,0,L|317:338,3,35,10|0|0|0,2:2|0:0|0:0|0:0,0:0:0:0:
203,327,34847,5,2,2:2:0:0:
203,327,34933,1,0,0:0:0:0:
203,327,35020,2,0,L|249:317,1,35,0|0,0:0|0:0,0:0:0:0:
287,245,35193,1,10,2:2:0:0:
287,245,35279,1,0,0:0:0:0:
287,245,35366,2,0,L|277:199,1,35,0|0,0:0|0:0,0:0:0:0:
205,161,35539,5,2,2:2:0:0:
205,161,35625,1,0,0:0:0:0:
205,161,35712,2,0,L|159:171,1,35,4|0,0:0|0:0,0:0:0:0:
121,243,35885,1,10,2:2:0:0:
121,243,35971,1,0,0:0:0:0:
121,243,36058,2,0,L|131:289,1,35,6|0,0:0|0:0,0:0:0:0:
203,327,36231,6,0,L|249:317,3,35,2|0|0|0,2:2|0:0|0:0|0:0,0:0:0:0:
235,245,36577,2,0,L|189:235,3,35,10|0|0|0,2:2|0:0|0:0|0:0,0:0:0:0:
203,163,36923,6,0,L|249:153,3,35,2|0|0|0,2:2|0:0|0:0|0:0,0:0:0:0:
235,81,37269,2,0,L|189:71,3,35,10|0|0|0,2:2|0:0|0:0|0:0,0:0:0:0:
303,136,37615,5,6,2:2:0:0:
318,85,37701,1,0,0:0:0:0:
303,34,37788,1,0,0:0:0:0:
260,2,37874,1,0,0:0:0:0:
207,2,37961,1,10,2:2:0:0:
166,35,38047,1,0,0:0:0:0:
152,85,38134,1,0,0:0:0:0:
170,134,38220,1,0,0:0:0:0:
188,183,38307,1,6,2:2:0:0:
206,232,38393,1,0,0:0:0:0:
192,282,38480,1,0,0:0:0:0:
151,315,38566,1,0,0:0:0:0:
98,315,38653,1,10,2:2:0:0:
55,283,38739,1,0,0:0:0:0:
40,232,38826,2,0,L|47:189,1,35,0|0,0:0|0:0,0:0:0:0:
97,89,38999,5,6,2:2:0:0:
99,99,39085,1,0,0:0:0:0:
101,109,39172,1,0,0:0:0:0:
103,119,39258,1,0,0:0:0:0:
105,129,39345,1,2,2:2:0:0:
107,139,39431,1,0,0:0:0:0:
109,149,39518,1,0,0:0:0:0:
111,159,39604,1,0,0:0:0:0:
113,169,39691,1,2,2:2:0:0:
115,179,39777,1,0,0:0:0:0:
117,189,39864,1,0,0:0:0:0:
119,199,39950,1,0,0:0:0:0:
121,209,40037,1,2,2:2:0:0:
123,219,40123,1,0,0:0:0:0:
125,229,40210,2,0,L|136:288,1,35,2|0,2:2|0:0,0:0:0:0:
191,359,40383,5,6,2:2:0:0:
193,349,40469,1,0,0:0:0:0:
195,339,40556,1,0,0:0:0:0:
197,329,40642,1,0,0:0:0:0:
199,319,40729,1,2,2:2:0:0:
201,309,40815,1,0,0:0:0:0:
203,299,40902,1,0,0:0:0:0:
205,289,40988,1,0,0:0:0:0:
207,279,41075,1,2,2:2:0:0:
209,269,41161,1,0,0:0:0:0:
211,259,41248,1,0,0:0:0:0:
213,249,41334,1,0,0:0:0:0:
215,239,41421,1,2,2:2:0:0:
217,229,41507,1,0,0:0:0:0:
219,219,41594,2,0,L|225:184,1,35,2|2,2:2|2:2,0:0:0:0:
248,16,41767,5,6,2:2:0:0:
250,26,41853,1,0,0:0:0:0:
252,36,41940,1,0,0:0:0:0:
254,46,42027,1,0,0:0:0:0:
256,56,42113,1,2,2:2:0:0:
258,66,42200,1,0,0:0:0:0:
260,76,42286,2,0,L|271:135,1,35,0|0,0:0|0:0,0:0:0:0:
362,157,42459,5,6,2:2:0:0:
360,167,42546,1,0,0:0:0:0:
358,177,42632,1,0,0:0:0:0:
356,187,42719,1,0,0:0:0:0:
354,197,42805,1,2,2:2:0:0:
352,207,42892,1,0,0:0:0:0:
350,217,42978,2,0,L|343:251,1,35,2|0,2:2|0:0,0:0:0:0:
215,274,43151,5,6,2:2:0:0:
225,276,43238,1,0,0:0:0:0:
235,278,43324,2,0,L|294:289,1,35,2|0,2:2|0:0,0:0:0:0:
387,338,43497,1,6,2:2:0:0:
377,340,43584,1,0,0:0:0:0:
367,342,43670,2,0,L|308:353,1,35,2|0,2:2|0:0,0:0:0:0:
245,370,43843,5,6,2:2:0:0:
194,360,43930,1,2,2:2:0:0:
157,323,44016,1,2,2:2:0:0:
146,273,44103,1,2,2:2:0:0:
165,225,44189,1,6,2:2:0:0:
208,195,44276,1,2,2:2:0:0:
259,194,44362,1,2,2:2:0:0:
303,222,44449,1,2,2:2:0:0:
328,268,44535,5,6,2:2:0:0:
371,295,44622,1,0,0:0:0:0:
423,294,44708,1,0,0:0:0:0:
465,265,44795,1,0,0:0:0:0:
484,217,44881,2,0,L|438:210,1,35,10|0,2:2|0:0,0:0:0:0:
434,102,45054,2,0,L|457:145,1,35,0|0,0:0|0:0,0:0:0:0:
502,53,45227,5,2,2:2:0:0:
462,18,45314,1,0,0:0:0:0:
409,16,45400,1,0,0:0:0:0:
365,45,45487,1,0,0:0:0:0:
348,94,45573,1,10,2:2:0:0:
304,123,45660,1,0,0:0:0:0:
251,121,45746,2,0,L|206:94,1,35,2|0,2:2|0:0,0:0:0:0:
82,5,45919,5,2,2:2:0:0:
117,44,46006,1,0,0:0:0:0:
119,97,46092,1,0,0:0:0:0:
90,141,46179,1,0,0:0:0:0:
41,158,46265,1,10,2:2:0:0:
12,202,46352,1,0,0:0:0:0:
14,255,46438,2,0,L|41:300,1,35,0|0,0:0|0:0,0:0:0:0:
176,226,46611,5,2,2:2:0:0:
176,226,46698,1,0,0:0:0:0:
176,226,46784,2,0,L|123:226,1,35,0|0,0:0|0:0,0:0:0:0:
120,380,46957,1,14,2:2:0:0:
120,380,47044,1,0,0:0:0:0:
120,380,47130,2,0,L|145:334,1,35,6|0,2:2|0:0,0:0:0:0:
259,321,47303,5,6,2:2:0:0:
295,358,47390,1,0,0:0:0:0:
342,380,47476,1,0,0:0:0:0:
394,383,47563,1,0,0:0:0:0:
444,368,47649,2,0,L|485:331,1,35,10|0,2:2|0:0,0:0:0:0:
487,224,47822,2,0,L|441:255,1,35,0|0,0:0|0:0,0:0:0:0:
362,282,47995,5,2,2:2:0:0:
320,250,48082,1,0,0:0:0:0:
293,206,48168,1,0,0:0:0:0:
285,154,48255,1,0,0:0:0:0:
298,104,48341,1,10,2:2:0:0:
290,52,48428,1,0,0:0:0:0:
263,8,48514,2,0,L|204:27,1,35,2|0,2:2|0:0,0:0:0:0:
55,82,48687,5,2,2:2:0:0:
87,124,48774,1,0,0:0:0:0:
131,151,48860,1,0,0:0:0:0:
183,159,48947,1,0,0:0:0:0:
233,146,49033,1,10,2:2:0:0:
285,154,49120,1,0,0:0:0:0:
329,181,49206,2,0,L|378:220,1,35,0|0,0:0|0:0,0:0:0:0:
435,291,49379,5,6,2:2:0:0:
435,291,49466,1,0,0:0:0:0:
435,291,49552,2,0,L|386:330,1,35,0|0,0:0|0:0,0:0:0:0:
305,377,49725,1,14,2:2:0:0:
305,377,49812,1,0,0:0:0:0:
305,377,49898,2,0,L|277:355,1,35,2|0,2:2|0:0,0:0:0:0:
191,285,50071,5,6,2:2:0:0:
171,333,50158,1,0,0:0:0:0:
130,364,50245,1,0,0:0:0:0:
78,368,50331,1,0,0:0:0:0:
32,344,50418,1,10,2:2:0:0:
5,300,50504,1,0,0:0:0:0:
6,248,50591,1,0,0:0:0:0:
34,204,50677,1,0,0:0:0:0:
81,182,50764,1,2,2:2:0:0:
126,156,50850,1,0,0:0:0:0:
154,111,50937,1,0,0:0:0:0:
149,58,51023,1,0,0:0:0:0:
117,16,51110,1,10,2:2:0:0:
166,33,51196,1,0,0:0:0:0:
218,36,51283,1,2,2:2:0:0:
269,25,51369,1,0,0:0:0:0:
320,14,51456,5,2,2:2:0:0:
371,4,51542,1,0,0:0:0:0:
422,15,51629,1,0,0:0:0:0:
465,45,51715,1,0,0:0:0:0:
494,88,51802,1,10,2:2:0:0:
504,139,51888,1,0,0:0:0:0:
494,191,51975,1,0,0:0:0:0:
465,234,52061,1,0,0:0:0:0:
422,264,52148,1,2,2:2:0:0:
371,275,52234,1,0,0:0:0:0:
320,266,52321,1,0,0:0:0:0:
276,238,52407,1,0,0:0:0:0:
224,229,52494,1,14,2:2:0:0:
173,240,52580,1,0,0:0:0:0:
130,269,52667,2,0,L|182:285,1,35,2|0,2:2|0:0,0:0:0:0:
282,351,52840,5,6,2:2:0:0:
327,376,52926,1,0,0:0:0:0:
379,383,53013,1,0,0:0:0:0:
430,372,53099,1,0,0:0:0:0:
473,343,53186,1,10,2:2:0:0:
503,300,53272,1,0,0:0:0:0:
512,250,53359,1,0,0:0:0:0:
509,198,53445,1,0,0:0:0:0:
485,152,53532,1,2,2:2:0:0:
446,117,53618,1,0,0:0:0:0:
397,100,53705,1,0,0:0:0:0:
344,100,53791,1,0,0:0:0:0:
296,120,53878,1,10,2:2:0:0:
243,120,53964,1,0,0:0:0:0:
194,102,54051,2,0,L|237:62,1,35,2|0,2:2|0:0,0:0:0:0:
320,26,54224,5,2,2:2:0:0:
368,6,54310,1,0,0:0:0:0:
419,10,54397,1,0,0:0:0:0:
464,38,54483,1,0,0:0:0:0:
490,82,54570,1,10,2:2:0:0:
494,134,54656,1,0,0:0:0:0:
474,182,54743,1,0,0:0:0:0:
434,215,54829,1,0,0:0:0:0:
383,227,54916,1,6,2:2:0:0:
395,277,55002,1,0,0:0:0:0:
383,327,55089,1,0,0:0:0:0:
348,366,55175,1,0,0:0:0:0:
300,384,55262,1,14,2:2:0:0:
248,377,55348,1,0,0:0:0:0:
206,346,55435,1,2,2:2:0:0:
183,299,55521,1,0,0:0:0:0:
185,247,55608,6,0,L|199:187,3,35,6|0|0|0,2:2|0:0|0:0|0:0,0:0:0:0:
297,130,55954,2,0,L|289:164,3,35,10|0|0|0,2:2|0:0|0:0|0:0,0:0:0:0:
183,133,56300,6,0,L|243:147,3,35,2|0|0|0,2:2|0:0|0:0|0:0,0:0:0:0:
298,252,56646,2,0,L|264:244,3,35,10|0|0|0,2:2|0:0|0:0|0:0,0:0:0:0:
361,159,56992,5,2,2:2:0:0:
361,159,57078,1,0,0:0:0:0:
361,159,57165,2,0,L|355:211,1,35,0|0,0:0|0:0,0:0:0:0:
476,125,57338,1,10,2:2:0:0:
476,125,57424,1,0,0:0:0:0:
476,125,57511,2,0,L|482:177,1,35,0|0,0:0|0:0,0:0:0:0:
358,84,57684,5,2,2:2:0:0:
358,84,57770,1,0,0:0:0:0:
358,84,57857,2,0,L|364:136,1,35,4|0,0:0|0:0,0:0:0:0:
243,50,58030,1,10,2:2:0:0:
243,50,58116,1,0,0:0:0:0:
243,50,58203,2,0,L|237:102,1,35,6|0,0:0|0:0,0:0:0:0:
128,51,58376,6,0,L|132:16,3,35,2|0|0|0,2:2|0:0|0:0|0:0,0:0:0:0:
47,33,58722,2,0,L|42:67,3,35,10|0|0|0,2:2|0:0|0:0|0:0,0:0:0:0:
95,121,59068,2,0,L|90:155,3,35,2|0|0|0,2:2|0:0|0:0|0:0,0:0:0:0:
5,172,59414,2,0,L|9:137,3,35,10|0|0|0,2:2|0:0|0:0|0:0,0:0:0:0:
31,270,59760,5,2,2:2:0:0:
33,218,59847,1,0,0:0:0:0:
60,173,59933,1,0,0:0:0:0:
106,148,60020,1,0,0:0:0:0:
157,149,60106,1,10,2:2:0:0:
202,175,60193,1,0,0:0:0:0:
229,220,60279,1,0,0:0:0:0:
255,264,60366,1,0,0:0:0:0:
300,290,60452,1,2,2:2:0:0:
352,291,60539,1,0,0:0:0:0:
397,266,60625,1,4,0:0:0:0:
425,221,60712,1,0,0:0:0:0:
427,170,60798,6,0,L|485:192,3,35,10|0|6|0,2:2|0:0|0:0|0:0,0:0:0:0:
350,209,61144,6,0,L|292:231,3,35,6|0|0|0,2:2|0:0|0:0|0:0,0:0:0:0:
427,248,61490,2,0,L|485:270,3,35,10|0|0|0,2:2|0:0|0:0|0:0,0:0:0:0:
350,287,61836,6,0,L|292:309,3,35,2|0|0|0,2:2|0:0|0:0|0:0,0:0:0:0:
427,326,62182,2,0,L|485:348,3,35,10|0|0|0,2:2|0:0|0:0|0:0,0:0:0:0:
348,364,62528,5,2,2:2:0:0:
348,364,62615,1,0,0:0:0:0:
348,364,62701,2,0,L|290:386,1,35,0|0,0:0|0:0,0:0:0:0:
251,327,62874,1,10,2:2:0:0:
251,327,62961,1,0,0:0:0:0:
251,327,63047,2,0,L|193:305,1,35,0|0,0:0|0:0,0:0:0:0:
158,371,63220,5,2,2:2:0:0:
158,371,63307,1,0,0:0:0:0:
158,371,63393,2,0,L|100:393,1,35,4|0,0:0|0:0,0:0:0:0:
61,334,63566,1,10,2:2:0:0:
61,334,63653,1,0,0:0:0:0:
61,334,63739,2,0,L|3:312,1,35,6|0,0:0|0:0,0:0:0:0:
0,208,63912,6,0,L|32:220,3,35,2|0|0|0,2:2|0:0|0:0|0:0,0:0:0:0:
73,123,64258,2,0,L|60:155,3,35,10|0|0|0,2:2|0:0|0:0|0:0,0:0:0:0:
159,199,64604,6,0,L|126:186,3,35,2|0|0|0,2:2|0:0|0:0|0:0,0:0:0:0:
86,284,64950,2,0,L|98:251,3,35,10|0|0|0,2:2|0:0|0:0|0:0,0:0:0:0:
237,237,65296,5,6,2:2:0:0:
244,185,65383,1,0,0:0:0:0:
221,139,65469,1,0,0:0:0:0:
176,113,65556,1,0,0:0:0:0:
125,118,65642,1,10,2:2:0:0:
84,150,65729,1,0,0:0:0:0:
70,200,65815,1,0,0:0:0:0:
85,249,65902,1,0,0:0:0:0:
126,281,65988,5,6,2:2:0:0:
178,287,66075,1,0,0:0:0:0:
230,293,66161,1,0,0:0:0:0:
282,299,66248,1,0,0:0:0:0:
334,306,66334,1,10,2:2:0:0:
338,311,66421,1,0,0:0:0:0:
342,316,66507,1,0,0:0:0:0:
346,321,66594,1,0,0:0:0:0:
350,326,66680,5,6,2:2:0:0:
386,362,66767,1,0,0:0:0:0:
437,370,66853,1,0,0:0:0:0:
484,347,66940,1,0,0:0:0:0:
508,302,67027,1,10,2:2:0:0:
502,251,67113,1,0,0:0:0:0:
468,212,67200,2,0,L|417:254,1,35,0|0,0:0|0:0,0:0:0:0:
343,283,67373,5,2,2:2:0:0:
343,283,67459,2,0,L|332:218,1,35,0|0,0:0|0:0,0:0:0:0:
344,139,67632,1,0,0:0:0:0:
344,139,67719,2,0,L|405:162,1,35,10|0,2:2|0:0,0:0:0:0:
494,90,67892,2,0,L|432:113,1,35,2|0,2:2|0:0,0:0:0:0:
369,65,68065,5,2,2:2:0:0:
335,25,68151,1,0,0:0:0:0:
284,14,68238,1,0,0:0:0:0:
237,34,68324,1,0,0:0:0:0:
210,78,68411,1,10,2:2:0:0:
183,122,68497,1,0,0:0:0:0:
135,141,68584,1,0,0:0:0:0:
85,130,68670,1,0,0:0:0:0:
51,91,68757,6,0,L|69:37,3,35,2|0|0|0,2:2|0:0|0:0|0:0,0:0:0:0:
143,37,69103,1,14,2:2:0:0:
139,89,69189,1,0,0:0:0:0:
135,141,69276,1,2,2:2:0:0:
131,193,69362,1,0,0:0:0:0:
116,243,69449,5,6,2:2:0:0:
163,221,69535,1,0,0:0:0:0:
215,223,69622,1,0,0:0:0:0:
261,246,69708,1,0,0:0:0:0:
293,288,69795,1,10,2:2:0:0:
338,311,69881,1,0,0:0:0:0:
391,312,69968,2,0,L|376:251,1,35,0|0,0:0|0:0,0:0:0:0:
284,354,70141,5,2,2:2:0:0:
284,354,70227,2,0,L|347:367,1,35,0|0,0:0|0:0,0:0:0:0:
180,314,70400,1,0,0:0:0:0:
180,314,70487,2,0,L|243:301,1,35,10|0,2:2|0:0,0:0:0:0:
114,360,70660,2,0,L|51:347,1,35,2|0,2:2|0:0,0:0:0:0:
21,255,70833,5,2,2:2:0:0:
21,255,70919,2,0,L|9:305,1,35,0|0,0:0|0:0,0:0:0:0:
125,221,71092,1,0,0:0:0:0:
125,221,71179,2,0,L|137:271,1,35,10|0,2:2|0:0,0:0:0:0:
41,134,71352,2,0,L|29:184,1,35,0|0,0:0|0:0,0:0:0:0:
2,63,71525,5,6,2:2:0:0:
35,52,71611,1,0,0:0:0:0:
69,56,71698,2,0,L|110:89,1,35,0|0,0:0|0:0,0:0:0:0:
159,150,71871,1,14,2:2:0:0:
192,161,71957,1,0,0:0:0:0:
226,157,72044,2,0,L|267:124,1,35,2|0,2:2|0:0,0:0:0:0:
297,10,72217,5,6,2:2:0:0:
297,10,72303,2,0,L|312:64,1,35,0|0,0:0|0:0,0:0:0:0:
416,80,72476,1,0,0:0:0:0:
416,80,72563,2,0,L|431:134,1,35,10|0,2:2|0:0,0:0:0:0:
333,139,72736,2,0,L|318:193,1,35,0|0,0:0|0:0,0:0:0:0:
211,237,72909,5,2,2:2:0:0:
245,276,72995,1,0,0:0:0:0:
292,298,73082,1,0,0:0:0:0:
344,299,73168,1,0,0:0:0:0:
392,280,73255,1,10,2:2:0:0:
429,242,73341,1,0,0:0:0:0:
447,194,73428,2,0,L|392:207,1,35,2|0,2:2|0:0,0:0:0:0:
294,219,73601,6,0,L|349:231,1,35,2|0,2:2|0:0,0:0:0:0:
227,120,73774,1,0,0:0:0:0:
227,120,73860,2,0,L|210:65,1,35,0|10,0:0|2:2,0:0:0:0:
174,227,74033,1,0,0:0:0:0:
174,227,74120,2,0,L|135:268,1,35,0|0,0:0|0:0,0:0:0:0:
299,202,74293,6,0,L|357:203,1,35,2|0,2:2|0:0,0:0:0:0:
213,119,74466,1,0,0:0:0:0:
213,119,74552,2,0,L|185:69,1,35,0|14,0:0|2:2,0:0:0:0:
184,235,74725,1,0,0:0:0:0:
184,235,74812,2,0,L|154:284,1,35,2|0,2:2|0:0,0:0:0:0:
8,355,74985,5,6,2:2:0:0:
53,329,75071,1,0,0:0:0:0:
105,324,75158,1,0,0:0:0:0:
155,336,75245,1,0,0:0:0:0:
198,367,75331,1,10,2:2:0:0:
248,379,75418,1,0,0:0:0:0:
300,373,75504,2,0,L|345:342,1,35,0|0,0:0|0:0,0:0:0:0:
469,381,75677,5,2,2:2:0:0:
470,328,75764,1,0,0:0:0:0:
453,279,75850,1,0,0:0:0:0:
419,239,75937,1,0,0:0:0:0:
373,214,76023,1,10,2:2:0:0:
322,207,76110,1,0,0:0:0:0:
271,219,76196,2,0,L|281:277,1,35,2|0,2:2|0:0,0:0:0:0:
381,369,76369,5,2,2:2:0:0:
363,319,76456,1,0,0:0:0:0:
361,266,76542,1,0,0:0:0:0:
373,214,76629,1,0,0:0:0:0:
401,169,76715,2,0,L|434:130,1,35,10|0,2:2|0:0,0:0:0:0:
489,42,76888,1,0,0:0:0:0:
489,42,76975,1,0,0:0:0:0:
489,42,77061,6,0,L|504:99,3,35,6|0|0|0,2:2|0:0|0:0|0:0,0:0:0:0:
362,22,77407,1,14,2:2:0:0:
362,22,77494,1,0,0:0:0:0:
362,22,77580,2,0,L|307:37,1,35,2|0,2:2|0:0,0:0:0:0:
163,12,77753,6,0,L|218:27,3,35,6|0|0|0,2:2|0:0|0:0|0:0,0:0:0:0:
257,101,78099,2,0,L|202:116,3,35,10|0|0|0,2:2|0:0|0:0|0:0,0:0:0:0:
126,110,78445,6,0,L|71:95,3,35,2|0|0|0,2:2|0:0|0:0|0:0,0:0:0:0:
32,21,78791,2,0,L|87:6,3,35,10|0|0|0,2:2|0:0|0:0|0:0,0:0:0:0:
11,120,79137,5,2,2:2:0:0:
11,120,79224,1,0,0:0:0:0:
11,120,79310,2,0,L|17:167,1,35,0|0,0:0|0:0,0:0:0:0:
103,199,79483,1,10,2:2:0:0:
103,199,79570,1,0,0:0:0:0:
103,199,79656,2,0,L|97:246,1,35,0|0,0:0|0:0,0:0:0:0:
8,246,79829,5,2,2:2:0:0:
8,246,79916,1,0,0:0:0:0:
8,246,80002,2,0,L|14:293,1,35,4|0,0:0|0:0,0:0:0:0:
100,325,80175,1,10,2:2:0:0:
100,325,80262,1,0,0:0:0:0:
100,325,80348,2,0,L|94:372,1,35,6|0,0:0|0:0,0:0:0:0:
183,353,80521,6,0,L|217:357,3,35,2|0|0|0,2:2|0:0|0:0|0:0,0:0:0:0:
297,300,80867,2,0,L|262:295,3,35,10|0|0|0,2:2|0:0|0:0|0:0,0:0:0:0:
294,374,81213,6,0,L|328:378,3,35,2|0|0|0,2:2|0:0|0:0|0:0,0:0:0:0:
408,321,81559,2,0,L|373:316,3,35,10|0|0|0,2:2|0:0|0:0|0:0,0:0:0:0:
509,384,81905,5,2,2:2:0:0:
484,337,81992,1,0,0:0:0:0:
469,287,82078,1,0,0:0:0:0:
466,235,82165,1,0,0:0:0:0:
474,183,82251,1,10,2:2:0:0:
465,131,82338,1,0,0:0:0:0:
435,87,82424,1,0,0:0:0:0:
386,65,82511,1,0,0:0:0:0:
334,74,82597,1,2,2:2:0:0:
294,108,82684,1,0,0:0:0:0:
285,159,82770,1,4,0:0:0:0:
302,208,82857,1,0,0:0:0:0:
344,238,82943,6,0,L|396:232,3,35,10|0|6|0,2:2|0:0|0:0|0:0,0:0:0:0:
224,236,83289,6,0,L|172:230,3,35,6|0|0|0,2:2|0:0|0:0|0:0,0:0:0:0:
138,164,83636,2,0,L|144:112,3,35,10|0|0|0,2:2|0:0|0:0|0:0,0:0:0:0:
214,78,83982,6,0,L|266:84,3,35,2|0|0|0,2:2|0:0|0:0|0:0,0:0:0:0:
300,150,84328,2,0,L|294:202,3,35,10|0|0|0,2:2|0:0|0:0|0:0,0:0:0:0:
195,206,84674,5,2,2:2:0:0:
195,206,84760,1,0,0:0:0:0:
195,206,84847,2,0,L|201:258,1,35,0|0,0:0|0:0,0:0:0:0:
291,266,85020,1,10,2:2:0:0:
291,266,85106,1,0,0:0:0:0:
291,266,85193,2,0,L|285:318,1,35,0|0,0:0|0:0,0:0:0:0:
203,322,85366,5,2,2:2:0:0:
203,322,85452,1,0,0:0:0:0:
203,322,85539,2,0,L|197:374,1,35,4|0,0:0|0:0,0:0:0:0:
108,277,85712,1,10,2:2:0:0:
108,277,85798,1,0,0:0:0:0:
108,277,85885,2,0,L|114:329,1,35,6|0,0:0|0:0,0:0:0:0:
9,252,86058,6,0,L|13:217,3,35,2|0|0|0,2:2|0:0|0:0|0:0,0:0:0:0:
34,106,86404,2,0,L|38:140,3,35,10|0|0|0,2:2|0:0|0:0|0:0,0:0:0:0:
100,219,86750,6,0,L|104:184,3,35,2|0|0|0,2:2|0:0|0:0|0:0,0:0:0:0:
125,73,87096,2,0,L|129:107,3,35,10|0|0|0,2:2|0:0|0:0|0:0,0:0:0:0:
214,45,87442,5,6,2:2:0:0:
173,12,87528,1,0,0:0:0:0:
122,3,87615,1,0,0:0:0:0:
73,20,87701,1,0,0:0:0:0:
37,58,87788,1,10,2:2:0:0:
25,108,87874,1,0,0:0:0:0:
38,158,87961,1,0,0:0:0:0:
73,196,88047,1,0,0:0:0:0:
123,212,88134,5,6,2:2:0:0:
175,205,88220,1,0,0:0:0:0:
227,198,88307,1,0,0:0:0:0:
279,191,88393,1,0,0:0:0:0:
331,184,88480,2,0,L|369:153,3,35,14|0|4|0,2:2|0:0|2:2|0:0,0:0:0:0:
284,19,88826,5,0,0:0:0:0:
282,23,88912,1,0,0:0:0:0:
280,28,88999,1,0,0:0:0:0:
278,33,89085,1,0,0:0:0:0:
276,38,89172,1,0,0:0:0:0:
275,43,89258,1,0,0:0:0:0:
273,48,89345,1,0,0:0:0:0:
272,53,89431,1,0,0:0:0:0:
270,58,89518,1,0,0:0:0:0:
269,63,89604,1,0,0:0:0:0:
268,69,89691,1,0,0:0:0:0:
267,74,89777,1,0,0:0:0:0:
266,79,89864,1,0,0:0:0:0:
265,84,89950,1,0,0:0:0:0:
264,89,90037,1,0,0:0:0:0:
264,94,90123,1,0,0:0:0:0:
263,100,90210,1,0,0:0:0:0:
263,105,90296,1,0,0:0:0:0:
262,110,90383,1,0,0:0:0:0:
262,115,90469,1,0,0:0:0:0:
262,121,90556,1,0,0:0:0:0:
262,126,90642,1,0,0:0:0:0:
262,131,90729,1,0,0:0:0:0:
262,136,90815,1,0,0:0:0:0:
262,142,90902,1,0,0:0:0:0:
262,147,90988,1,0,0:0:0:0:
263,152,91075,1,0,0:0:0:0:
263,157,91161,1,0,0:0:0:0:
264,163,91248,1,0,0:0:0:0:
265,168,91334,1,0,0:0:0:0:
266,173,91421,1,0,0:0:0:0:
266,178,91507,1,0,0:0:0:0:
267,183,91594,5,0,0:0:0:0:
282,187,91680,1,0,0:0:0:0:
296,194,91767,1,0,0:0:0:0:
309,202,91853,1,0,0:0:0:0:
320,213,91940,1,0,0:0:0:0:
330,226,92027,1,0,0:0:0:0:
338,239,92113,1,0,0:0:0:0:
343,254,92200,1,0,0:0:0:0:
346,270,92286,1,0,0:0:0:0:
347,285,92373,1,0,0:0:0:0:
345,301,92459,1,0,0:0:0:0:
341,316,92546,1,0,0:0:0:0:
334,330,92632,1,0,0:0:0:0:
325,343,92719,1,0,0:0:0:0:
315,355,92805,1,0,0:0:0:0:
302,365,92892,1,0,0:0:0:0:
289,372,92978,1,0,0:0:0:0:
274,378,93065,1,0,0:0:0:0:
258,381,93151,1,0,0:0:0:0:
243,382,93238,1,0,0:0:0:0:
227,380,93324,1,0,0:0:0:0:
212,376,93411,1,0,0:0:0:0:
198,369,93497,1,0,0:0:0:0:
184,361,93584,1,0,0:0:0:0:
173,350,93670,1,0,0:0:0:0:
163,338,93757,1,0,0:0:0:0:
155,324,93843,1,0,0:0:0:0:
150,309,93930,1,0,0:0:0:0:
146,294,94016,1,0,0:0:0:0:
148,278,94103,1,0,0:0:0:0:
151,262,94189,2,0,L|165:222,1,35,0|0,0:0|0:0,0:0:0:0:
218,144,94362,5,0,0:0:0:0:
218,144,94449,2,0,L|230:187,1,35,0|0,0:0|0:0,0:0:0:0:
133,90,94622,1,0,0:0:0:0:
133,90,94708,2,0,L|121:133,1,35,0|0,0:0|0:0,0:0:0:0:
213,23,94881,2,0,L|279:40,1,35,0|0,0:0|0:0,0:0:0:0:
311,104,95054,5,0,0:0:0:0:
311,104,95141,2,0,L|345:96,1,35,0|0,0:0|0:0,0:0:0:0:
412,8,95314,1,0,0:0:0:0:
412,8,95400,2,0,L|417:66,1,35,0|0,0:0|0:0,0:0:0:0:
497,101,95573,2,0,L|492:159,1,35,0|0,0:0|0:0,0:0:0:0:
404,159,95746,6,0,L|409:217,1,35,0|0,0:0|0:0,0:0:0:0:
497,239,95919,1,0,0:0:0:0:
497,239,96006,2,0,L|492:297,1,35,0|0,0:0|0:0,0:0:0:0:
403,308,96179,1,0,0:0:0:0:
403,308,96265,2,0,L|408:366,1,35,0|0,0:0|0:0,0:0:0:0:
293,384,96438,6,0,L|298:326,1,35,0|0,0:0|0:0,0:0:0:0:
159,344,96611,1,0,0:0:0:0:
159,344,96698,2,0,L|154:286,1,35,0|0,0:0|0:0,0:0:0:0:
241,277,96871,1,0,0:0:0:0:
241,277,96957,2,0,L|246:219,1,35,0|0,0:0|0:0,0:0:0:0:
329,257,97130,5,0,0:0:0:0:
351,230,97217,1,0,0:0:0:0:
366,198,97303,1,0,0:0:0:0:
372,164,97390,1,0,0:0:0:0:
369,129,97476,1,0,0:0:0:0:
356,97,97563,1,0,0:0:0:0:
336,69,97649,1,0,0:0:0:0:
308,47,97736,1,0,0:0:0:0:
276,34,97822,1,0,0:0:0:0:
241,29,97909,1,0,0:0:0:0:
207,34,97995,1,0,0:0:0:0:
175,48,98082,1,0,0:0:0:0:
148,70,98168,1,0,0:0:0:0:
127,99,98255,1,0,0:0:0:0:
116,132,98341,2,0,L|133:190,1,35,0|0,0:0|0:0,0:0:0:0:
21,215,98514,5,0,0:0:0:0:
42,242,98601,1,0,0:0:0:0:
71,262,98687,1,0,0:0:0:0:
104,273,98774,1,0,0:0:0:0:
139,274,98860,1,0,0:0:0:0:
173,265,98947,1,0,0:0:0:0:
203,248,99033,2,0,L|239:209,1,35,0|0,0:0|0:0,0:0:0:0:
277,128,99206,5,0,0:0:0:0:
298,100,99293,1,0,0:0:0:0:
327,80,99379,1,0,0:0:0:0:
360,69,99466,1,0,0:0:0:0:
395,68,99552,1,0,0:0:0:0:
429,77,99639,1,0,0:0:0:0:
459,94,99725,1,0,0:0:0:0:
483,118,99812,1,0,0:0:0:0:
496,150,99898,5,6,0:0:0:0:
