osu file format v14

[General]
AudioFilename: midnight siege cut x1,05 p1,05.mp3
AudioLeadIn: 0
PreviewTime: 18507
Countdown: 0
SampleSet: Soft
StackLeniency: 0.3
Mode: 0
LetterboxInBreaks: 0
WidescreenStoryboard: 0

[Editor]
Bookmarks: 18507,30697,48983,73364,97745
DistanceSpacing: 1
BeatDivisor: 4
GridSize: 8
TimelineZoom: 2.2

[Metadata]
Title:Midnight Siege
TitleUnicode:Midnight Siege
Artist:Dimrain47
ArtistUnicode:Dimrain47
Creator:Kastellan
Version:158 (236)
Source:
Tags:stamina practice fingercontrol
BeatmapID:2156111
BeatmapSetID:1031040

[Difficulty]
HPDrainRate:5.4
CircleSize:4
OverallDifficulty:8.2
ApproachRate:8.2
SliderMultiplier:1.4
SliderTickRate:1

[Events]
//Background and Video events
0,0,"Cool-Space-Wallpaper.jpg",0,0
//Break Periods
//Storyboard Layer 0 (Background)
//Storyboard Layer 1 (Fail)
//Storyboard Layer 2 (Pass)
//Storyboard Layer 3 (Foreground)
//Storyboard Layer 4 (Overlay)
//Storyboard Sound Samples

[TimingPoints]
261,380.952380952381,4,2,1,50,1,0
42928,-100,4,2,1,20,0,0
44451,-100,4,2,1,30,0,0
45975,-100,4,2,1,40,0,0
46737,-100,4,2,1,45,0,0
47499,-100,4,2,1,50,0,0
97785,-100,4,2,1,30,0,0
100070,-100,4,2,1,35,0,0
100451,-100,4,2,1,40,0,0
100832,-100,4,2,1,45,0,0
101213,-100,4,2,1,50,0,0

[Colours]
Combo1 : 231,210,71
Combo2 : 27,180,224
Combo3 : 38,117,234
Combo4 : 232,108,34

[HitObjects]
38,84,12451,5,2,2:2:0:0:
160,78,12832,1,2,0:0:0:0:
166,200,13213,1,2,2:2:0:0:
44,206,13594,1,2,2:2:0:0:
38,84,13784,1,2,2:2:0:0:
166,200,14165,5,2,2:2:0:0:
288,194,14356,1,2,2:2:0:0:
230,84,14737,5,2,2:2:0:0:
352,78,14927,1,2,2:2:0:0:
470,44,15118,1,2,2:2:0:0:
471,54,15213,1,2,2:2:0:0:
472,64,15308,1,2,2:2:0:0:
473,74,15403,1,2,2:2:0:0:
474,84,15499,5,2,2:2:0:0:
352,78,15880,1,2,0:0:0:0:
346,200,16261,1,2,2:2:0:0:
468,206,16641,1,2,2:2:0:0:
474,84,16832,1,2,2:2:0:0:
346,200,17213,5,2,2:2:0:0:
224,194,17403,1,2,2:2:0:0:
282,84,17784,5,2,2:2:0:0:
160,78,17975,1,2,2:2:0:0:
42,44,18165,1,2,2:2:0:0:
41,54,18261,1,2,2:2:0:0:
40,64,18356,1,2,2:2:0:0:
39,74,18451,1,2,2:2:0:0:
36,84,18546,5,6,2:2:0:0:
87,72,18641,1,0,0:0:0:0:
139,79,18737,1,0,0:0:0:0:
184,105,18832,1,0,0:0:0:0:
214,147,18927,1,10,2:2:0:0:
259,173,19022,1,0,0:0:0:0:
311,180,19118,2,0,P|334:180|364:167,1,35,0|0,0:0|0:0,0:0:0:0:
367,46,19308,5,2,2:2:0:0:
367,46,19403,2,0,P|355:65|351:98,1,35,0|0,0:0|0:0,0:0:0:0:
455,161,19594,1,0,0:0:0:0:
455,161,19689,2,0,P|443:141|417:121,1,35,10|0,2:2|0:0,0:0:0:0:
347,243,19880,2,0,P|352:259|361:274,1,35,2|0,2:2|0:0,0:0:0:0:
461,369,20070,5,2,2:2:0:0:
412,348,20165,1,0,0:0:0:0:
359,347,20261,1,0,0:0:0:0:
312,371,20356,1,0,0:0:0:0:
262,354,20451,2,0,P|259:336|260:319,1,35,10|0,2:2|0:0,0:0:0:0:
222,177,20641,1,0,0:0:0:0:
222,177,20737,1,0,0:0:0:0:
222,177,20832,6,0,L|203:242,3,35,2|0|0|0,2:2|0:0|0:0|0:0,0:0:0:0:
121,275,21213,2,0,L|140:210,3,35,14|0|2|0,2:2|0:0|2:2|0:0,0:0:0:0:
36,284,21594,5,6,2:2:0:0:
57,331,21689,1,0,0:0:0:0:
102,357,21784,1,0,0:0:0:0:
154,354,21880,1,0,0:0:0:0:
193,319,21975,1,10,2:2:0:0:
232,284,22070,1,0,0:0:0:0:
284,281,22165,2,0,P|300:289|326:312,1,35,0|0,0:0|0:0,0:0:0:0:
423,371,22356,5,2,2:2:0:0:
423,371,22451,2,0,L|374:384,1,35,0|0,0:0|0:0,0:0:0:0:
447,273,22641,1,0,0:0:0:0:
447,273,22737,2,0,L|398:286,1,35,10|0,2:2|0:0,0:0:0:0:
465,178,22927,2,0,L|416:191,1,35,2|0,2:2|0:0,0:0:0:0:
314,215,23118,5,2,2:2:0:0:
265,235,23213,1,0,0:0:0:0:
213,243,23308,1,0,0:0:0:0:
161,234,23403,1,0,0:0:0:0:
116,206,23499,2,0,L|127:159,1,35,10|0,2:2|0:0,0:0:0:0:
71,21,23689,1,0,0:0:0:0:
71,21,23784,1,0,0:0:0:0:
71,21,23880,6,0,L|53:83,3,35,6|0|0|0,2:2|0:0|0:0|0:0,0:0:0:0:
120,140,24261,2,0,L|129:106,1,35,14|0,2:2|0:0,0:0:0:0:
217,37,24451,2,0,L|208:71,1,35,2|0,2:2|0:0,0:0:0:0:
314,16,24641,5,6,2:2:0:0:
314,68,24737,1,0,0:0:0:0:
345,109,24832,1,0,0:0:0:0:
391,133,24927,1,0,0:0:0:0:
442,141,25022,2,0,P|451:165|449:198,1,35,10|0,2:2|0:0,0:0:0:0:
495,289,25213,2,0,P|469:284|442:266,1,35,0|0,0:0|0:0,0:0:0:0:
363,227,25403,5,2,2:2:0:0:
311,216,25499,1,0,0:0:0:0:
259,225,25594,1,0,0:0:0:0:
216,255,25689,1,0,0:0:0:0:
188,299,25784,2,0,L|178:346,1,35,10|0,2:2|0:0,0:0:0:0:
88,374,25975,2,0,L|95:339,1,35,2|0,2:2|0:0,0:0:0:0:
29,273,26165,5,2,2:2:0:0:
51,225,26261,1,0,0:0:0:0:
48,172,26356,1,0,0:0:0:0:
19,127,26451,1,0,0:0:0:0:
2,77,26546,1,10,2:2:0:0:
19,27,26641,1,0,0:0:0:0:
67,6,26737,1,0,0:0:0:0:
118,13,26832,1,0,0:0:0:0:
149,55,26927,1,2,2:2:0:0:
149,107,27022,1,0,0:0:0:0:
164,157,27118,1,0,0:0:0:0:
200,194,27213,1,0,0:0:0:0:
252,199,27308,1,14,2:2:0:0:
298,175,27403,1,0,0:0:0:0:
326,130,27499,2,0,L|351:77,1,35,2|0,2:2|0:0,0:0:0:0:
262,2,27689,6,0,L|295:50,1,35,6|0,2:2|0:0,0:0:0:0:
408,7,27880,1,0,0:0:0:0:
408,7,27975,2,0,L|349:11,1,35,0|10,0:0|2:2,0:0:0:0:
463,86,28165,1,0,0:0:0:0:
463,86,28261,2,0,L|521:90,1,35,0|0,0:0|0:0,0:0:0:0:
410,165,28451,5,2,2:2:0:0:
410,165,28546,1,0,0:0:0:0:
410,165,28641,2,0,L|351:169,1,35,0|0,0:0|0:0,0:0:0:0:
484,217,28832,1,10,2:2:0:0:
479,244,28927,1,0,0:0:0:0:
480,271,29022,1,2,2:2:0:0:
486,298,29118,1,0,0:0:0:0:
496,323,29213,5,2,2:2:0:0:
444,314,29308,1,0,0:0:0:0:
391,313,29403,1,0,0:0:0:0:
340,326,29499,1,0,0:0:0:0:
294,352,29594,2,0,L|241:378,1,35,10|0,2:2|0:0,0:0:0:0:
123,338,29784,2,0,L|154:322,1,35,0|0,0:0|0:0,0:0:0:0:
281,257,29975,5,2,2:2:0:0:
333,252,30070,1,0,0:0:0:0:
373,219,30165,1,0,0:0:0:0:
385,167,30261,1,0,0:0:0:0:
360,120,30356,2,0,L|316:82,1,35,14|0,2:2|0:0,0:0:0:0:
189,56,30546,2,0,L|215:78,1,35,2|0,2:2|0:0,0:0:0:0:
256,165,30737,6,0,L|247:221,3,35,6|0|0|0,2:2|0:0|0:0|0:0,0:0:0:0:
302,268,31118,2,0,L|336:273,3,35,10|0|0|0,2:2|0:0|0:0|0:0,0:0:0:0:
407,223,31499,6,0,L|416:167,3,35,2|0|0|0,2:2|0:0|0:0|0:0,0:0:0:0:
361,120,31880,2,0,L|326:114,3,35,10|0|0|0,2:2|0:0|0:0|0:0,0:0:0:0:
479,76,32261,5,2,2:2:0:0:
479,76,32356,1,0,0:0:0:0:
479,76,32451,2,0,L|425:104,1,35,0|0,0:0|0:0,0:0:0:0:
369,35,32641,1,10,2:2:0:0:
369,35,32737,1,0,0:0:0:0:
369,35,32832,2,0,L|315:7,1,35,0|0,0:0|0:0,0:0:0:0:
246,84,33022,5,2,2:2:0:0:
246,84,33118,1,0,0:0:0:0:
246,84,33213,2,0,L|192:112,1,35,4|0,0:0|0:0,0:0:0:0:
136,43,33403,1,10,2:2:0:0:
136,43,33499,1,0,0:0:0:0:
136,43,33594,2,0,L|82:15,1,35,6|0,0:0|0:0,0:0:0:0:
20,80,33784,6,0,L|30:131,3,35,2|0|0|0,2:2|0:0|0:0|0:0,0:0:0:0:
117,179,34165,2,0,L|110:144,3,35,10|0|0|0,2:2|0:0|0:0|0:0,0:0:0:0:
9,199,34546,6,0,L|19:250,3,35,2|0|0|0,2:2|0:0|0:0|0:0,0:0:0:0:
106,298,34927,2,0,L|99:263,3,35,10|0|0|0,2:2|0:0|0:0|0:0,0:0:0:0:
37,376,35308,5,2,2:2:0:0:
85,355,35403,1,0,0:0:0:0:
137,352,35499,1,0,0:0:0:0:
187,366,35594,1,0,0:0:0:0:
238,358,35689,1,10,2:2:0:0:
276,322,35784,1,0,0:0:0:0:
289,271,35880,1,0,0:0:0:0:
264,224,35975,1,0,0:0:0:0:
246,174,36070,1,2,2:2:0:0:
259,123,36165,1,0,0:0:0:0:
300,90,36261,1,4,0:0:0:0:
352,90,36356,1,0,0:0:0:0:
396,118,36451,6,0,L|419:172,3,35,10|0|6|0,2:2|0:0|0:0|0:0,0:0:0:0:
493,179,36832,6,0,L|469:233,3,35,6|0|0|0,2:2|0:0|0:0|0:0,0:0:0:0:
493,289,37213,2,0,L|479:321,3,35,10|0|0|0,2:2|0:0|0:0|0:0,0:0:0:0:
394,374,37594,6,0,L|407:341,3,35,2|0|0|0,2:2|0:0|0:0|0:0,0:0:0:0:
304,371,37975,2,0,L|317:338,3,35,10|0|0|0,2:2|0:0|0:0|0:0,0:0:0:0:
203,327,38356,5,2,2:2:0:0:
203,327,38451,1,0,0:0:0:0:
203,327,38546,2,0,L|249:317,1,35,0|0,0:0|0:0,0:0:0:0:
287,245,38737,1,10,2:2:0:0:
287,245,38832,1,0,0:0:0:0:
287,245,38927,2,0,L|277:199,1,35,0|0,0:0|0:0,0:0:0:0:
205,161,39118,5,2,2:2:0:0:
205,161,39213,1,0,0:0:0:0:
205,161,39308,2,0,L|159:171,1,35,4|0,0:0|0:0,0:0:0:0:
121,243,39499,1,10,2:2:0:0:
121,243,39594,1,0,0:0:0:0:
121,243,39689,2,0,L|131:289,1,35,6|0,0:0|0:0,0:0:0:0:
203,327,39880,6,0,L|249:317,3,35,2|0|0|0,2:2|0:0|0:0|0:0,0:0:0:0:
235,245,40261,2,0,L|189:235,3,35,10|0|0|0,2:2|0:0|0:0|0:0,0:0:0:0:
203,163,40641,6,0,L|249:153,3,35,2|0|0|0,2:2|0:0|0:0|0:0,0:0:0:0:
235,81,41022,2,0,L|189:71,3,35,10|0|0|0,2:2|0:0|0:0|0:0,0:0:0:0:
303,136,41403,5,6,2:2:0:0:
318,85,41499,1,0,0:0:0:0:
303,34,41594,1,0,0:0:0:0:
260,2,41689,1,0,0:0:0:0:
207,2,41784,1,10,2:2:0:0:
166,35,41880,1,0,0:0:0:0:
152,85,41975,1,0,0:0:0:0:
170,134,42070,1,0,0:0:0:0:
188,183,42165,1,6,2:2:0:0:
206,232,42261,1,0,0:0:0:0:
192,282,42356,1,0,0:0:0:0:
151,315,42451,1,0,0:0:0:0:
98,315,42546,1,10,2:2:0:0:
55,283,42641,1,0,0:0:0:0:
40,232,42737,2,0,L|47:189,1,35,0|0,0:0|0:0,0:0:0:0:
97,89,42927,5,6,2:2:0:0:
99,99,43022,1,0,0:0:0:0:
101,109,43118,1,0,0:0:0:0:
103,119,43213,1,0,0:0:0:0:
105,129,43308,1,2,2:2:0:0:
107,139,43403,1,0,0:0:0:0:
109,149,43499,1,0,0:0:0:0:
111,159,43594,1,0,0:0:0:0:
113,169,43689,1,2,2:2:0:0:
115,179,43784,1,0,0:0:0:0:
117,189,43880,1,0,0:0:0:0:
119,199,43975,1,0,0:0:0:0:
121,209,44070,1,2,2:2:0:0:
123,219,44165,1,0,0:0:0:0:
125,229,44261,2,0,L|136:288,1,35,2|0,2:2|0:0,0:0:0:0:
191,359,44451,5,6,2:2:0:0:
193,349,44546,1,0,0:0:0:0:
195,339,44641,1,0,0:0:0:0:
197,329,44737,1,0,0:0:0:0:
199,319,44832,1,2,2:2:0:0:
201,309,44927,1,0,0:0:0:0:
203,299,45022,1,0,0:0:0:0:
205,289,45118,1,0,0:0:0:0:
207,279,45213,1,2,2:2:0:0:
209,269,45308,1,0,0:0:0:0:
211,259,45403,1,0,0:0:0:0:
213,249,45499,1,0,0:0:0:0:
215,239,45594,1,2,2:2:0:0:
217,229,45689,1,0,0:0:0:0:
219,219,45784,2,0,L|225:184,1,35,2|2,2:2|2:2,0:0:0:0:
248,16,45975,5,6,2:2:0:0:
250,26,46070,1,0,0:0:0:0:
252,36,46165,1,0,0:0:0:0:
254,46,46261,1,0,0:0:0:0:
256,56,46356,1,2,2:2:0:0:
258,66,46451,1,0,0:0:0:0:
260,76,46546,2,0,L|271:135,1,35,0|0,0:0|0:0,0:0:0:0:
362,157,46737,5,6,2:2:0:0:
360,167,46832,1,0,0:0:0:0:
358,177,46927,1,0,0:0:0:0:
356,187,47022,1,0,0:0:0:0:
354,197,47118,1,2,2:2:0:0:
352,207,47213,1,0,0:0:0:0:
350,217,47308,2,0,L|343:251,1,35,2|0,2:2|0:0,0:0:0:0:
215,274,47499,5,6,2:2:0:0:
225,276,47594,1,0,0:0:0:0:
235,278,47689,2,0,L|294:289,1,35,2|0,2:2|0:0,0:0:0:0:
387,338,47880,1,6,2:2:0:0:
377,340,47975,1,0,0:0:0:0:
367,342,48070,2,0,L|308:353,1,35,2|0,2:2|0:0,0:0:0:0:
245,370,48261,5,6,2:2:0:0:
194,360,48356,1,2,2:2:0:0:
157,323,48451,1,2,2:2:0:0:
146,273,48546,1,2,2:2:0:0:
165,225,48641,1,6,2:2:0:0:
208,195,48737,1,2,2:2:0:0:
259,194,48832,1,2,2:2:0:0:
303,222,48927,1,2,2:2:0:0:
328,268,49022,5,6,2:2:0:0:
371,295,49118,1,0,0:0:0:0:
423,294,49213,1,0,0:0:0:0:
465,265,49308,1,0,0:0:0:0:
484,217,49403,2,0,L|438:210,1,35,10|0,2:2|0:0,0:0:0:0:
434,102,49594,2,0,L|457:145,1,35,0|0,0:0|0:0,0:0:0:0:
502,53,49784,5,2,2:2:0:0:
462,18,49880,1,0,0:0:0:0:
409,16,49975,1,0,0:0:0:0:
365,45,50070,1,0,0:0:0:0:
348,94,50165,1,10,2:2:0:0:
304,123,50261,1,0,0:0:0:0:
251,121,50356,2,0,L|206:94,1,35,2|0,2:2|0:0,0:0:0:0:
82,5,50546,5,2,2:2:0:0:
117,44,50641,1,0,0:0:0:0:
119,97,50737,1,0,0:0:0:0:
90,141,50832,1,0,0:0:0:0:
41,158,50927,1,10,2:2:0:0:
12,202,51022,1,0,0:0:0:0:
14,255,51118,2,0,L|41:300,1,35,0|0,0:0|0:0,0:0:0:0:
176,226,51308,5,2,2:2:0:0:
176,226,51403,1,0,0:0:0:0:
176,226,51499,2,0,L|123:226,1,35,0|0,0:0|0:0,0:0:0:0:
120,380,51689,1,14,2:2:0:0:
120,380,51784,1,0,0:0:0:0:
120,380,51880,2,0,L|145:334,1,35,6|0,2:2|0:0,0:0:0:0:
259,321,52070,5,6,2:2:0:0:
295,358,52165,1,0,0:0:0:0:
342,380,52261,1,0,0:0:0:0:
394,383,52356,1,0,0:0:0:0:
444,368,52451,2,0,L|485:331,1,35,10|0,2:2|0:0,0:0:0:0:
487,224,52641,2,0,L|441:255,1,35,0|0,0:0|0:0,0:0:0:0:
362,282,52832,5,2,2:2:0:0:
320,250,52927,1,0,0:0:0:0:
293,206,53022,1,0,0:0:0:0:
285,154,53118,1,0,0:0:0:0:
298,104,53213,1,10,2:2:0:0:
290,52,53308,1,0,0:0:0:0:
263,8,53403,2,0,L|204:27,1,35,2|0,2:2|0:0,0:0:0:0:
55,82,53594,5,2,2:2:0:0:
87,124,53689,1,0,0:0:0:0:
131,151,53784,1,0,0:0:0:0:
183,159,53880,1,0,0:0:0:0:
233,146,53975,1,10,2:2:0:0:
285,154,54070,1,0,0:0:0:0:
329,181,54165,2,0,L|378:220,1,35,0|0,0:0|0:0,0:0:0:0:
435,291,54356,5,6,2:2:0:0:
435,291,54451,1,0,0:0:0:0:
435,291,54546,2,0,L|386:330,1,35,0|0,0:0|0:0,0:0:0:0:
305,377,54737,1,14,2:2:0:0:
305,377,54832,1,0,0:0:0:0:
305,377,54927,2,0,L|277:355,1,35,2|0,2:2|0:0,0:0:0:0:
191,285,55118,5,6,2:2:0:0:
171,333,55213,1,0,0:0:0:0:
130,364,55308,1,0,0:0:0:0:
78,368,55403,1,0,0:0:0:0:
32,344,55499,1,10,2:2:0:0:
5,300,55594,1,0,0:0:0:0:
6,248,55689,1,0,0:0:0:0:
34,204,55784,1,0,0:0:0:0:
81,182,55880,1,2,2:2:0:0:
126,156,55975,1,0,0:0:0:0:
154,111,56070,1,0,0:0:0:0:
149,58,56165,1,0,0:0:0:0:
117,16,56261,1,10,2:2:0:0:
166,33,56356,1,0,0:0:0:0:
218,36,56451,1,2,2:2:0:0:
269,25,56546,1,0,0:0:0:0:
320,14,56641,5,2,2:2:0:0:
371,4,56737,1,0,0:0:0:0:
422,15,56832,1,0,0:0:0:0:
465,45,56927,1,0,0:0:0:0:
494,88,57022,1,10,2:2:0:0:
504,139,57118,1,0,0:0:0:0:
494,191,57213,1,0,0:0:0:0:
465,234,57308,1,0,0:0:0:0:
422,264,57403,1,2,2:2:0:0:
371,275,57499,1,0,0:0:0:0:
320,266,57594,1,0,0:0:0:0:
276,238,57689,1,0,0:0:0:0:
224,229,57784,1,14,2:2:0:0:
173,240,57880,1,0,0:0:0:0:
130,269,57975,2,0,L|182:285,1,35,2|0,2:2|0:0,0:0:0:0:
282,351,58165,5,6,2:2:0:0:
327,376,58261,1,0,0:0:0:0:
379,383,58356,1,0,0:0:0:0:
430,372,58451,1,0,0:0:0:0:
473,343,58546,1,10,2:2:0:0:
503,300,58641,1,0,0:0:0:0:
512,250,58737,1,0,0:0:0:0:
509,198,58832,1,0,0:0:0:0:
485,152,58927,1,2,2:2:0:0:
446,117,59022,1,0,0:0:0:0:
397,100,59118,1,0,0:0:0:0:
344,100,59213,1,0,0:0:0:0:
296,120,59308,1,10,2:2:0:0:
243,120,59403,1,0,0:0:0:0:
194,102,59499,2,0,L|237:62,1,35,2|0,2:2|0:0,0:0:0:0:
320,26,59689,5,2,2:2:0:0:
368,6,59784,1,0,0:0:0:0:
419,10,59880,1,0,0:0:0:0:
464,38,59975,1,0,0:0:0:0:
490,82,60070,1,10,2:2:0:0:
494,134,60165,1,0,0:0:0:0:
474,182,60261,1,0,0:0:0:0:
434,215,60356,1,0,0:0:0:0:
383,227,60451,1,6,2:2:0:0:
395,277,60546,1,0,0:0:0:0:
383,327,60641,1,0,0:0:0:0:
348,366,60737,1,0,0:0:0:0:
300,384,60832,1,14,2:2:0:0:
248,377,60927,1,0,0:0:0:0:
206,346,61022,1,2,2:2:0:0:
183,299,61118,1,0,0:0:0:0:
185,247,61213,6,0,L|199:187,3,35,6|0|0|0,2:2|0:0|0:0|0:0,0:0:0:0:
297,130,61594,2,0,L|289:164,3,35,10|0|0|0,2:2|0:0|0:0|0:0,0:0:0:0:
183,133,61975,6,0,L|243:147,3,35,2|0|0|0,2:2|0:0|0:0|0:0,0:0:0:0:
298,252,62356,2,0,L|264:244,3,35,10|0|0|0,2:2|0:0|0:0|0:0,0:0:0:0:
361,159,62737,5,2,2:2:0:0:
361,159,62832,1,0,0:0:0:0:
361,159,62927,2,0,L|355:211,1,35,0|0,0:0|0:0,0:0:0:0:
476,125,63118,1,10,2:2:0:0:
476,125,63213,1,0,0:0:0:0:
476,125,63308,2,0,L|482:177,1,35,0|0,0:0|0:0,0:0:0:0:
358,84,63499,5,2,2:2:0:0:
358,84,63594,1,0,0:0:0:0:
358,84,63689,2,0,L|364:136,1,35,4|0,0:0|0:0,0:0:0:0:
243,50,63880,1,10,2:2:0:0:
243,50,63975,1,0,0:0:0:0:
243,50,64070,2,0,L|237:102,1,35,6|0,0:0|0:0,0:0:0:0:
128,51,64261,6,0,L|132:16,3,35,2|0|0|0,2:2|0:0|0:0|0:0,0:0:0:0:
47,33,64641,2,0,L|42:67,3,35,10|0|0|0,2:2|0:0|0:0|0:0,0:0:0:0:
95,121,65022,2,0,L|90:155,3,35,2|0|0|0,2:2|0:0|0:0|0:0,0:0:0:0:
5,172,65403,2,0,L|9:137,3,35,10|0|0|0,2:2|0:0|0:0|0:0,0:0:0:0:
31,270,65784,5,2,2:2:0:0:
33,218,65880,1,0,0:0:0:0:
60,173,65975,1,0,0:0:0:0:
106,148,66070,1,0,0:0:0:0:
157,149,66165,1,10,2:2:0:0:
202,175,66261,1,0,0:0:0:0:
229,220,66356,1,0,0:0:0:0:
255,264,66451,1,0,0:0:0:0:
300,290,66546,1,2,2:2:0:0:
352,291,66641,1,0,0:0:0:0:
397,266,66737,1,4,0:0:0:0:
425,221,66832,1,0,0:0:0:0:
427,170,66927,6,0,L|485:192,3,35,10|0|6|0,2:2|0:0|0:0|0:0,0:0:0:0:
350,209,67308,6,0,L|292:231,3,35,6|0|0|0,2:2|0:0|0:0|0:0,0:0:0:0:
427,248,67689,2,0,L|485:270,3,35,10|0|0|0,2:2|0:0|0:0|0:0,0:0:0:0:
350,287,68070,6,0,L|292:309,3,35,2|0|0|0,2:2|0:0|0:0|0:0,0:0:0:0:
427,326,68451,2,0,L|485:348,3,35,10|0|0|0,2:2|0:0|0:0|0:0,0:0:0:0:
348,364,68832,5,2,2:2:0:0:
348,364,68927,1,0,0:0:0:0:
348,364,69022,2,0,L|290:386,1,35,0|0,0:0|0:0,0:0:0:0:
251,327,69213,1,10,2:2:0:0:
251,327,69308,1,0,0:0:0:0:
251,327,69403,2,0,L|193:305,1,35,0|0,0:0|0:0,0:0:0:0:
158,371,69594,5,2,2:2:0:0:
158,371,69689,1,0,0:0:0:0:
158,371,69784,2,0,L|100:393,1,35,4|0,0:0|0:0,0:0:0:0:
61,334,69975,1,10,2:2:0:0:
61,334,70070,1,0,0:0:0:0:
61,334,70165,2,0,L|3:312,1,35,6|0,0:0|0:0,0:0:0:0:
0,208,70356,6,0,L|32:220,3,35,2|0|0|0,2:2|0:0|0:0|0:0,0:0:0:0:
73,123,70737,2,0,L|60:155,3,35,10|0|0|0,2:2|0:0|0:0|0:0,0:0:0:0:
159,199,71118,6,0,L|126:186,3,35,2|0|0|0,2:2|0:0|0:0|0:0,0:0:0:0:
86,284,71499,2,0,L|98:251,3,35,10|0|0|0,2:2|0:0|0:0|0:0,0:0:0:0:
237,237,71880,5,6,2:2:0:0:
244,185,71975,1,0,0:0:0:0:
221,139,72070,1,0,0:0:0:0:
176,113,72165,1,0,0:0:0:0:
125,118,72261,1,10,2:2:0:0:
84,150,72356,1,0,0:0:0:0:
70,200,72451,1,0,0:0:0:0:
85,249,72546,1,0,0:0:0:0:
126,281,72641,5,6,2:2:0:0:
178,287,72737,1,0,0:0:0:0:
230,293,72832,1,0,0:0:0:0:
282,299,72927,1,0,0:0:0:0:
334,306,73022,1,10,2:2:0:0:
338,311,73118,1,0,0:0:0:0:
342,316,73213,1,0,0:0:0:0:
346,321,73308,1,0,0:0:0:0:
350,326,73403,5,6,2:2:0:0:
386,362,73499,1,0,0:0:0:0:
437,370,73594,1,0,0:0:0:0:
484,347,73689,1,0,0:0:0:0:
508,302,73784,1,10,2:2:0:0:
502,251,73880,1,0,0:0:0:0:
468,212,73975,2,0,L|417:254,1,35,0|0,0:0|0:0,0:0:0:0:
343,283,74165,5,2,2:2:0:0:
343,283,74261,2,0,L|332:218,1,35,0|0,0:0|0:0,0:0:0:0:
344,139,74451,1,0,0:0:0:0:
344,139,74546,2,0,L|405:162,1,35,10|0,2:2|0:0,0:0:0:0:
494,90,74737,2,0,L|432:113,1,35,2|0,2:2|0:0,0:0:0:0:
369,65,74927,5,2,2:2:0:0:
335,25,75022,1,0,0:0:0:0:
284,14,75118,1,0,0:0:0:0:
237,34,75213,1,0,0:0:0:0:
210,78,75308,1,10,2:2:0:0:
183,122,75403,1,0,0:0:0:0:
135,141,75499,1,0,0:0:0:0:
85,130,75594,1,0,0:0:0:0:
51,91,75689,6,0,L|69:37,3,35,2|0|0|0,2:2|0:0|0:0|0:0,0:0:0:0:
143,37,76070,1,14,2:2:0:0:
139,89,76165,1,0,0:0:0:0:
135,141,76261,1,2,2:2:0:0:
131,193,76356,1,0,0:0:0:0:
116,243,76451,5,6,2:2:0:0:
163,221,76546,1,0,0:0:0:0:
215,223,76641,1,0,0:0:0:0:
261,246,76737,1,0,0:0:0:0:
293,288,76832,1,10,2:2:0:0:
338,311,76927,1,0,0:0:0:0:
391,312,77022,2,0,L|376:251,1,35,0|0,0:0|0:0,0:0:0:0:
284,354,77213,5,2,2:2:0:0:
284,354,77308,2,0,L|347:367,1,35,0|0,0:0|0:0,0:0:0:0:
180,314,77499,1,0,0:0:0:0:
180,314,77594,2,0,L|243:301,1,35,10|0,2:2|0:0,0:0:0:0:
114,360,77784,2,0,L|51:347,1,35,2|0,2:2|0:0,0:0:0:0:
21,255,77975,5,2,2:2:0:0:
21,255,78070,2,0,L|9:305,1,35,0|0,0:0|0:0,0:0:0:0:
125,221,78261,1,0,0:0:0:0:
125,221,78356,2,0,L|137:271,1,35,10|0,2:2|0:0,0:0:0:0:
41,134,78546,2,0,L|29:184,1,35,0|0,0:0|0:0,0:0:0:0:
2,63,78737,5,6,2:2:0:0:
35,52,78832,1,0,0:0:0:0:
69,56,78927,2,0,L|110:89,1,35,0|0,0:0|0:0,0:0:0:0:
159,150,79118,1,14,2:2:0:0:
192,161,79213,1,0,0:0:0:0:
226,157,79308,2,0,L|267:124,1,35,2|0,2:2|0:0,0:0:0:0:
297,10,79499,5,6,2:2:0:0:
297,10,79594,2,0,L|312:64,1,35,0|0,0:0|0:0,0:0:0:0:
416,80,79784,1,0,0:0:0:0:
416,80,79880,2,0,L|431:134,1,35,10|0,2:2|0:0,0:0:0:0:
333,139,80070,2,0,L|318:193,1,35,0|0,0:0|0:0,0:0:0:0:
211,237,80261,5,2,2:2:0:0:
245,276,80356,1,0,0:0:0:0:
292,298,80451,1,0,0:0:0:0:
344,299,80546,1,0,0:0:0:0:
392,280,80641,1,10,2:2:0:0:
429,242,80737,1,0,0:0:0:0:
447,194,80832,2,0,L|392:207,1,35,2|0,2:2|0:0,0:0:0:0:
294,219,81022,6,0,L|349:231,1,35,2|0,2:2|0:0,0:0:0:0:
227,120,81213,1,0,0:0:0:0:
227,120,81308,2,0,L|210:65,1,35,0|10,0:0|2:2,0:0:0:0:
174,227,81499,1,0,0:0:0:0:
174,227,81594,2,0,L|135:268,1,35,0|0,0:0|0:0,0:0:0:0:
299,202,81784,6,0,L|357:203,1,35,2|0,2:2|0:0,0:0:0:0:
213,119,81975,1,0,0:0:0:0:
213,119,82070,2,0,L|185:69,1,35,0|14,0:0|2:2,0:0:0:0:
184,235,82261,1,0,0:0:0:0:
184,235,82356,2,0,L|154:284,1,35,2|0,2:2|0:0,0:0:0:0:
8,355,82546,5,6,2:2:0:0:
53,329,82641,1,0,0:0:0:0:
105,324,82737,1,0,0:0:0:0:
155,336,82832,1,0,0:0:0:0:
198,367,82927,1,10,2:2:0:0:
248,379,83022,1,0,0:0:0:0:
300,373,83118,2,0,L|345:342,1,35,0|0,0:0|0:0,0:0:0:0:
469,381,83308,5,2,2:2:0:0:
470,328,83403,1,0,0:0:0:0:
453,279,83499,1,0,0:0:0:0:
419,239,83594,1,0,0:0:0:0:
373,214,83689,1,10,2:2:0:0:
322,207,83784,1,0,0:0:0:0:
271,219,83880,2,0,L|281:277,1,35,2|0,2:2|0:0,0:0:0:0:
381,369,84070,5,2,2:2:0:0:
363,319,84165,1,0,0:0:0:0:
361,266,84261,1,0,0:0:0:0:
373,214,84356,1,0,0:0:0:0:
401,169,84451,2,0,L|434:130,1,35,10|0,2:2|0:0,0:0:0:0:
489,42,84641,1,0,0:0:0:0:
489,42,84737,1,0,0:0:0:0:
489,42,84832,6,0,L|504:99,3,35,6|0|0|0,2:2|0:0|0:0|0:0,0:0:0:0:
362,22,85213,1,14,2:2:0:0:
362,22,85308,1,0,0:0:0:0:
362,22,85403,2,0,L|307:37,1,35,2|0,2:2|0:0,0:0:0:0:
163,12,85594,6,0,L|218:27,3,35,6|0|0|0,2:2|0:0|0:0|0:0,0:0:0:0:
257,101,85975,2,0,L|202:116,3,35,10|0|0|0,2:2|0:0|0:0|0:0,0:0:0:0:
126,110,86356,6,0,L|71:95,3,35,2|0|0|0,2:2|0:0|0:0|0:0,0:0:0:0:
32,21,86737,2,0,L|87:6,3,35,10|0|0|0,2:2|0:0|0:0|0:0,0:0:0:0:
11,120,87118,5,2,2:2:0:0:
11,120,87213,1,0,0:0:0:0:
11,120,87308,2,0,L|17:167,1,35,0|0,0:0|0:0,0:0:0:0:
103,199,87499,1,10,2:2:0:0:
103,199,87594,1,0,0:0:0:0:
103,199,87689,2,0,L|97:246,1,35,0|0,0:0|0:0,0:0:0:0:
8,246,87880,5,2,2:2:0:0:
8,246,87975,1,0,0:0:0:0:
8,246,88070,2,0,L|14:293,1,35,4|0,0:0|0:0,0:0:0:0:
100,325,88261,1,10,2:2:0:0:
100,325,88356,1,0,0:0:0:0:
100,325,88451,2,0,L|94:372,1,35,6|0,0:0|0:0,0:0:0:0:
183,353,88641,6,0,L|217:357,3,35,2|0|0|0,2:2|0:0|0:0|0:0,0:0:0:0:
297,300,89022,2,0,L|262:295,3,35,10|0|0|0,2:2|0:0|0:0|0:0,0:0:0:0:
294,374,89403,6,0,L|328:378,3,35,2|0|0|0,2:2|0:0|0:0|0:0,0:0:0:0:
408,321,89784,2,0,L|373:316,3,35,10|0|0|0,2:2|0:0|0:0|0:0,0:0:0:0:
509,384,90165,5,2,2:2:0:0:
484,337,90261,1,0,0:0:0:0:
469,287,90356,1,0,0:0:0:0:
466,235,90451,1,0,0:0:0:0:
474,183,90546,1,10,2:2:0:0:
465,131,90641,1,0,0:0:0:0:
435,87,90737,1,0,0:0:0:0:
386,65,90832,1,0,0:0:0:0:
334,74,90927,1,2,2:2:0:0:
294,108,91022,1,0,0:0:0:0:
285,159,91118,1,4,0:0:0:0:
302,208,91213,1,0,0:0:0:0:
344,238,91308,6,0,L|396:232,3,35,10|0|6|0,2:2|0:0|0:0|0:0,0:0:0:0:
224,236,91689,6,0,L|172:230,3,35,6|0|0|0,2:2|0:0|0:0|0:0,0:0:0:0:
138,164,92070,2,0,L|144:112,3,35,10|0|0|0,2:2|0:0|0:0|0:0,0:0:0:0:
214,78,92451,6,0,L|266:84,3,35,2|0|0|0,2:2|0:0|0:0|0:0,0:0:0:0:
300,150,92832,2,0,L|294:202,3,35,10|0|0|0,2:2|0:0|0:0|0:0,0:0:0:0:
195,206,93213,5,2,2:2:0:0:
195,206,93308,1,0,0:0:0:0:
195,206,93403,2,0,L|201:258,1,35,0|0,0:0|0:0,0:0:0:0:
291,266,93594,1,10,2:2:0:0:
291,266,93689,1,0,0:0:0:0:
291,266,93784,2,0,L|285:318,1,35,0|0,0:0|0:0,0:0:0:0:
203,322,93975,5,2,2:2:0:0:
203,322,94070,1,0,0:0:0:0:
203,322,94165,2,0,L|197:374,1,35,4|0,0:0|0:0,0:0:0:0:
108,277,94356,1,10,2:2:0:0:
108,277,94451,1,0,0:0:0:0:
108,277,94546,2,0,L|114:329,1,35,6|0,0:0|0:0,0:0:0:0:
9,252,94737,6,0,L|13:217,3,35,2|0|0|0,2:2|0:0|0:0|0:0,0:0:0:0:
34,106,95118,2,0,L|38:140,3,35,10|0|0|0,2:2|0:0|0:0|0:0,0:0:0:0:
100,219,95499,6,0,L|104:184,3,35,2|0|0|0,2:2|0:0|0:0|0:0,0:0:0:0:
125,73,95880,2,0,L|129:107,3,35,10|0|0|0,2:2|0:0|0:0|0:0,0:0:0:0:
214,45,96261,5,6,2:2:0:0:
173,12,96356,1,0,0:0:0:0:
122,3,96451,1,0,0:0:0:0:
73,20,96546,1,0,0:0:0:0:
37,58,96641,1,10,2:2:0:0:
25,108,96737,1,0,0:0:0:0:
38,158,96832,1,0,0:0:0:0:
73,196,96927,1,0,0:0:0:0:
123,212,97022,5,6,2:2:0:0:
175,205,97118,1,0,0:0:0:0:
227,198,97213,1,0,0:0:0:0:
279,191,97308,1,0,0:0:0:0:
331,184,97403,2,0,L|369:153,3,35,14|0|4|0,2:2|0:0|2:2|0:0,0:0:0:0:
284,19,97784,5,0,0:0:0:0:
282,23,97880,1,0,0:0:0:0:
280,28,97975,1,0,0:0:0:0:
278,33,98070,1,0,0:0:0:0:
276,38,98165,1,0,0:0:0:0:
275,43,98261,1,0,0:0:0:0:
273,48,98356,1,0,0:0:0:0:
272,53,98451,1,0,0:0:0:0:
270,58,98546,1,0,0:0:0:0:
269,63,98641,1,0,0:0:0:0:
268,69,98737,1,0,0:0:0:0:
267,74,98832,1,0,0:0:0:0:
266,79,98927,1,0,0:0:0:0:
265,84,99022,1,0,0:0:0:0:
264,89,99118,1,0,0:0:0:0:
264,94,99213,1,0,0:0:0:0:
263,100,99308,1,0,0:0:0:0:
263,105,99403,1,0,0:0:0:0:
262,110,99499,1,0,0:0:0:0:
262,115,99594,1,0,0:0:0:0:
262,121,99689,1,0,0:0:0:0:
262,126,99784,1,0,0:0:0:0:
262,131,99880,1,0,0:0:0:0:
262,136,99975,1,0,0:0:0:0:
262,142,100070,1,0,0:0:0:0:
262,147,100165,1,0,0:0:0:0:
263,152,100261,1,0,0:0:0:0:
263,157,100356,1,0,0:0:0:0:
264,163,100451,1,0,0:0:0:0:
265,168,100546,1,0,0:0:0:0:
266,173,100641,1,0,0:0:0:0:
266,178,100737,1,0,0:0:0:0:
267,183,100832,5,0,0:0:0:0:
282,187,100927,1,0,0:0:0:0:
296,194,101022,1,0,0:0:0:0:
309,202,101118,1,0,0:0:0:0:
320,213,101213,1,0,0:0:0:0:
330,226,101308,1,0,0:0:0:0:
338,239,101403,1,0,0:0:0:0:
343,254,101499,1,0,0:0:0:0:
346,270,101594,1,0,0:0:0:0:
347,285,101689,1,0,0:0:0:0:
345,301,101784,1,0,0:0:0:0:
341,316,101880,1,0,0:0:0:0:
334,330,101975,1,0,0:0:0:0:
325,343,102070,1,0,0:0:0:0:
315,355,102165,1,0,0:0:0:0:
302,365,102261,1,0,0:0:0:0:
289,372,102356,1,0,0:0:0:0:
274,378,102451,1,0,0:0:0:0:
258,381,102546,1,0,0:0:0:0:
243,382,102641,1,0,0:0:0:0:
227,380,102737,1,0,0:0:0:0:
212,376,102832,1,0,0:0:0:0:
198,369,102927,1,0,0:0:0:0:
184,361,103022,1,0,0:0:0:0:
173,350,103118,1,0,0:0:0:0:
163,338,103213,1,0,0:0:0:0:
155,324,103308,1,0,0:0:0:0:
150,309,103403,1,0,0:0:0:0:
146,294,103499,1,0,0:0:0:0:
148,278,103594,1,0,0:0:0:0:
151,262,103689,2,0,L|165:222,1,35,0|0,0:0|0:0,0:0:0:0:
218,144,103880,5,0,0:0:0:0:
218,144,103975,2,0,L|230:187,1,35,0|0,0:0|0:0,0:0:0:0:
133,90,104165,1,0,0:0:0:0:
133,90,104261,2,0,L|121:133,1,35,0|0,0:0|0:0,0:0:0:0:
213,23,104451,2,0,L|279:40,1,35,0|0,0:0|0:0,0:0:0:0:
311,104,104641,5,0,0:0:0:0:
311,104,104737,2,0,L|345:96,1,35,0|0,0:0|0:0,0:0:0:0:
412,8,104927,1,0,0:0:0:0:
412,8,105022,2,0,L|417:66,1,35,0|0,0:0|0:0,0:0:0:0:
497,101,105213,2,0,L|492:159,1,35,0|0,0:0|0:0,0:0:0:0:
404,159,105403,6,0,L|409:217,1,35,0|0,0:0|0:0,0:0:0:0:
497,239,105594,1,0,0:0:0:0:
497,239,105689,2,0,L|492:297,1,35,0|0,0:0|0:0,0:0:0:0:
403,308,105880,1,0,0:0:0:0:
403,308,105975,2,0,L|408:366,1,35,0|0,0:0|0:0,0:0:0:0:
293,384,106165,6,0,L|298:326,1,35,0|0,0:0|0:0,0:0:0:0:
159,344,106356,1,0,0:0:0:0:
159,344,106451,2,0,L|154:286,1,35,0|0,0:0|0:0,0:0:0:0:
241,277,106641,1,0,0:0:0:0:
241,277,106737,2,0,L|246:219,1,35,0|0,0:0|0:0,0:0:0:0:
329,257,106927,5,0,0:0:0:0:
351,230,107022,1,0,0:0:0:0:
366,198,107118,1,0,0:0:0:0:
372,164,107213,1,0,0:0:0:0:
369,129,107308,1,0,0:0:0:0:
356,97,107403,1,0,0:0:0:0:
336,69,107499,1,0,0:0:0:0:
308,47,107594,1,0,0:0:0:0:
276,34,107689,1,0,0:0:0:0:
241,29,107784,1,0,0:0:0:0:
207,34,107880,1,0,0:0:0:0:
175,48,107975,1,0,0:0:0:0:
148,70,108070,1,0,0:0:0:0:
127,99,108165,1,0,0:0:0:0:
116,132,108261,2,0,L|133:190,1,35,0|0,0:0|0:0,0:0:0:0:
21,215,108451,5,0,0:0:0:0:
42,242,108546,1,0,0:0:0:0:
71,262,108641,1,0,0:0:0:0:
104,273,108737,1,0,0:0:0:0:
139,274,108832,1,0,0:0:0:0:
173,265,108927,1,0,0:0:0:0:
203,248,109022,2,0,L|239:209,1,35,0|0,0:0|0:0,0:0:0:0:
277,128,109213,5,0,0:0:0:0:
298,100,109308,1,0,0:0:0:0:
327,80,109403,1,0,0:0:0:0:
360,69,109499,1,0,0:0:0:0:
395,68,109594,1,0,0:0:0:0:
429,77,109689,1,0,0:0:0:0:
459,94,109784,1,0,0:0:0:0:
483,118,109880,1,0,0:0:0:0:
496,150,109975,5,6,0:0:0:0:
