osu file format v14

[General]
AudioFilename: audio.mp3
AudioLeadIn: 0
PreviewTime: 53912
Countdown: 0
SampleSet: Soft
StackLeniency: 0.7
Mode: 0
LetterboxInBreaks: 0
WidescreenStoryboard: 1

[Editor]
DistanceSpacing: 0.8
BeatDivisor: 4
GridSize: 4
TimelineZoom: 2.2

[Metadata]
Title:Cloud Control
TitleUnicode:Cloud Control
Artist:Dimrain47
ArtistUnicode:Dimrain47
Creator:PandaHero
Version:Normal
Source:
Tags:Local Hero Coffee Hispanic Mocha SWISS1 DT2 featured artist fa mappers mappers' guild mpg electronic instrumental newgrounds techno
BeatmapID:3797111
BeatmapSetID:1550498

[Difficulty]
HPDrainRate:3
CircleSize:2.8
OverallDifficulty:3
ApproachRate:4
SliderMultiplier:1
SliderTickRate:1

[Events]
//Background and Video events
0,0,"bg.jpg",0,0
//Break Periods
2,66006,70686
//Storyboard Layer 0 (Background)
//Storyboard Layer 1 (Fail)
//Storyboard Layer 2 (Pass)
//Storyboard Layer 3 (Foreground)
//Storyboard Layer 4 (Overlay)
//Storyboard Sound Samples

[TimingPoints]
6,375,4,2,0,50,1,0
6006,-100,4,2,0,50,0,0
18006,-100,4,2,1,65,0,0
28881,-100,4,2,0,65,0,0
30006,-100,4,2,1,60,0,0
42006,-100,4,2,1,70,0,1
54006,-100,4,2,2,55,0,0
63006,-100,4,2,2,65,0,0
66006,-100,4,2,1,50,0,0
78006,-100,4,2,1,55,0,0
81006,-100,4,2,1,60,0,0
83256,-100,4,2,1,65,0,0
84006,-100,4,2,1,50,0,0
95818,-100,4,2,2,50,0,0
96006,-100,4,2,2,60,0,0
108006,-100,4,2,1,60,0,0
132006,-100,4,2,1,65,0,0
137818,-100,4,2,2,65,0,0
138006,-100,4,2,1,65,0,0
143818,-100,4,2,2,65,0,0
144006,-100,4,1,2,65,0,1
159006,-100,4,2,1,55,0,0
168006,-100,4,2,1,45,0,0

[Colours]
Combo1 : 120,96,90
Combo2 : 192,192,192
Combo3 : 128,128,128

[HitObjects]
151,71,6006,6,0,B|266:42|240:129|359:101,2,200,4|0|2,1:2|3:0|0:0,0:0:0:0:
62,116,7881,1,0,0:0:0:0:
26,209,8256,1,2,3:2:0:0:
71,297,8631,1,0,3:0:0:0:
167,323,9006,6,0,L|218:100,2,200,0|0|2,1:0|3:0|0:0,0:0:0:0:
257,366,10881,1,0,0:0:0:0:
322,290,11256,2,0,L|318:145,1,100,2|0,0:0|0:0,0:0:0:0:
348,94,12006,6,0,P|455:110|481:201,1,200,4|0,1:2|1:0,0:0:0:0:
445,279,13131,1,0,3:0:0:0:
354,236,13506,2,0,L|212:249,1,100,2|0,0:0|0:0,0:0:0:0:
217,338,14256,2,0,L|359:325,1,100,2|2,3:0|0:0,0:0:0:0:
416,338,15006,6,0,P|456:277|421:134,1,200,4|0,1:2|0:0,0:0:0:0:
366,87,16131,1,2,3:0:0:0:
268,107,16506,1,0,1:0:0:0:
249,205,16881,1,2,0:0:0:0:
310,283,17256,2,0,L|317:353,2,50,0|2|4,1:0|3:0|1:2,0:0:0:0:
213,309,18006,5,4,0:3:0:0:
113,309,18381,1,4,1:3:0:0:
65,220,18756,2,0,L|74:101,1,100,4|4,0:3|1:3,0:0:0:0:
158,66,19506,2,0,L|280:70,2,100,4|4|4,0:3|1:3|0:3,0:0:0:0:
70,16,20631,1,4,1:3:0:0:
7,94,21006,6,0,L|20:226,1,100,4|4,0:3|1:3,0:0:0:0:
83,268,21756,2,0,L|128:158,1,100,4|4,0:3|1:3,0:0:0:0:
208,127,22506,1,4,0:3:0:0:
299,166,22881,1,4,1:3:0:0:
294,265,23256,2,0,L|259:338,2,50,4|0|4,0:3|0:0|1:3,0:0:0:0:
379,212,24006,6,0,L|489:243,1,100,4|4,1:2|1:3,0:0:0:0:
504,143,24756,2,0,L|394:112,1,100,4|4,0:3|1:3,0:0:0:0:
322,63,25506,1,4,0:3:0:0:
222,70,25881,1,4,1:3:0:0:
256,163,26256,2,0,L|239:277,1,100,4|4,0:3|1:3,0:0:0:0:
324,317,27006,6,0,L|347:197,2,100,4|4|4,0:3|1:3|0:3,0:0:0:0:
233,359,28131,1,4,1:3:0:0:
142,315,28506,1,4,0:3:0:0:
119,217,28881,1,2,3:0:0:0:
202,161,29256,2,0,L|227:237,2,50,0|2|0,3:0|3:0|1:0,1:1:0:0:
119,103,30006,6,0,L|5:122,1,100,4|4,1:2|1:3,0:0:0:0:
20,219,30756,1,4,0:3:0:0:
98,281,31131,1,2,1:2:0:0:
194,246,31506,1,2,1:0:0:0:
194,246,31693,2,0,P|191:193|231:84,1,150,2|2,1:0|1:0,0:0:0:0:
305,49,32631,1,2,1:0:0:0:
404,36,33006,6,0,L|497:79,2,100,4|4|4,0:3|1:3|0:3,0:0:0:0:
305,49,34131,1,2,1:2:0:0:
266,141,34506,1,2,1:0:0:0:
328,219,34881,1,0,1:0:0:0:
426,202,35256,2,0,L|424:123,2,50,2|2|0,1:0|1:0|1:0,0:0:0:0:
421,302,36006,6,0,L|309:349,1,100,4|4,1:2|1:3,0:0:0:0:
229,327,36756,2,0,L|250:211,1,100,4|2,0:3|1:2,0:0:0:0:
255,128,37506,1,2,1:0:0:0:
255,128,37693,2,0,P|206:85|101:70,1,150,2|2,1:0|1:0,0:0:0:0:
38,118,38631,1,2,1:0:0:0:
27,217,39006,6,0,L|37:337,2,100,2|2|2,1:2|1:2|1:2,0:0:0:0:
118,176,40131,1,2,1:2:0:0:
181,253,40506,2,0,L|145:322,2,50,2|2|0,1:0|1:0|1:0,0:0:0:0:
251,181,41256,2,0,L|226:94,2,50,2|2|2,1:0|0:0|1:0,0:0:0:0:
319,254,42006,6,0,L|450:271,1,100,4|8,1:2|1:0,0:0:0:0:
457,235,42568,1,2,0:0:0:0:
457,235,42756,2,0,L|430:113,1,100,0|8,1:0|1:0,0:0:0:0:
396,45,43506,1,2,1:0:0:0:
296,46,43881,1,8,1:0:0:0:
273,143,44256,2,0,L|276:268,1,100,2|10,1:0|1:0,0:0:0:0:
179,214,45006,6,0,L|177:113,1,100,0|8,1:0|1:0,0:0:0:0:
173,68,45568,1,2,0:0:0:0:
173,68,45756,2,0,L|56:91,1,100,0|8,1:0|1:0,0:0:0:0:
11,164,46506,1,2,1:0:0:0:
38,260,46881,1,8,1:0:0:0:
134,233,47256,2,0,L|120:158,2,50,2|2|10,1:0|1:0|1:0,0:0:0:0:
164,328,48006,5,4,1:2:0:0:
263,317,48381,1,8,1:0:0:0:
283,219,48756,1,0,1:0:0:0:
336,134,49131,1,8,1:0:0:0:
433,157,49506,1,2,1:0:0:0:
433,157,49693,2,0,P|466:230|463:320,1,150,2|2,1:0|1:0,0:0:0:0:
374,336,50631,1,10,1:0:0:0:
312,257,51006,6,0,L|203:285,2,100,0|8|0,1:0|1:0|1:0,0:0:0:0:
345,162,52131,1,8,1:0:0:0:
300,72,52506,1,2,1:0:0:0:
200,60,52881,1,8,1:0:0:0:
137,137,53256,2,0,L|150:202,2,50,2|2|8,1:0|1:0|1:0,0:0:0:0:
104,48,54006,5,0,1:0:0:0:
104,48,54756,2,0,P|45:97|35:224,1,200,2|0,1:3|1:0,0:0:0:0:
62,308,55881,1,0,1:0:0:0:
158,333,56256,2,0,L|239:180,1,150,0|0,1:0|1:0,0:0:0:0:
263,164,57006,6,0,P|316:181|373:215,1,100,4|2,1:2|0:0,0:0:0:0:
437,257,57756,2,0,P|457:200|476:100,1,150,2|0,1:3|1:0,0:0:0:0:
468,62,58506,1,0,1:0:0:0:
374,27,58881,1,0,1:0:0:0:
283,68,59256,1,0,1:0:0:0:
295,167,59631,1,0,1:0:0:0:
276,265,60006,6,0,L|243:374,1,100,0|0,1:0|3:0,0:0:0:0:
151,330,60756,2,0,L|125:169,1,150,2|0,1:3|1:0,0:0:0:0:
76,180,61506,2,0,L|96:60,1,100,0|0,1:0|3:0,0:0:0:0:
188,52,62256,1,0,1:0:0:0:
285,74,62631,1,2,0:0:0:0:
333,161,63006,6,0,P|246:192|226:204,1,100,4|12,1:2|0:0,0:0:0:0:
191,208,63568,1,2,1:2:0:0:
191,208,63756,2,0,L|205:337,1,100,4|12,0:2|0:2,0:0:0:0:
292,349,64506,1,4,1:0:0:0:
303,339,72006,6,0,P|411:318|440:227,1,200,4|4,1:2|0:0,0:0:0:0:
408,148,73131,1,2,0:0:0:0:
308,144,73506,2,0,L|249:251,2,100,0|0|0,3:0|0:0|1:0,0:0:0:0:
324,45,74631,1,2,0:0:0:0:
227,18,75006,6,0,P|94:47|53:133,1,200,4|4,1:2|0:0,0:0:0:0:
28,187,76131,1,2,0:0:0:0:
98,258,76506,2,0,L|228:237,1,100,0|0,3:0|1:0,0:0:0:0:
295,258,77256,1,2,0:0:0:0:
359,334,77631,1,0,3:0:0:0:
454,304,78006,6,0,P|455:240|430:78,1,200,4|4,1:2|0:0,0:0:0:0:
366,34,79131,1,2,0:0:0:0:
285,93,79506,2,0,L|305:223,2,100,0|0|0,3:0|0:0|3:0,0:0:0:0:
192,54,80631,1,0,1:0:0:0:
256,192,81006,12,4,82506,1:2:0:0:
258,39,84006,6,0,L|234:348,1,300,4|2,1:0|0:0,0:0:0:0:
135,353,85506,2,0,L|92:180,1,150,0|2,1:0|0:0,0:0:0:0:
96,57,86631,1,0,1:0:0:0:
193,34,87006,6,0,L|330:39,2,100,0|2|0,1:0|0:0|1:0,0:0:0:0:
96,57,88131,1,0,3:0:0:0:
157,135,88506,2,0,L|279:139,1,100,0|2,1:0|0:0,0:0:0:0:
307,224,89256,2,0,L|185:241,1,100,0|2,1:0|0:0,0:0:0:0:
182,334,90006,6,0,B|250:348|250:348|419:327,1,200,0|0,1:0|1:0,0:0:0:0:
477,312,91131,1,2,0:0:0:0:
457,215,91506,1,0,1:0:0:0:
357,211,91881,2,0,L|281:232,2,50,0|2|0,3:0|0:0|1:0,0:0:0:0:
380,113,92631,1,0,3:0:0:0:
321,31,93006,6,0,P|233:34|207:47,1,100,0|2,1:0|0:0,0:0:0:0:
128,68,93756,2,0,P|157:151|160:189,1,100,0|2,3:0|0:0,0:0:0:0:
180,260,94506,2,0,P|256:231|297:232,2,100,0|2|0,1:0|0:0|3:0,0:0:0:0:
90,305,95631,1,4,0:0:0:0:
46,215,96006,6,0,P|31:126|54:46,1,150,4|4,0:0|1:2,0:0:0:0:
76,30,96756,2,0,L|177:42,1,100,0|8,1:0|1:2,0:0:0:0:
274,56,97506,1,0,1:0:0:0:
278,155,97881,2,0,L|243:242,2,50,8|2|0,1:2|0:0|1:0,0:0:0:0:
374,128,98631,1,8,1:2:0:0:
450,192,99006,6,0,L|432:331,1,100,0|8,1:0|1:2,0:0:0:0:
348,337,99756,2,0,L|336:206,1,100,0|8,1:0|1:2,0:0:0:0:
257,179,100506,1,4,1:2:0:0:
327,107,100881,1,8,1:2:0:0:
263,29,101256,1,4,1:2:0:0:
163,39,101631,1,8,1:2:0:0:
72,82,102006,6,0,P|77:171|94:238,1,150,4|2,1:2|1:2,0:0:0:0:
121,270,102756,2,0,P|130:349|130:375,1,100,0|8,1:0|1:2,0:0:0:0:
229,360,103506,1,0,1:0:0:0:
259,264,103881,2,0,L|215:242,2,50,8|2|0,1:2|0:0|1:0,0:0:0:0:
358,276,104631,1,8,1:2:0:0:
438,215,105006,6,0,P|436:162|425:101,1,100,0|8,1:0|1:2,0:0:0:0:
356,45,105756,2,0,P|305:45|214:58,1,100,0|8,1:0|1:2,0:0:0:0:
182,117,106506,1,4,1:2:0:0:
261,177,106881,2,0,L|256:241,1,50,0|0,1:0|1:0,0:0:0:0:
242,274,107256,2,0,B|252:316|252:316|243:359,2,66.6666666666667,4|4|4,1:2|1:2|1:2,0:0:0:0:
185,238,108006,5,4,1:2:0:0:
92,275,108381,1,4,1:3:0:0:
9,331,108756,2,0,L|14:396,2,50,4|2|4,0:3|0:3|1:3,0:0:0:0:
6,230,109506,2,0,L|32:93,1,100,4|4,0:3|1:3,0:0:0:0:
124,124,110256,2,0,L|127:184,2,50,4|2|4,1:3|0:3|1:3,0:0:0:0:
172,36,111006,5,4,0:3:0:0:
270,52,111381,1,4,1:3:0:0:
330,131,111756,2,0,P|415:127|445:108,1,100,4|4,0:3|1:3,0:0:0:0:
495,193,112506,2,0,L|500:285,2,50,4|2|4,0:3|3:0|1:3,0:0:0:0:
403,233,113256,2,0,L|408:319,2,50,4|2|4,0:3|0:3|1:3,0:0:0:0:
313,188,114006,5,4,1:2:0:0:
216,214,114381,1,4,1:3:0:0:
217,313,114756,2,0,L|303:321,2,50,4|2|4,0:3|0:3|1:3,0:0:0:0:
117,329,115506,2,0,P|75:287|30:245,1,100,4|4,0:3|1:3,0:0:0:0:
22,161,116256,2,0,L|9:93,2,50,4|2|4,0:3|0:3|1:3,0:0:0:0:
118,187,117006,5,4,0:3:0:0:
150,92,117381,1,4,1:3:0:0:
248,72,117756,1,4,0:3:0:0:
327,141,118131,2,0,L|319:202,1,50,4|2,1:3|0:3,0:0:0:0:
343,234,118506,2,0,L|405:229,2,50,4|2|4,1:3|0:3|1:3,0:0:0:0:
287,317,119256,2,0,L|214:309,2,50,4|4|0,0:3|0:3|3:0,3:3:0:0:
381,348,120006,6,2,P|460:293|457:227,1,150,4|4,1:2|3:2,0:0:0:0:
451,197,120756,1,4,0:3:0:0:
381,125,121131,1,4,1:2:0:0:
283,146,121506,2,0,L|172:161,1,100,4|4,1:2|1:3,0:0:0:0:
135,171,122068,1,4,3:2:0:0:
135,171,122256,2,0,L|162:37,1,100,2|4,1:2|1:3,0:0:0:0:
63,31,123006,5,4,1:2:0:0:
21,121,123381,1,4,1:3:0:0:
47,217,123756,2,0,L|25:329,1,100,4|4,1:2|1:2,0:0:0:0:
125,335,124506,2,0,L|147:223,2,100,4|4|4,1:2|1:3|1:2,0:0:0:0:
223,351,125631,1,4,1:2:0:0:
288,275,126006,6,2,P|290:195|278:112,1,150,4|2,1:0|0:3,0:0:0:0:
280,75,126756,1,4,0:3:0:0:
372,36,127131,1,4,1:2:0:0:
456,89,127506,1,4,1:2:0:0:
467,188,127881,2,0,L|453:261,2,50,4|2|4,1:3|3:0|1:3,0:0:0:0:
374,149,128631,2,0,L|314:166,1,50,4|2,1:2|1:3,0:0:0:0:
284,190,129006,6,0,P|218:188|186:155,1,100,4|4,1:2|1:3,0:0:0:0:
145,80,129756,2,0,P|68:89|38:129,1,100,4|4,1:2|1:2,0:0:0:0:
21,196,130506,2,0,L|35:315,2,100,4|4|4,1:2|1:3|1:2,0:0:0:0:
120,204,131631,2,0,L|194:230,1,50,4|8,1:2|1:2,0:0:0:0:
203,255,132006,6,0,P|266:257|303:238,1,100,4|8,1:2|1:0,0:0:0:0:
380,185,132756,1,0,1:0:0:0:
475,215,133131,1,8,1:0:0:0:
494,313,133506,2,0,P|431:327|373:348,1,100,0|8,1:0|1:0,0:0:0:0:
352,353,134068,1,2,1:2:0:0:
352,353,134256,2,0,L|325:218,1,100,2|8,1:0|1:0,0:0:0:0:
312,156,135006,6,0,L|317:32,2,100,0|8|0,1:0|1:0|1:0,0:0:0:0:
404,194,136131,1,8,1:0:0:0:
467,117,136506,2,0,L|445:11,1,100,2|10,1:0|1:0,0:0:0:0:
346,16,137256,2,0,L|221:41,1,100,2|10,1:0|1:0,0:0:0:0:
224,79,137818,1,2,1:3:0:0:
224,79,138006,6,0,L|99:72,1,100,4|8,1:2|1:0,0:0:0:0:
51,141,138756,1,0,1:0:0:0:
32,239,139131,1,10,1:0:0:0:
104,307,139506,2,0,L|159:213,1,100,2|10,1:0|1:0,0:0:0:0:
187,183,140068,1,2,1:0:0:0:
187,183,140256,2,0,L|302:202,1,100,2|10,1:0|1:0,0:0:0:0:
384,216,141006,5,2,1:0:0:0:
455,145,141381,1,8,1:0:0:0:
423,50,141756,1,2,1:0:0:0:
323,43,142131,1,10,1:0:0:0:
280,133,142506,2,0,L|292:266,2,100,2|10|2,1:0|1:0|1:0,0:0:0:0:
213,58,143631,2,0,L|119:47,1,50,10|2,1:0|1:3,0:0:0:0:
113,60,144006,5,4,0:2:0:0:
53,140,144381,1,8,0:0:0:0:
37,238,144756,2,0,L|46:311,2,50,0|2|10,0:0|0:2|0:0,0:0:0:0:
132,208,145506,2,0,P|203:222|252:260,1,100,2|10,0:0|0:0,0:0:0:0:
236,284,146068,1,2,0:0:0:0:
236,284,146256,2,0,P|285:310|342:317,1,100,0|10,0:0|0:0,0:0:0:0:
421,279,147006,5,2,0:0:0:0:
480,199,147381,1,8,0:0:0:0:
419,119,147756,2,0,L|305:141,1,100,0|10,0:0|0:0,0:0:0:0:
260,57,148506,2,0,L|374:35,2,100,2|10|2,0:0|0:0|0:0,0:0:0:0:
166,92,149631,2,0,L|160:154,1,50,10|2,0:0|0:3,0:0:0:0:
191,181,150006,6,0,L|173:336,1,150,4|2,0:2|0:2,0:0:0:0:
132,359,150756,1,0,0:0:0:0:
46,308,151131,1,10,0:0:0:0:
19,211,151506,2,0,L|34:105,1,100,2|10,0:0|0:0,0:0:0:0:
48,64,152068,1,2,0:0:0:0:
48,64,152256,2,0,L|179:79,1,100,2|10,0:0|0:0,0:0:0:0:
244,50,153006,5,2,0:0:0:0:
309,125,153381,1,10,0:0:0:0:
234,191,153756,1,2,0:0:0:0:
307,258,154131,1,10,0:0:0:0:
391,311,154506,2,0,L|416:177,2,100,2|10|2,0:0|0:0|0:0,0:0:0:0:
306,365,155631,1,10,0:0:0:0:
243,287,156006,6,0,L|110:302,1,100,4|8,0:2|0:0,0:0:0:0:
43,299,156756,1,0,0:0:0:0:
90,210,157131,1,10,0:0:0:0:
165,144,157506,2,0,L|289:180,1,100,2|10,0:0|0:0,0:0:0:0:
310,196,158068,1,2,0:0:0:0:
310,196,158256,2,0,L|283:61,1,100,2|8,0:0|0:0,0:0:0:0:
367,34,159006,6,0,L|486:50,2,100,2|0|2,1:0|1:0|0:0,0:0:0:0:
269,13,160131,1,0,1:0:0:0:
185,68,160506,2,0,L|201:197,1,100,0|2,1:0|0:0,0:0:0:0:
283,217,161256,2,0,L|273:331,1,100,0|2,3:0|0:0,0:0:0:0:
178,346,162006,6,0,P|79:322|50:222,1,200,4|0,0:0|1:0,0:0:0:0:
58,138,163131,1,2,0:0:0:0:
157,147,163506,1,0,1:0:0:0:
190,52,163881,2,0,L|119:32,2,50,0|2|0,1:0|0:0|1:0,0:0:0:0:
281,92,164631,1,2,0:0:0:0:
265,190,165006,6,0,L|277:329,1,100,0|2,1:0|0:0,0:0:0:0:
349,354,165756,2,0,L|438:280,1,100,0|0,3:0|1:0,0:0:0:0:
468,199,166506,2,0,L|364:154,2,100,2|0|2,0:0|3:0|0:0,0:0:0:0:
501,104,167631,1,0,3:0:0:0:
418,47,168006,6,2,P|276:69|220:146,1,200,4|0,1:2|0:0,0:0:0:0:
215,201,169131,1,2,0:0:0:0:
149,276,169506,2,0,P|55:193|61:102,1,200,0|0,1:0|1:0,0:0:0:0:
97,35,170631,1,0,3:0:0:0:
194,57,171006,6,0,L|275:132,1,100,0|0,1:0|0:0,0:0:0:0:
354,173,171756,2,0,L|335:294,1,100,0|0,3:0|0:0,0:0:0:0:
249,318,172506,2,0,L|222:189,2,100,0|2|0,1:0|0:0|3:0,0:0:0:0:
332,373,173631,1,2,0:0:0:0:
424,335,174006,6,2,P|464:266|437:137,1,200,0|0,1:0|0:0,0:0:0:0:
398,63,175131,1,2,0:0:0:0:
300,40,175506,1,0,1:0:0:0:
275,136,175881,2,0,L|282:221,2,50,2|0|2,0:0|3:0|0:0,0:0:0:0:
195,75,176631,1,0,1:0:0:0:
103,115,177006,6,0,L|34:228,1,100,0|0,1:0|0:0,0:0:0:0:
75,297,177756,2,0,L|170:238,1,100,2|0,0:0|1:0,0:0:0:0:
243,188,178506,2,0,L|371:216,1,100,2|0,0:0|3:0,0:0:0:0:
399,290,179256,2,0,L|288:308,1,100,2|0,0:0|3:0,0:0:0:0:
215,359,180006,5,0,1:0:0:0:
