osu file format v14

[General]
AudioFilename: audio.mp3
AudioLeadIn: 0
PreviewTime: 53912
Countdown: 0
SampleSet: Soft
StackLeniency: 0.7
Mode: 0
LetterboxInBreaks: 0
WidescreenStoryboard: 1

[Editor]
Bookmarks: 180006
DistanceSpacing: 1.3
BeatDivisor: 2
GridSize: 4
TimelineZoom: 2.2

[Metadata]
Title:Cloud Control
TitleUnicode:Cloud Control
Artist:Dimrain47
ArtistUnicode:Dimrain47
Creator:PandaHero
Version:Hard
Source:
Tags:Local Hero Coffee Hispanic Mocha SWISS1 DT2 featured artist fa mappers mappers' guild mpg electronic instrumental newgrounds techno
BeatmapID:3792866
BeatmapSetID:1550498

[Difficulty]
HPDrainRate:5
CircleSize:3.8
OverallDifficulty:6
ApproachRate:7
SliderMultiplier:1.2
SliderTickRate:1

[Events]
//Background and Video events
0,0,"bg.jpg",0,0
//Break Periods
2,66206,71106
//Storyboard Layer 0 (Background)
//Storyboard Layer 1 (Fail)
//Storyboard Layer 2 (Pass)
//Storyboard Layer 3 (Foreground)
//Storyboard Layer 4 (Overlay)
//Storyboard Sound Samples

[TimingPoints]
6,375,4,2,0,50,1,0
6006,-133.333333333333,4,2,0,50,0,0
15756,-133.333333333333,4,2,0,55,0,0
16506,-133.333333333333,4,2,0,60,0,0
17256,-133.333333333333,4,2,0,65,0,0
18006,-100,4,2,1,65,0,0
28881,-100,4,2,0,65,0,0
29631,-100,4,2,1,35,0,0
30006,-100,4,2,1,60,0,0
42006,-83.3333333333333,4,2,1,70,0,1
54006,-133.333333333333,4,2,2,55,0,0
63006,-100,4,2,2,65,0,0
66006,-133.333333333333,4,2,1,50,0,0
78006,-133.333333333333,4,2,1,55,0,0
81006,-133.333333333333,4,2,1,60,0,0
83256,-66.6666666666667,4,2,1,65,0,0
84006,-133.333333333333,4,2,1,50,0,0
95818,-133.333333333333,4,2,2,50,0,0
96006,-100,4,2,2,60,0,0
108006,-100,4,2,1,60,0,0
132006,-100,4,2,1,65,0,0
137818,-100,4,2,2,65,0,0
138006,-100,4,2,1,65,0,0
143818,-100,4,2,2,65,0,0
144006,-83.3333333333333,4,1,2,65,0,1
159006,-100,4,2,1,55,0,0
168006,-133.333333333333,4,2,1,55,0,0

[Colours]
Combo1 : 120,96,90
Combo2 : 192,192,192
Combo3 : 128,128,128

[HitObjects]
32,188,6006,6,0,P|27:133|82:80,1,135.000005149841,4|0,1:2|0:0,0:0:0:0:
137,25,6756,2,0,L|242:39,1,90.0000034332276,0|0,3:0|0:0,0:0:0:0:
299,77,7318,1,2,0:0:0:0:
299,77,7412,1,0,0:0:0:0:
299,77,7506,2,0,L|282:157,1,67.5000025749207,2|0,0:0|0:0,0:0:0:0:
269,152,7881,2,0,L|291:211,1,45.0000017166138,0|0,0:0|0:0,0:0:0:0:
357,229,8256,2,0,L|347:285,1,45.0000017166138,0|0,3:0|0:0,0:0:0:0:
337,353,8631,1,0,3:0:0:0:
417,363,8818,1,0,0:0:0:0:
460,294,9006,6,0,P|483:246|468:167,1,135.000005149841,0|0,1:0|0:0,0:0:0:0:
403,125,9756,2,0,P|356:126|316:152,1,90.0000034332276,0|0,3:0|0:0,0:0:0:0:
240,145,10318,1,2,0:0:0:0:
240,145,10412,1,0,0:0:0:0:
240,145,10506,2,0,L|226:93,1,45.0000017166138,2|0,0:0|0:0,0:0:0:0:
154,68,10881,2,0,L|151:116,1,45.0000017166138,0|0,0:0|0:0,0:0:0:0:
91,164,11256,1,0,0:0:0:0:
26,133,11443,1,0,3:0:0:0:
24,121,11537,1,0,0:0:0:0:
22,110,11631,2,0,L|8:71,3,22.5000008583069,2|0|0|0,0:0|0:0|3:0|3:0,0:0:0:0:
34,49,12006,6,0,P|73:51|116:92,1,90.0000034332276,4|0,1:2|0:0,0:0:0:0:
141,157,12568,1,0,3:0:0:0:
141,157,12756,2,0,L|126:208,1,45.0000017166138,0|0,1:0|0:0,0:0:0:0:
53,232,13131,2,0,L|31:175,2,45.0000017166138,2|0|2,0:0|3:0|0:0,0:0:0:0:
90,304,13693,1,0,0:0:0:0:
90,304,13881,2,0,P|137:287|174:287,1,67.5000025749207,0|0,3:0|3:0,0:0:0:0:
171,283,14256,2,0,L|207:330,1,45.0000017166138,0|2,0:0|3:0,0:0:0:0:
273,349,14631,2,0,L|279:299,1,45.0000017166138,2|0,0:0|3:0,0:0:0:0:
287,223,15006,5,0,3:0:0:0:
256,192,15099,12,4,17631,0:0:0:0:
229,126,18006,5,4,0:3:0:0:
229,48,18193,1,2,0:3:0:0:
156,18,18381,2,0,L|66:37,1,90,4|0,1:3|3:0,0:0:0:0:
44,29,18756,2,0,L|37:89,1,60,4|2,0:3|0:3,0:0:0:0:
26,168,19131,2,0,L|104:162,1,60,4|2,1:3|0:3,0:0:0:0:
164,162,19506,5,4,0:3:0:0:
214,221,19693,1,2,0:3:0:0:
169,285,19881,2,0,L|123:234,1,60,4|2,1:3|0:3,0:0:0:0:
56,269,20256,2,0,L|44:352,1,60,4|2,0:3|0:3,0:0:0:0:
104,381,20631,2,0,L|179:355,1,60,4|2,1:3|1:3,0:0:0:0:
199,293,21006,6,0,P|270:304|305:302,1,90,4|0,0:3|3:0,0:0:0:0:
310,313,21381,2,0,L|296:237,1,60,4|2,1:3|0:3,0:0:0:0:
294,175,21756,2,0,L|219:186,2,60,4|2|4,0:3|0:3|1:3,0:0:0:0:
366,146,22318,1,2,0:3:0:0:
358,68,22506,6,0,L|334:9,1,60,4|2,0:3|0:3,0:0:0:0:
257,21,22881,2,0,L|183:30,1,60,4|2,1:3|0:3,0:0:0:0:
135,75,23256,1,4,0:3:0:0:
205,108,23443,2,0,L|248:112,2,30,0|4|4,0:0|1:3|1:3,0:0:0:0:
153,166,23818,1,4,0:3:0:0:
153,166,23912,1,4,0:3:0:0:
153,166,24006,6,0,L|167:262,1,90,4|0,1:2|0:0,0:0:0:0:
186,267,24381,2,0,L|165:335,1,60,4|2,1:3|0:3,0:0:0:0:
239,356,24756,2,0,L|264:271,1,60,4|2,0:3|0:3,0:0:0:0:
288,227,25131,1,4,1:3:0:0:
347,277,25318,1,2,0:3:0:0:
419,246,25506,6,0,L|405:155,1,90,4|0,0:3|3:0,0:0:0:0:
410,133,25881,2,0,L|331:111,1,60,4|2,1:3|0:3,0:0:0:0:
282,80,26256,2,0,L|198:91,2,60,4|2|4,0:3|0:3|1:3,0:0:0:0:
334,21,26818,1,2,1:3:0:0:
412,19,27006,6,0,L|466:100,1,90,4|0,0:3|0:0,0:0:0:0:
484,102,27381,2,0,L|468:174,1,60,4|2,1:3|0:3,0:0:0:0:
414,214,27756,2,0,L|373:138,1,60,4|2,0:3|0:3,0:0:0:0:
307,156,28131,2,0,L|237:177,1,60,4|2,1:3|0:3,0:0:0:0:
181,212,28506,5,4,0:3:0:0:
186,297,28693,1,2,0:3:0:0:
186,297,28787,1,0,0:0:0:0:
186,297,28881,1,0,3:0:0:0:
246,346,29068,1,2,3:0:0:0:
299,288,29256,2,0,L|332:279,3,30,0|0|2|0,3:0|3:0|3:0|3:0,0:0:0:0:
360,258,29631,2,0,L|383:266,6,15,0|0|0|0|0|0|0,1:0|1:0|1:0|1:0|1:0|1:0|1:0,1:1:0:0:
422,276,30006,6,0,P|442:234|451:182,1,90,4|0,1:2|0:0,0:0:0:0:
479,160,30381,2,0,P|469:123|435:64,1,90,4|0,1:3|3:0,0:0:0:0:
411,57,30756,2,0,P|374:63|339:75,1,60,4|0,0:3|0:0,0:0:0:0:
291,118,31131,1,2,1:2:0:0:
138,129,31506,5,2,1:0:0:0:
138,129,31693,2,0,L|155:50,1,60,2|0,1:0|0:0,0:0:0:0:
100,11,32068,1,2,1:0:0:0:
28,30,32256,2,0,L|21:127,1,90,2|0,1:0|0:0,0:0:0:0:
52,149,32631,2,0,L|76:231,1,60,2|0,1:0|0:0,0:0:0:0:
107,298,33006,6,0,P|141:257|191:242,1,90,4|0,0:3|0:0,0:0:0:0:
193,209,33381,2,0,P|240:214|273:254,1,90,4|0,1:3|0:0,0:0:0:0:
307,247,33756,2,0,P|319:294|317:314,1,60,4|0,0:3|0:0,0:0:0:0:
381,351,34131,1,2,1:2:0:0:
480,230,34506,6,0,P|470:185|470:135,1,90,2|0,1:0|0:0,0:0:0:0:
437,118,34881,2,0,P|414:135|374:151,1,60,0|2,1:0|0:0,0:0:0:0:
312,176,35256,1,2,1:0:0:0:
288,107,35443,1,2,1:0:0:0:
288,107,35537,1,2,3:0:0:0:
288,107,35631,2,0,L|279:71,3,30,0|2|2|2,1:0|3:0|1:0|3:0,0:0:0:0:
281,38,36006,6,0,P|328:33|381:45,1,90,4|0,1:2|0:0,0:0:0:0:
391,73,36381,2,0,P|445:85|476:82,1,60,4|0,1:3|3:0,0:0:0:0:
489,174,36756,2,0,P|452:163|385:169,1,90,4|0,0:3|0:0,0:0:0:0:
367,185,37131,1,2,1:2:0:0:
296,324,37506,5,2,1:0:0:0:
228,285,37693,2,0,P|184:307|163:369,1,90,2|0,1:0|0:0,0:0:0:0:
127,353,38068,1,2,0:1:0:0:
57,317,38256,2,0,P|42:284|42:250,1,60,2|0,1:0|0:0,0:0:0:0:
101,191,38631,2,0,P|116:224|116:258,1,60,2|0,1:0|3:0,0:0:0:0:
21,183,39006,6,0,P|9:143|8:79,1,90,2|0,1:2|3:0,0:0:0:0:
8,55,39381,2,0,P|61:43|94:58,1,90,2|0,1:2|3:0,0:0:0:0:
118,80,39756,2,0,P|168:81|194:67,1,60,2|0,1:2|3:0,0:0:0:0:
251,97,40131,1,2,1:2:0:0:
282,22,40318,5,2,0:0:0:0:
282,22,40412,1,0,0:0:0:0:
282,22,40506,1,2,1:0:0:0:
356,45,40693,1,2,1:0:0:0:
343,122,40881,2,0,P|337:167|334:194,1,60,2|2,1:2|1:0,0:0:0:0:
323,258,41256,1,2,1:0:0:0:
405,246,41443,1,2,1:2:0:0:
405,246,41537,1,0,1:0:0:0:
405,246,41631,2,0,L|454:230,3,30,2|0|0|0,1:0|1:0|1:0|1:0,0:0:0:0:
477,251,42006,6,0,P|490:317|483:373,1,107.999996704102,4|0,1:2|0:0,0:0:0:0:
459,368,42381,1,8,1:0:0:0:
367,351,42568,1,2,0:0:0:0:
314,273,42756,2,0,L|309:184,1,71.9999978027344,0|2,1:0|0:0,0:0:0:0:
223,165,43131,2,0,L|213:259,1,71.9999978027344,8|2,1:0|0:0,0:0:0:0:
112,295,43506,5,2,1:0:0:0:
56,219,43693,2,0,P|32:162|34:134,1,71.9999978027344,2|8,1:0|1:0,0:0:0:0:
54,62,44068,2,0,P|105:58|143:46,2,71.9999978027344,2|2|2,1:0|1:0|0:0,0:0:0:0:
127,142,44631,2,0,P|187:129|218:130,1,71.9999978027344,10|2,1:0|0:0,0:0:0:0:
224,119,44912,1,2,3:2:0:0:
252,118,45006,5,0,1:0:0:0:
316,185,45193,1,0,0:0:0:0:
368,107,45381,2,0,P|372:41|383:18,1,71.9999978027344,8|2,1:0|0:0,0:0:0:0:
467,45,45756,2,0,P|463:111|456:164,1,107.999996704102,0|0,1:0|0:0,0:0:0:0:
438,174,46131,1,8,1:0:0:0:
471,261,46318,1,2,0:0:0:0:
380,343,46506,6,0,P|319:323|284:322,1,71.9999978027344,2|2,1:0|1:0,0:0:0:0:
236,266,46881,2,0,P|262:217|282:190,1,71.9999978027344,8|2,1:0|1:0,0:0:0:0:
279,109,47256,1,2,1:0:0:0:
193,114,47443,1,2,1:0:0:0:
193,114,47537,1,2,1:0:0:0:
193,114,47631,2,0,L|198:176,3,35.9999989013672,10|0|2|0,1:0|1:0|1:0|1:0,0:0:0:0:
170,71,48006,6,0,P|120:51|35:66,1,107.999996704102,4|0,1:2|0:0,0:0:0:0:
41,66,48381,2,0,L|23:144,1,71.9999978027344,8|2,1:0|0:0,0:0:0:0:
91,202,48756,2,0,L|63:284,1,71.9999978027344,0|2,1:0|0:0,0:0:0:0:
90,361,49131,1,8,1:0:0:0:
158,297,49318,1,2,0:0:0:0:
266,260,49506,5,2,1:0:0:0:
266,260,49693,2,0,P|312:274|338:293,1,71.9999978027344,2|8,1:0|1:0,0:0:0:0:
426,313,50068,1,2,1:0:0:0:
426,313,50256,2,0,P|414:225|423:181,1,107.999996704102,2|0,1:0|0:0,0:0:0:0:
443,197,50631,2,0,P|447:142|442:108,1,71.9999978027344,10|2,1:0|0:0,0:0:0:0:
359,42,51006,6,0,P|308:52|284:65,2,71.9999978027344,0|0|8,1:0|0:0|1:0,0:0:0:0:
349,141,51568,1,2,0:0:0:0:
349,141,51662,1,0,0:0:0:0:
349,141,51756,2,0,P|310:154|260:161,1,71.9999978027344,0|2,1:0|0:0,0:0:0:0:
193,195,52131,2,0,P|214:248|220:277,1,71.9999978027344,8|2,1:0|0:0,0:0:0:0:
126,367,52506,5,2,1:0:0:0:
43,323,52693,1,2,1:0:0:0:
41,233,52881,2,0,L|35:144,1,71.9999978027344,8|2,1:0|1:0,0:0:0:0:
78,77,53256,1,2,1:0:0:0:
168,100,53443,1,2,1:0:0:0:
168,100,53537,1,0,1:0:0:0:
168,100,53631,2,0,L|162:153,3,35.9999989013672,8|0|2|0,1:0|1:0|1:0|1:0,0:0:0:0:
187,63,54006,6,0,L|330:77,1,135.000005149841,0|0,1:0|3:0,0:0:0:0:
388,39,54756,1,2,1:3:0:0:
481,187,55318,5,0,1:0:0:0:
434,254,55506,2,0,L|371:239,2,45.0000017166138,0|2|0,1:0|0:0|1:0,0:0:0:0:
302,171,56256,2,0,L|203:188,1,90.0000034332277,0|0,1:0|0:0,0:0:0:0:
120,305,57006,2,0,L|227:323,1,90.0000034332277,4|2,1:2|0:0,0:0:0:0:
45,221,57756,2,0,L|20:370,1,135.000005149841,2|0,1:3|1:0,0:0:0:0:
107,353,58506,5,0,1:0:0:0:
226,240,58881,1,0,1:0:0:0:
212,81,59256,1,0,1:0:0:0:
66,40,59631,1,0,1:0:0:0:
60,122,59818,1,4,0:3:0:0:
60,122,59912,1,4,0:3:0:0:
60,122,60006,6,0,L|77:183,1,45.0000017166138,0|2,0:0|0:0,0:0:0:0:
125,223,60381,1,0,3:0:0:0:
125,223,60756,2,0,P|164:193|219:178,1,90.0000034332277,2|0,1:3|0:0,0:0:0:0:
258,241,61318,1,0,1:0:0:0:
258,241,61506,2,0,L|244:301,1,45.0000017166138,0|2,1:0|0:0,0:0:0:0:
312,336,61881,2,0,L|326:276,1,45.0000017166138,0|0,3:0|0:0,0:0:0:0:
369,228,62256,2,0,P|426:233|469:243,1,90.0000034332277,0|0,1:0|0:0,0:0:0:0:
504,179,62818,1,0,1:0:0:0:
446,117,63006,6,0,P|403:113|336:130,1,90,4|0,1:2|0:0,0:0:0:0:
327,146,63381,2,0,P|299:158|257:159,1,60,12|0,0:0|0:0,0:0:0:0:
177,69,63756,2,0,P|219:51|268:37,1,90,4|0,0:2|0:0,0:0:0:0:
287,9,64131,2,0,L|268:77,1,60,12|0,0:2|0:0,0:0:0:0:
185,152,64506,5,4,1:0:0:0:
185,152,64881,1,2,0:0:0:0:
241,206,65068,1,2,3:0:0:0:
215,280,65256,2,0,L|201:378,2,90,2|2|2,0:3|3:0|3:0,0:0:0:0:
267,217,66006,5,0,3:0:0:0:
54,112,72006,6,0,P|92:67|167:38,1,135.000005149841,4|0,1:2|0:0,0:0:0:0:
208,103,72756,2,0,P|234:120|302:139,1,90.0000034332277,4|0,0:0|0:0,0:0:0:0:
364,110,73318,1,0,3:0:0:0:
364,110,73506,2,0,L|356:54,1,45.0000017166138,0|2,3:0|0:0,0:0:0:0:
428,28,73881,1,0,0:0:0:0:
467,232,74256,2,0,L|452:286,1,45.0000017166138,0|2,1:0|0:0,0:0:0:0:
389,317,74631,2,0,L|326:300,1,45.0000017166138,0|2,0:0|0:0,0:0:0:0:
295,247,75006,6,0,P|235:263|126:327,1,180.000006866455,4|4,1:2|0:0,0:0:0:0:
19,133,76318,1,0,3:0:0:0:
19,133,76412,1,0,3:0:0:0:
19,133,76506,2,0,L|16:68,1,45.0000017166138,0|2,3:0|0:0,0:0:0:0:
65,29,76881,2,0,L|115:39,1,45.0000017166138,0|0,1:0|0:0,0:0:0:0:
169,93,77256,1,2,0:0:0:0:
239,53,77443,1,0,3:0:0:0:
247,46,77537,1,0,3:0:0:0:
256,40,77631,2,0,L|255:6,3,22.5000008583069,0|0|2|0,3:0|0:0|0:0|0:0,0:0:0:0:
279,13,78006,6,0,P|327:34|405:155,1,180.000006866455,4|4,1:2|0:0,0:0:0:0:
302,351,79319,1,0,3:0:0:0:
302,351,79412,1,0,3:0:0:0:
302,351,79506,2,0,P|291:308|299:260,1,90.0000034332277,0|0,3:0|0:0,0:0:0:0:
365,219,80068,1,0,0:0:0:0:
365,219,80256,2,0,P|403:230|417:237,1,45.0000017166138,0|2,3:0|0:0,0:0:0:0:
465,168,80631,2,0,P|427:157|413:150,1,45.0000017166138,0|2,1:0|0:0,0:0:0:0:
379,89,81006,6,0,P|337:70|286:65,1,90.0000034332277,0|0,1:0|3:0,3:3:0:0:
216,55,81568,1,0,3:0:0:0:
216,55,81756,2,0,L|198:103,1,45.0000017166138,0|0,1:0|3:0,3:3:0:0:
137,144,82131,2,0,L|145:208,1,45.0000017166138,0|0,3:0|3:0,3:3:0:0:
206,240,82506,2,0,L|191:290,1,45.0000017166138,0|0,3:0|3:0,3:3:0:0:
134,342,82881,5,0,1:0:0:0:
129,331,82974,1,0,1:0:0:0:
122,321,83068,1,0,1:0:0:0:
115,311,83162,1,0,1:0:0:0:
108,300,83256,2,0,B|68:224|68:224|6:200,2,120.000004577637,4|4|4,1:2|1:2|1:2,0:0:0:0:
173,258,84006,5,4,1:0:0:0:
173,258,85131,2,0,L|179:196,1,45.0000017166138,2|0,0:0|0:0,0:0:0:0:
251,201,85506,2,0,P|294:217|328:266,1,90.0000034332277,0|0,1:0|3:0,0:0:0:0:
380,305,86068,1,2,0:0:0:0:
380,305,86256,2,0,L|441:318,1,45.0000017166138,0|2,0:0|0:0,0:0:0:0:
485,268,86631,2,0,L|472:213,1,45.0000017166138,0|0,1:0|3:0,0:0:0:0:
448,146,87006,6,0,P|412:160|343:177,3,90.0000034332277,0|2|0|0,1:0|0:0|1:0|3:0,0:0:0:0:
254,35,88506,2,0,P|297:46|339:61,1,90.0000034332277,0|2,1:0|0:0,0:0:0:0:
225,169,89256,2,0,P|182:184|139:195,1,90.0000034332277,0|2,1:0|0:0,0:0:0:0:
26,88,90006,6,0,L|44:24,2,45.0000017166138,0|0|0,1:0|3:0|0:0,0:0:0:0:
5,168,90568,1,2,0:0:0:0:
5,168,90756,2,0,L|27:253,1,67.5000025749207,0|0,1:0|0:0,0:0:0:0:
31,248,91131,2,0,L|90:224,1,45.0000017166138,2|0,0:0|0:0,0:0:0:0:
154,261,91506,6,0,P|176:225|234:215,1,90.0000034332277,0|0,1:0|3:0,0:0:0:0:
297,239,92068,1,2,0:0:0:0:
297,239,92256,2,0,L|288:303,1,45.0000017166138,0|0,1:0|0:0,0:0:0:0:
292,357,92631,1,0,3:0:0:0:
363,329,92818,1,2,0:0:0:0:
432,298,93006,6,0,L|413:204,1,90.0000034332277,0|2,1:0|0:0,0:0:0:0:
351,162,93568,1,0,3:0:0:0:
351,162,93756,2,0,L|348:100,1,45.0000017166138,0|0,3:0|0:0,0:0:0:0:
379,45,94131,2,0,L|444:54,1,45.0000017166138,2|0,0:0|3:0,0:0:0:0:
495,86,94506,2,0,L|480:185,2,90.0000034332277,0|2|0,1:0|0:0|3:0,0:0:0:0:
318,30,95631,1,4,0:0:0:0:
253,71,95818,1,2,0:3:0:0:
306,125,96006,6,0,L|289:186,1,60,4|2,0:0|0:0,0:0:0:0:
221,217,96381,2,0,L|204:156,1,60,8|4,1:2|1:2,0:0:0:0:
166,91,96756,2,0,P|100:122|67:142,1,90,0|0,1:0|0:0,0:0:0:0:
61,127,97131,1,8,1:2:0:0:
13,191,97318,1,2,0:0:0:0:
47,263,97506,6,0,L|26:326,2,60,0|0|8,1:0|0:0|1:2,0:0:0:0:
112,220,98068,1,2,0:0:0:0:
112,220,98256,2,0,L|183:235,1,60,0|2,1:0|0:0,0:0:0:0:
211,297,98631,1,8,1:2:0:0:
283,257,98818,1,0,1:0:0:0:
283,257,98912,1,8,1:2:0:0:
283,257,99006,6,0,L|303:335,1,60,0|2,1:0|0:0,0:0:0:0:
373,346,99381,2,0,L|378:283,1,60,8|2,1:2|3:2,0:0:0:0:
448,246,99756,2,0,L|465:320,2,60,0|2|8,1:0|0:0|1:2,0:0:0:0:
410,174,100318,1,2,0:0:0:0:
410,174,100506,6,0,P|379:114|378:72,1,90,4|0,1:2|0:0,0:0:0:0:
372,68,100881,2,0,L|468:78,1,90,8|0,1:2|0:0,0:0:0:0:
478,60,101256,2,0,L|464:127,1,60,4|2,1:2|0:0,0:0:0:0:
408,175,101631,1,8,1:2:0:0:
332,201,101818,1,2,3:0:0:0:
332,201,101912,1,0,3:0:0:0:
332,201,102006,6,0,L|321:133,1,60,4|2,1:2|0:0,0:0:0:0:
289,72,102381,2,0,L|209:83,1,60,8|2,1:2|1:2,0:0:0:0:
171,129,102756,2,0,P|107:130|78:111,1,90,0|0,1:0|0:0,0:0:0:0:
66,103,103131,2,0,L|68:40,1,60,8|2,1:2|0:0,0:0:0:0:
18,181,103506,6,0,P|25:240|26:283,1,90,0|0,1:0|0:0,0:0:0:0:
39,290,103881,1,8,1:2:0:0:
91,343,104068,1,2,0:0:0:0:
140,280,104256,2,0,P|174:265|207:267,1,60,0|2,1:0|0:0,0:0:0:0:
274,266,104631,1,8,1:2:0:0:
326,334,104818,1,0,3:0:0:0:
326,334,104912,1,0,3:0:0:0:
326,334,105006,6,0,P|290:351|263:356,1,60,0|0,1:0|0:0,0:0:0:0:
245,282,105381,2,0,P|241:240|240:215,1,60,8|2,1:2|0:0,0:0:0:0:
288,157,105756,2,0,P|332:162|391:181,1,90,0|0,1:0|0:0,0:0:0:0:
392,191,106131,2,0,P|415:202|473:210,1,60,8|2,1:2|0:0,0:0:0:0:
499,153,106506,6,0,L|482:89,1,60,4|0,1:2|0:0,0:0:0:0:
438,31,106881,1,0,1:0:0:0:
424,37,106974,1,0,1:0:0:0:
409,40,107068,1,0,1:0:0:0:
394,44,107162,1,0,1:0:0:0:
379,47,107256,2,0,L|288:46,2,80,4|4|4,1:2|1:2|1:2,0:0:0:0:
391,121,108006,6,0,L|365:201,1,60,4|2,1:2|0:3,0:0:0:0:
309,228,108381,2,0,P|323:278|335:325,1,90,4|2,1:3|0:3,0:0:0:0:
331,338,108756,2,0,L|257:327,1,60,4|2,0:3|0:3,0:0:0:0:
193,346,109131,1,4,1:3:0:0:
37,235,109506,5,4,0:3:0:0:
105,194,109693,1,2,0:3:0:0:
44,144,109881,2,0,L|34:41,1,90,4|2,1:3|3:0,0:0:0:0:
33,30,110256,2,0,L|108:49,1,60,4|2,1:3|0:3,0:0:0:0:
154,97,110631,1,4,1:3:0:0:
214,45,110818,1,2,1:3:0:0:
154,97,111006,6,0,L|181:155,1,60,4|2,0:3|0:3,0:0:0:0:
244,198,111381,2,0,L|266:135,1,60,4|2,1:3|3:3,0:0:0:0:
295,69,111756,2,0,L|381:92,1,90,4|2,0:3|0:3,0:0:0:0:
402,79,112131,1,4,1:3:0:0:
468,125,112318,1,2,0:3:0:0:
438,198,112506,6,0,L|419:264,1,60,4|2,0:3|3:0,0:0:0:0:
343,325,112881,2,0,L|324:242,1,60,4|2,1:3|0:3,0:0:0:0:
257,197,113256,2,0,L|244:270,1,60,4|2,0:3|0:3,0:0:0:0:
189,339,113631,1,4,1:3:0:0:
122,273,113818,1,4,0:3:0:0:
122,273,113912,1,0,3:0:0:0:
122,273,114006,6,0,L|139:198,1,60,4|2,1:2|3:3,0:0:0:0:
132,137,114381,2,0,L|35:160,1,90,4|2,1:3|0:3,0:0:0:0:
31,178,114756,2,0,L|14:106,1,60,4|2,0:3|0:3,0:0:0:0:
39,43,115131,1,4,1:3:0:0:
263,121,115506,5,4,0:3:0:0:
207,177,115693,1,2,0:3:0:0:
268,224,115881,2,0,L|253:319,1,90,4|0,1:3|3:0,0:0:0:0:
247,336,116256,2,0,L|325:315,1,60,4|2,0:3|0:3,0:0:0:0:
365,268,116631,1,4,1:3:0:0:
442,280,116818,1,2,1:3:0:0:
420,202,117006,6,0,L|434:136,1,60,4|2,0:3|0:3,0:0:0:0:
388,81,117381,2,0,L|316:104,1,60,4|0,1:3|0:0,0:0:0:0:
271,150,117756,2,0,P|208:146|187:111,1,90,4|0,0:3|0:0,0:0:0:0:
190,104,118131,1,4,1:3:0:0:
207,27,118318,1,2,0:3:0:0:
125,57,118506,6,0,L|41:75,1,60,4|2,1:3|0:3,0:0:0:0:
3,158,118881,2,0,L|88:169,1,60,4|2,1:3|0:3,0:0:0:0:
149,223,119256,1,4,0:3:0:0:
59,255,119443,1,4,0:3:0:0:
134,323,119631,2,0,L|130:344,6,15,0|0|0|0|0|0|0,3:0|3:0|3:0|3:0|3:0|3:0|3:0,3:3:0:0:
154,282,120006,6,2,P|214:277|253:331,1,120,4|4,1:2|1:3,0:0:0:0:
316,360,120568,1,4,3:2:0:0:
316,360,120756,2,0,L|343:299,1,60,4|2,0:3|0:3,0:0:0:0:
389,246,121131,2,0,L|469:269,1,60,4|0,1:2|0:0,0:0:0:0:
490,197,121506,6,0,L|477:58,1,120,4|4,1:2|1:3,0:0:0:0:
410,34,122068,1,4,3:2:0:0:
410,34,122256,2,0,L|330:63,1,60,2|2,1:2|0:3,0:0:0:0:
282,91,122631,2,0,L|303:156,1,60,4|2,1:3|0:3,0:0:0:0:
346,211,123006,6,0,L|334:355,2,120,4|4|4,1:2|1:3|1:2,0:0:0:0:
276,183,123943,1,2,0:3:0:0:
276,183,124131,2,0,L|208:203,1,60,4|2,1:2|0:3,0:0:0:0:
153,244,124506,2,0,P|85:235|55:204,1,90,4|0,1:2|3:0,0:0:0:0:
46,218,124881,2,0,L|22:286,1,60,4|2,1:3|0:3,0:0:0:0:
36,353,125256,2,0,L|114:344,1,60,4|2,1:2|0:3,0:0:0:0:
172,330,125631,1,4,1:2:0:0:
135,259,125818,1,0,1:2:0:0:
226,194,126006,6,2,L|216:275,2,60,4|0|4,1:0|0:0|1:3,0:0:0:0:
210,117,126568,1,2,0:3:0:0:
210,117,126756,2,0,P|147:113|121:132,1,90,4|0,0:3|0:0,0:0:0:0:
104,135,127131,2,2,L|75:23,1,90,4|2,1:2|0:3,0:0:0:0:
64,30,127506,2,0,L|42:107,1,60,4|2,1:2|0:3,0:0:0:0:
18,160,127881,1,4,1:3:0:0:
77,212,128068,1,2,3:0:0:0:
77,288,128256,2,0,L|12:300,1,60,4|2,1:3|0:3,0:0:0:0:
119,358,128631,1,4,1:2:0:0:
182,309,128818,1,2,1:3:0:0:
225,247,129006,6,0,P|220:182|221:128,1,120,4|4,1:2|1:3,0:0:0:0:
292,93,129568,1,2,3:0:0:0:
292,93,129756,2,0,L|368:111,1,60,4|2,1:2|0:3,0:0:0:0:
431,100,130131,2,0,L|469:148,1,60,4|2,1:2|0:3,0:0:0:0:
486,224,130506,6,0,P|455:284|446:331,1,90,4|0,1:2|0:3,0:0:0:0:
449,329,130881,2,0,P|383:308|350:309,1,90,4|0,1:3|3:0,0:0:0:0:
341,296,131256,1,4,1:2:0:0:
283,346,131443,1,2,0:3:0:0:
222,297,131631,1,4,1:2:0:0:
218,282,131724,1,8,1:2:0:0:
214,267,131818,1,8,1:2:0:0:
210,252,131912,1,8,1:2:0:0:
206,237,132006,6,0,P|198:175|198:141,1,90,4|0,1:2|0:0,0:0:0:0:
220,155,132381,2,0,L|283:167,1,60,8|2,1:0|0:0,0:0:0:0:
343,122,132756,1,0,1:0:0:0:
303,53,132943,1,0,1:0:0:0:
225,50,133131,2,0,L|148:68,1,60,8|2,1:0|1:2,0:0:0:0:
85,48,133506,6,0,L|51:178,1,120,0|8,1:0|1:0,0:0:0:0:
15,235,134068,1,2,1:2:0:0:
15,235,134256,2,0,L|24:305,1,60,2|2,1:0|1:0,0:0:0:0:
92,357,134631,2,0,L|104:291,1,60,8|2,1:0|1:0,0:0:0:0:
135,220,135006,6,0,P|203:231|255:276,2,120,0|8|0,1:0|1:0|1:0,0:0:0:0:
81,162,135943,1,2,0:0:0:0:
81,162,136131,2,0,L|108:93,1,60,8|2,1:0|1:2,0:0:0:0:
155,46,136506,2,0,P|212:55|252:96,1,90,2|0,1:0|1:0,0:0:0:0:
239,97,136881,2,0,L|311:113,1,60,10|2,1:0|0:0,0:0:0:0:
368,153,137256,2,0,P|332:185|310:242,1,90,2|0,1:0|3:0,0:0:0:0:
295,237,137631,1,10,1:0:0:0:
316,315,137818,1,2,1:3:0:0:
394,343,138006,6,0,L|408:273,1,60,4|2,1:2|0:0,0:0:0:0:
475,241,138381,2,0,L|465:161,1,60,8|4,1:0|1:2,0:0:0:0:
410,128,138756,2,0,P|355:144|319:180,1,90,0|0,1:0|0:0,0:0:0:0:
310,177,139131,2,0,L|271:113,1,60,10|2,1:0|0:0,0:0:0:0:
250,49,139506,6,0,P|301:26|383:29,1,120,2|10,1:0|1:0,0:0:0:0:
438,44,140068,1,2,1:0:0:0:
438,44,140256,2,0,L|456:113,1,60,2|2,1:0|0:0,0:0:0:0:
436,180,140631,2,0,L|365:163,1,60,10|2,1:0|1:0,0:0:0:0:
296,151,141006,6,0,P|266:191|209:218,1,90,2|0,1:0|1:0,0:0:0:0:
213,226,141381,2,0,L|128:213,1,60,8|0,1:0|1:0,0:0:0:0:
82,235,141756,2,0,P|40:190|35:140,1,90,2|0,1:0|3:0,0:0:0:0:
24,141,142131,2,0,L|93:124,1,60,10|2,1:0|0:0,0:0:0:0:
106,51,142506,6,0,L|28:35,1,60,2|0,1:0|0:0,0:0:0:0:
188,78,142881,2,0,L|197:10,1,60,10|0,1:0|0:0,0:0:0:0:
159,156,143256,2,0,L|169:229,1,60,2|0,1:0|0:0,0:0:0:0:
194,290,143631,1,10,1:0:0:0:
248,234,143818,1,2,1:3:0:0:
315,320,144006,6,0,L|398:315,1,71.9999978027344,4|2,0:2|0:2,0:0:0:0:
457,237,144381,2,0,L|355:227,1,71.9999978027344,8|2,0:0|0:2,0:0:0:0:
313,175,144756,1,0,0:0:0:0:
393,118,144943,1,2,0:2:0:0:
393,118,145037,1,0,0:0:0:0:
393,118,145131,2,0,L|392:20,1,71.9999978027344,10|2,0:0|0:2,0:0:0:0:
258,20,145506,6,0,P|215:64|202:124,1,107.999996704102,2|0,0:0|0:0,0:0:0:0:
219,130,145881,2,0,L|176:204,1,71.9999978027344,10|2,0:0|0:0,0:0:0:0:
107,272,146256,2,0,L|75:185,1,71.9999978027344,0|2,0:0|0:2,3:3:0:0:
38,119,146631,1,10,0:0:0:0:
118,49,146818,1,2,0:2:0:0:
219,130,147006,6,0,P|277:120|332:119,1,107.999996704102,2|0,0:0|2:0,0:0:0:0:
349,102,147381,2,0,P|408:126|439:128,1,71.9999978027344,8|2,0:0|0:2,0:0:0:0:
479,206,147756,2,0,P|462:248|452:287,1,71.9999978027344,0|2,0:0|0:2,0:0:0:0:
383,361,148131,2,0,P|368:304|345:251,1,107.999996704102,10|0,0:0|0:0,0:0:0:0:
331,236,148506,6,0,L|277:300,1,71.9999978027344,2|2,0:0|0:2,0:0:0:0:
185,310,148881,2,0,L|215:226,1,71.9999978027344,10|0,0:0|0:0,0:0:0:0:
149,159,149256,1,2,0:0:0:0:
83,238,149443,1,2,0:2:0:0:
32,151,149631,1,10,0:0:0:0:
91,68,149818,1,2,1:3:0:0:
91,68,149912,1,0,1:0:0:0:
91,68,150006,6,0,L|123:142,1,71.9999978027344,4|2,0:2|0:2,0:0:0:0:
192,197,150381,2,0,L|206:114,1,71.9999978027344,8|2,0:0|0:2,0:0:0:0:
243,44,150756,2,0,P|302:51|368:62,1,107.999996704102,0|0,0:0|0:0,0:0:0:0:
370,37,151131,2,0,L|403:115,1,71.9999978027344,10|2,0:0|0:2,0:0:0:0:
477,213,151506,6,0,P|414:209|346:260,1,143.999995605469,2|10,0:0|0:0,0:0:0:0:
324,345,152068,1,2,0:0:0:0:
245,280,152256,2,0,P|229:217|227:189,1,71.9999978027344,2|2,0:0|0:2,0:0:0:0:
229,109,152631,1,10,0:0:0:0:
317,128,152818,1,2,0:0:0:0:
240,26,153006,6,0,P|177:38|125:77,1,107.999996704102,2|0,0:0|2:0,0:0:0:0:
124,85,153381,2,0,P|54:88|33:82,1,71.9999978027344,10|0,0:0|0:0,0:0:0:0:
0,183,153756,2,0,P|70:180|91:186,1,71.9999978027344,2|2,0:0|0:2,0:0:0:0:
146,263,154131,2,0,P|76:266|55:260,1,71.9999978027344,10|2,0:0|0:2,0:0:0:0:
143,360,154506,6,0,P|207:345|268:347,1,107.999996704102,2|0,0:0|0:0,0:0:0:0:
276,351,154881,2,0,L|255:264,1,71.9999978027344,10|2,0:0|0:2,0:0:0:0:
243,181,155256,1,2,0:0:0:0:
341,194,155443,1,2,0:2:0:0:
358,292,155631,1,10,0:0:0:0:
445,207,155818,5,2,1:3:0:0:
445,207,155912,1,0,1:0:0:0:
445,207,156006,2,0,P|428:133|428:98,1,107.999996704102,4|0,0:2|2:0,0:0:0:0:
427,72,156381,2,0,P|469:74|498:88,1,71.9999978027344,8|0,0:0|0:0,0:0:0:0:
359,20,156756,2,0,P|337:48|305:72,1,71.9999978027344,0|2,0:0|0:2,0:0:0:0:
222,121,157131,2,0,L|258:250,1,107.999996704102,10|0,0:0|0:0,0:0:0:0:
277,235,157506,5,2,0:0:0:0:
269,311,157693,1,0,0:0:0:0:
337,355,157881,1,10,0:0:0:0:
368,283,158068,1,2,0:0:0:0:
368,283,158162,1,0,0:0:0:0:
368,283,158256,2,0,L|463:289,1,71.9999978027344,2|2,0:0|0:0,0:0:0:0:
363,193,158631,2,0,L|263:206,1,71.9999978027344,8|2,0:0|0:0,0:0:0:0:
199,227,159006,6,0,L|219:108,1,120,2|0,1:0|1:0,0:0:0:0:
224,31,159568,1,0,3:0:0:0:
224,31,159756,2,0,L|93:54,1,120,2|0,0:0|1:0,0:0:0:0:
29,68,160318,1,2,0:0:0:0:
29,68,160506,6,0,L|12:204,2,120,0|2|0,1:0|0:0|3:0,0:0:0:0:
135,185,161631,1,2,0:0:0:0:
75,233,161818,1,2,0:0:0:0:
124,300,162006,6,0,L|104:364,1,60,4|0,0:0|0:0,0:0:0:0:
184,366,162381,2,0,L|204:299,1,60,0|2,3:0|0:0,0:0:0:0:
235,237,162756,2,0,P|293:235|354:259,1,120,0|2,1:0|0:0,0:0:0:0:
424,298,163318,1,0,0:0:0:0:
424,298,163506,6,0,L|440:174,1,120,0|0,1:0|1:0,0:0:0:0:
493,125,164068,1,2,0:0:0:0:
493,125,164256,2,0,L|485:49,1,60,0|0,1:0|0:0,0:0:0:0:
425,16,164631,1,2,0:0:0:0:
347,24,164818,1,0,3:0:0:0:
272,100,165006,6,0,L|371:110,1,90,0|0,1:0|0:0,0:0:0:0:
378,125,165381,2,0,L|393:197,1,60,2|0,0:0|0:0,0:0:0:0:
414,258,165756,2,0,L|309:268,1,90,0|0,3:0|0:0,0:0:0:0:
300,265,166131,2,0,L|274:340,1,60,0|0,1:0|0:0,0:0:0:0:
213,360,166506,6,0,P|174:314|106:293,1,120,2|0,0:0|3:0,0:0:0:0:
42,301,167068,1,0,0:0:0:0:
42,301,167256,2,0,L|29:382,1,60,2|0,0:0|0:0,0:0:0:0:
20,217,167631,2,0,L|32:146,1,60,0|0,3:0|0:0,0:0:0:0:
106,157,168006,6,2,P|164:141|190:57,1,135.000005149841,4|0,1:2|0:0,0:0:0:0:
146,11,168756,1,0,0:0:0:0:
312,111,169131,1,2,0:0:0:0:
312,111,169506,2,0,P|285:173|285:213,1,90.0000034332277,0|2,1:0|0:0,0:0:0:0:
303,268,170068,1,0,3:0:0:0:
307,272,170256,2,0,P|360:256|401:256,1,90.0000034332277,0|0,1:0|3:0,0:0:0:0:
479,113,171006,6,0,L|463:17,2,90.0000034332277,0|0|0,1:0|0:0|3:0,0:0:0:0:
377,216,172131,1,0,0:0:0:0:
377,216,172506,2,0,L|337:118,1,90.0000034332277,0|2,1:0|0:0,0:0:0:0:
251,36,173256,2,0,L|232:139,1,90.0000034332277,0|2,3:0|0:0,0:0:0:0:
118,250,174006,6,2,P|177:255|240:360,1,180.000006866455,0|0,1:0|0:0,0:0:0:0:
288,217,175131,1,2,0:0:0:0:
164,152,175506,1,0,1:0:0:0:
283,88,175881,2,0,L|279:28,1,45.0000017166138,2|0,0:0|3:0,0:0:0:0:
206,4,176256,2,0,P|146:18|112:44,1,90.0000034332277,2|0,0:0|1:0,0:0:0:0:
52,69,176818,1,0,3:0:0:0:
52,69,177006,6,0,L|19:162,1,90.0000034332277,0|0,1:0|0:0,0:0:0:0:
89,287,177756,2,0,L|115:189,1,90.0000034332277,2|0,0:0|1:0,0:0:0:0:
227,124,178506,5,2,0:0:0:0:
352,175,178881,1,0,3:0:0:0:
363,308,179256,1,2,0:0:0:0:
245,359,179631,1,0,3:0:0:0:
245,239,180006,5,0,1:0:0:0:
