osu file format v14

[General]
AudioFilename: audio.mp3
AudioLeadIn: 0
PreviewTime: 133345
Countdown: 0
SampleSet: Soft
StackLeniency: 0.7
Mode: 0
LetterboxInBreaks: 1
WidescreenStoryboard: 1

[Editor]
Bookmarks: 5937,20752,26678,50382,62234,85937,88900,91863,109641,121493,122974,133345,162974,165937,171863,183715,184826,206678,207419,230382
DistanceSpacing: 1
BeatDivisor: 2
GridSize: 16
TimelineZoom: 1.650002

[Metadata]
Title:At the Speed of Light
TitleUnicode:At the Speed of Light
Artist:Dimrain47
ArtistUnicode:Dimrain47
Creator:TP618
Version:Normal
Source:
Tags:featured artist fa Newgrounds Dimrain47 Geometry Dash Electronic Bloodbath Cataclysm Aftermath Newgrounds Audio Portal Instrumental Apis035 Booty Brady Technica My Angel Mugi technica Toadnica PAN
BeatmapID:1485112
BeatmapSetID:555751

[Difficulty]
HPDrainRate:3
CircleSize:3
OverallDifficulty:4
ApproachRate:5
SliderMultiplier:1.3
SliderTickRate:2

[Events]
//Background and Video events
0,0,"848756.jpg",0,0
//Break Periods
2,38729,49182
2,74286,81774
2,109841,120293
2,183915,194367
//Storyboard Layer 0 (Background)
//Storyboard Layer 1 (Fail)
//Storyboard Layer 2 (Pass)
//Storyboard Layer 3 (Foreground)
//Storyboard Layer 4 (Overlay)
//Storyboard Sound Samples

[TimingPoints]
12,370.37037037037,4,2,1,25,1,0
4456,-100,4,2,1,5,0,0
5197,-100,4,2,1,25,0,0
5937,-100,4,2,1,60,0,0
8900,-100,4,2,1,60,0,0
14826,-100,4,2,1,65,0,0
35567,-100,4,2,1,65,0,0
37234,-100,4,2,1,60,0,0
37419,-100,4,2,1,55,0,0
37604,-100,4,2,1,50,0,0
37789,-100,4,2,1,45,0,0
37974,-100,4,2,1,50,0,0
38160,-100,4,2,1,55,0,0
38345,-100,4,2,1,60,0,0
38530,-100,4,2,1,35,0,0
50382,-125,4,2,1,55,0,0
62234,-125,4,2,1,65,0,0
74086,-125,4,2,1,50,0,0
85937,-125,4,2,1,65,0,0
103715,-125,4,2,1,60,0,0
109641,-125,4,2,1,40,0,0
130382,-125,4,2,1,30,0,0
131863,-125,4,2,1,25,0,0
132049,-125,4,2,1,30,0,0
132234,-125,4,2,1,35,0,0
132419,-125,4,2,1,40,0,0
132604,-125,4,2,1,45,0,0
132789,-125,4,2,1,50,0,0
132974,-125,4,2,1,55,0,0
133160,-125,4,2,1,60,0,0
133345,-111.111111111111,4,2,1,65,0,1
159271,-111.111111111111,4,2,1,60,0,1
159641,-111.111111111111,4,2,1,40,0,1
160011,-100,4,2,1,65,0,0
182419,-100,4,2,1,60,0,0
182604,-100,4,2,1,55,0,0
182789,-100,4,2,1,50,0,0
182974,-100,4,2,1,45,0,0
183160,-100,4,2,1,50,0,0
183345,-100,4,2,1,55,0,0
183530,-100,4,2,1,60,0,0
183715,-100,4,2,1,35,0,0
195567,-100,4,2,1,55,0,0
206678,-100,4,2,1,30,0,0
206863,-100,4,2,1,35,0,0
207049,-100,4,2,1,40,0,0
207234,-100,4,2,1,45,0,0
207419,-100,4,2,1,65,0,1
231123,-100,4,2,1,50,0,0
231863,-100,4,2,1,45,0,0
232604,-100,4,2,1,40,0,0
233345,-100,4,2,1,35,0,0
234086,-100,4,2,1,30,0,0

[Colours]
Combo1 : 213,213,0
Combo2 : 0,0,255
Combo3 : 191,96,0
Combo4 : 0,191,191

[HitObjects]
256,192,12,12,0,4456,0:0:0:0:
384,80,5197,5,0,0:0:0:0:
288,320,5937,2,0,P|224:336|144:304,1,130,4|8,3:2|0:0,0:0:0:0:
48,272,6678,1,8,0:0:0:0:
48,144,7049,1,8,0:0:0:0:
128,32,7419,6,0,P|192:16|256:32,1,130,4|8,3:2|0:0,0:0:0:0:
384,64,8160,2,0,P|432:96|458:181,1,130,8|8,0:0|0:0,0:0:0:0:
464,288,8900,1,4,3:2:0:0:
336,304,9271,2,0,L|256:304,2,65,8|0|12,0:0|3:0|0:0,0:0:0:0:
240,224,10011,2,0,L|175:224,2,65,8|0|12,0:0|3:0|3:2,0:0:0:0:
144,144,10752,2,0,L|79:144,2,65,0|0|8,3:0|3:0|3:2,0:0:0:0:
272,144,11493,1,0,3:0:0:0:
256,192,11863,12,8,14086,0:0:0:0:
112,272,14826,6,0,L|112:128,1,130,4|8,3:2|0:0,0:0:0:0:
208,48,15567,2,0,L|352:48,1,130,0|8,3:0|0:0,0:0:0:0:
432,144,16308,2,0,L|432:274,1,130,0|8,3:0|0:0,0:0:0:0:
320,336,17049,2,0,L|176:336,1,130,0|8,3:0|0:0,0:0:0:0:
96,240,17789,1,0,3:0:0:0:
144,112,18160,1,8,0:0:0:0:
256,32,18530,1,0,3:0:0:0:
384,64,18900,2,0,P|425:114|447:175,1,130,8|0,0:0|3:0,0:0:0:0:
384,288,19641,1,8,0:0:0:0:
240,336,20011,1,0,3:0:0:0:
112,304,20382,1,8,0:0:0:0:
64,192,20752,6,0,P|96:128|160:96,1,130,4|8,3:2|0:0,0:0:0:0:
224,192,21493,2,0,P|278:157|304:99,1,130,0|8,3:0|0:0,0:0:0:0:
400,16,22234,2,0,P|454:50|480:108,1,130,0|8,3:0|0:0,0:0:0:0:
384,208,22974,2,0,P|349:262|291:288,1,130,0|8,3:0|0:0,0:0:0:0:
160,288,23715,5,4,3:2:0:0:
112,176,24086,1,8,0:0:0:0:
64,48,24456,1,0,3:0:0:0:
192,48,24826,2,0,P|269:64|320:96,1,130,8|0,0:0|3:0,0:0:0:0:
400,176,25567,1,8,3:0:0:0:
448,304,25937,1,0,3:0:0:0:
320,352,26308,1,8,3:0:0:0:
192,304,26678,6,0,P|128:288|96:208,1,130,4|8,3:2|0:0,0:0:0:0:
96,112,27419,2,0,P|129:58|192:48,1,130,0|8,3:0|0:0,0:0:0:0:
320,48,28160,2,0,P|381:62|415:115,1,130,0|8,3:0|0:0,0:0:0:0:
416,240,28900,2,0,P|382:293|320:307,1,130,0|8,3:0|0:0,0:0:0:0:
256,192,29641,1,0,3:0:0:0:
160,272,30011,1,8,0:0:0:0:
48,336,30382,1,0,3:0:0:0:
48,208,30752,2,0,P|80:144|144:96,1,130,8|0,0:0|3:0,0:0:0:0:
240,48,31493,1,8,0:0:0:0:
368,32,31863,1,0,3:0:0:0:
448,128,32234,1,8,0:0:0:0:
448,256,32604,6,0,P|416:304|336:336,1,130,4|8,3:2|0:0,0:0:0:0:
224,336,33345,2,0,P|160:320|112:272,1,130,0|8,3:0|0:0,0:0:0:0:
80,160,34086,2,0,P|128:112|192:96,1,130,0|8,3:0|0:0,0:0:0:0:
320,96,34826,2,0,P|384:96|448:144,1,130,0|8,3:0|0:0,0:0:0:0:
464,256,35567,1,0,3:0:0:0:
224,352,36308,1,0,3:0:0:0:
48,160,37049,2,0,P|96:112|160:96,1,130,0|8,3:0|0:0,0:0:0:0:
224,208,37789,2,0,P|288:224|368:192,2,130,8|8|6,0:0|0:0|3:2,0:0:0:0:
256,56,50382,6,0,P|368:80|432:160,1,208,4|10,3:2|0:0,0:0:0:0:
416,256,51493,2,0,P|357:305|280:311,1,156,2|0,3:2|3:0,0:0:0:0:
176,288,52419,2,0,L|128:240,1,52,0|10,3:0|0:0,0:0:0:0:
64,176,52974,1,2,3:2:0:0:
64,64,53345,6,0,P|160:64|240:144,1,208,0|10,3:0|0:0,0:0:0:0:
256,240,54456,2,0,P|320:208|368:128,1,156,2|0,3:2|3:0,0:0:0:0:
432,64,55382,2,0,L|448:128,1,52,0|10,3:0|0:0,0:0:0:0:
458,218,55937,1,2,3:2:0:0:
480,320,56308,6,0,P|416:352|272:320,1,208,4|10,3:2|0:0,0:0:0:0:
192,288,57419,2,0,P|112:240|96:176,1,156,2|0,3:2|3:0,0:0:0:0:
96,80,58345,2,0,L|176:48,1,52,0|10,3:0|0:0,0:0:0:0:
240,32,58900,1,2,3:2:0:0:
352,32,59271,6,0,P|416:80|432:208,1,208,0|10,3:0|0:0,0:0:0:0:
384,304,60382,2,0,P|304:336|224:304,1,156,2|0,3:2|3:0,0:0:0:0:
240,160,61493,2,0,L|352:80,1,104,14|6,0:0|3:2,0:0:0:0:
224,64,62234,6,0,P|176:80|128:128,1,104,4|8,3:2|0:0,0:0:0:0:
128,224,62974,2,0,P|176:208|224:160,1,104,0|8,3:0|0:0,0:0:0:0:
304,128,63715,2,0,L|304:192,2,52,0|2|8,3:0|0:0|0:0,0:0:0:0:
384,64,64456,2,0,L|384:12,2,52,0|2|8,3:0|0:0|0:0,0:0:0:0:
448,144,65197,2,0,P|464:192|448:256,1,104,0|8,3:0|0:0,0:0:0:0:
400,320,65937,2,0,P|336:336|288:320,1,104,0|8,3:0|0:0,0:0:0:0:
208,272,66678,2,0,L|208:220,2,52,0|2|8,3:0|0:0|0:0,0:0:0:0:
112,320,67419,2,0,L|112:372,2,52,0|2|8,3:0|0:0|0:0,0:0:0:0:
112,224,68160,5,0,3:0:0:0:
160,128,68530,1,8,0:0:0:0:
240,64,68900,2,0,P|304:64|368:96,1,104,0|8,3:0|0:0,0:0:0:0:
432,144,69641,1,0,3:0:0:0:
464,240,70011,1,8,0:0:0:0:
384,304,70382,2,0,L|320:352,2,52,0|2|8,3:0|0:0|0:0,0:0:0:0:
368,208,71123,5,0,3:0:0:0:
240,96,71678,1,2,0:0:0:0:
96,144,72234,1,8,0:0:0:0:
80,304,72789,1,2,0:0:0:0:
224,336,73345,2,0,L|288:336,1,52,0|0,3:0|3:0,0:0:0:0:
312,299,73715,2,0,L|376:299,1,52,0|0,3:0|3:0,0:0:0:0:
416,299,74086,1,0,3:0:0:0:
416,272,82974,6,0,B|352:304|352:304|288:256|288:256|224:272,1,208
32,336,84456,5,0,3:0:0:0:
64,192,85011,1,0,3:0:0:0:
192,96,85567,1,0,3:0:0:0:
288,80,85937,6,0,P|336:96|384:144,1,104,4|8,3:2|0:0,0:0:0:0:
448,208,86678,2,0,P|416:256|368:288,1,104,0|8,3:0|0:0,0:0:0:0:
288,320,87419,2,0,L|224:320,2,52,0|2|8,3:0|0:0|0:0,0:0:0:0:
224,240,88160,2,0,L|144:240,2,52,0|2|8,3:0|0:0|0:0,0:0:0:0:
272,144,88900,6,0,P|240:96|176:80,1,104,0|8,3:0|0:0,0:0:0:0:
96,48,89641,2,0,P|80:96|96:160,1,104,0|8,3:0|0:0,0:0:0:0:
128,240,90382,2,0,L|128:304,2,52,0|2|8,3:0|0:0|0:0,0:0:0:0:
208,176,91123,2,0,L|208:112,2,52,0|2|8,3:0|0:0|0:0,0:0:0:0:
224,272,91863,6,0,P|256:304|320:320,1,104,0|8,3:0|0:0,0:0:0:0:
416,304,92604,2,0,P|448:256|448:208,1,104,0|8,3:0|0:0,0:0:0:0:
448,112,93345,2,0,L|448:48,2,52,0|2|8,3:0|0:0|0:0,0:0:0:0:
352,160,94086,2,0,L|352:224,2,52,0|2|8,3:0|0:0|0:0,0:0:0:0:
352,64,94826,6,0,P|304:48|240:64,1,104,0|8,3:0|0:0,0:0:0:0:
160,96,95567,2,0,P|112:128|80:176,1,104,0|8,3:0|0:0,0:0:0:0:
64,272,96308,1,0,3:0:0:0:
144,336,96678,1,8,0:0:0:0:
240,320,97049,1,0,3:0:0:0:
320,256,97419,1,0,0:0:0:0:
336,160,97789,6,0,L|212:64,1,156,4|2,3:2|0:0,0:0:0:0:
56,64,98900,2,0,L|178:160,1,156,8|2,0:0|0:0,0:0:0:0:
304,256,100011,1,0,3:0:0:0:
304,256,100382,1,8,0:0:0:0:
384,320,100752,2,0,L|512:224,1,156,0|2,3:0|0:0,0:0:0:0:
512,64,101863,2,0,L|368:176,1,156,8|2,0:0|0:0,0:0:0:0:
256,240,102974,1,0,3:0:0:0:
256,240,103345,1,0,0:0:0:0:
160,272,103715,6,0,L|80:128,1,156,0|0,3:0|0:0,0:0:0:0:
176,0,104826,2,0,L|256:144,1,156,8|0,0:0|0:0,0:0:0:0:
336,256,105937,1,0,3:0:0:0:
336,256,106308,1,8,0:0:0:0:
256,192,106678,12,4,109641,3:2:0:0:
96,320,121493,6,0,L|112:208,1,104,0|8,3:0|0:0,0:0:0:0:
236,264,122234,2,0,P|264:200|240:144,1,104,0|8,3:0|0:0,0:0:0:0:
124,120,122974,2,0,P|153:61|208:32,1,104,0|8,3:0|0:0,0:0:0:0:
250,145,123715,2,0,P|300:184|368:176,1,104,0|8,3:0|0:0,0:0:0:0:
416,80,124456,6,0,L|352:80,2,52,0|2|8,3:0|0:0|0:0,0:0:0:0:
320,160,125197,2,0,L|256:160,2,52,0|2|8,3:0|0:0|0:0,0:0:0:0:
240,80,125937,2,0,L|176:80,2,52,0|2|8,3:0|0:0|0:0,0:0:0:0:
144,160,126678,2,0,L|80:160,2,52,0|2|8,3:0|0:0|0:0,0:0:0:0:
64,240,127419,6,0,B|80:304|144:336,1,104,0|8,3:0|0:0,0:0:0:0:
224,336,128160,1,0,3:0:0:0:
224,336,128530,1,8,0:0:0:0:
320,336,128900,2,0,B|362:316|378:252,1,104,0|8,3:0|0:0,0:0:0:0:
416,160,129641,1,0,3:0:0:0:
416,160,130011,1,8,0:0:0:0:
352,80,130382,6,0,B|319:46|255:46,1,104,8|8,0:0|0:0,0:0:0:0:
256,150,131123,2,0,B|192:150|159:116,1,104,8|8,0:0|0:0,0:0:0:0:
80,48,131863,6,0,P|48:96|48:160,1,104,0|0,3:0|3:0,0:0:0:0:
80,240,132604,2,0,P|112:288|160:320,1,104,0|0,3:0|3:0,0:0:0:0:
272,336,133345,5,4,3:2:0:0:
368,272,133715,2,0,L|432:224,2,58.4999982147217,8|2|0,0:0|0:0|3:0,0:0:0:0:
256,240,134456,1,8,0:0:0:0:
352,176,134826,2,0,P|304:128|240:112,1,116.999996429443,0|8,3:0|0:0,0:0:0:0:
144,96,135567,1,0,3:0:0:0:
48,160,135937,2,0,L|16:224,2,58.4999982147217,8|2|0,0:0|0:0|3:0,0:0:0:0:
144,96,136678,1,8,0:0:0:0:
144,208,137049,2,0,P|160:272|224:320,1,116.999996429443,0|8,3:0|0:0,0:0:0:0:
304,336,137789,6,0,P|368:336|410:301,1,116.999996429443,0|8,3:0|0:0,0:0:0:0:
448,256,138345,1,2,0:0:0:0:
432,144,138715,2,0,L|432:80,2,58.4999982147217,2|8|2,0:0|0:0|0:0,0:0:0:0:
384,176,139271,5,0,3:0:0:0:
288,240,139641,2,0,L|256:288,2,58.4999982147217,8|2|0,0:0|0:0|3:0,0:0:0:0:
304,128,140382,1,8,0:0:0:0:
288,16,140752,2,0,P|230:8|177:30,1,116.999996429443,0|8,3:0|0:0,0:0:0:0:
94,112,141493,1,0,3:0:0:0:
80,224,141863,2,0,L|36:276,2,58.4999982147217,8|2|0,0:0|0:0|3:0,0:0:0:0:
176,160,142604,1,8,0:0:0:0:
160,272,142974,2,0,L|112:336,2,58.4999982147217,0|2|8,3:0|0:0|0:0,0:0:0:0:
231,180,143715,5,0,3:0:0:0:
224,64,144085,2,0,P|160:96|128:144,1,116.999996429443,8|0,0:0|3:0,0:0:0:0:
112,176,144641,2,0,L|80:240,2,58.4999982147217,2|8|2,0:0|0:0|3:2,0:0:0:0:
176,176,145197,5,4,3:2:0:0:
288,144,145567,2,0,L|384:128,2,58.4999982147217,8|2|0,0:0|0:0|3:0,0:0:0:0:
240,256,146308,1,8,0:0:0:0:
160,336,146679,2,0,P|108:308|80:256,1,116.999996429443,0|8,3:0|0:0,0:0:0:0:
64,144,147419,1,0,3:0:0:0:
144,64,147789,2,0,L|208:0,2,58.4999982147217,8|2|0,0:0|0:0|3:0,0:0:0:0:
176,176,148530,1,8,0:0:0:0:
192,288,148900,2,0,P|256:288|303:260,1,116.999996429443,0|8,3:0|0:0,0:0:0:0:
418,262,149641,6,0,P|428:205|400:144,1,116.999996429443,0|8,3:0|0:0,0:0:0:0:
368,112,150197,1,2,0:0:0:0:
272,48,150567,2,0,L|208:0,2,58.4999982147217,2|8|2,0:0|0:0|0:0,0:0:0:0:
272,112,151123,5,0,3:0:0:0:
320,224,151493,2,0,L|240:256,2,58.4999982147217,8|2|0,0:0|0:0|3:0,0:0:0:0:
288,336,152234,1,8,0:0:0:0:
176,336,152604,2,0,P|112:320|64:272,1,116.999996429443,0|8,3:0|0:0,0:0:0:0:
32,176,153345,1,0,3:0:0:0:
80,80,153715,2,0,L|80:16,2,58.4999982147217,8|2|0,0:0|0:0|3:0,0:0:0:0:
144,176,154456,1,8,0:0:0:0:
208,80,154826,2,0,L|208:16,2,58.4999982147217,0|2|8,3:0|0:0|0:0,0:0:0:0:
272,176,155567,1,0,3:0:0:0:
368,96,155937,2,0,L|368:154,1,58.4999982147217,8|2,0:0|0:0,0:0:0:0:
256,192,156308,12,8,158530,0:0:0:0:
256,192,159271,5,8,0:0:0:0:
256,192,160011,2,0,P|256:128|320:128,1,130,4|8,3:2|0:0,0:0:0:0:
400,208,160752,2,0,P|392:280|322:274,1,130,0|8,3:0|0:0,0:0:0:0:
256,192,161493,2,0,P|248:121|192:129,1,130,0|8,3:0|0:0,0:0:0:0:
96,208,162234,2,0,P|103:279|161:272,1,130,0|8,3:0|0:0,0:0:0:0:
256,192,162974,5,0,3:0:0:0:
384,240,163345,1,8,0:0:0:0:
448,128,163715,1,0,3:0:0:0:
336,64,164086,2,0,P|256:48|176:64,1,130,8|0,0:0|3:0,0:0:0:0:
80,96,164826,1,8,0:0:0:0:
64,224,165197,1,0,3:0:0:0:
144,336,165567,1,8,0:0:0:0:
272,352,165937,6,0,P|336:352|400:304,1,130,4|8,3:2|0:0,0:0:0:0:
448,208,166678,2,0,P|448:144|400:80,1,130,0|8,3:0|0:0,0:0:0:0:
288,64,167419,2,0,P|224:64|160:96,1,130,0|8,3:0|0:0,0:0:0:0:
96,208,168160,2,0,P|112:272|160:320,1,130,0|8,3:0|0:0,0:0:0:0:
288,352,168900,5,4,3:2:0:0:
416,304,169271,1,8,0:0:0:0:
480,192,169641,1,0,3:0:0:0:
448,64,170011,2,0,P|400:32|304:32,1,130,8|0,0:0|3:0,0:0:0:0:
208,48,170752,1,8,0:0:0:0:
96,112,171123,2,0,L|64:176,1,65,0|0,3:0|3:0,0:0:0:0:
112,216,171493,2,0,L|144:280,1,65,0|0,3:0|3:0,0:0:0:0:
176,320,171863,6,0,P|224:352|304:352,1,130,4|8,3:2|0:0,0:0:0:0:
416,304,172604,2,0,P|416:240|384:176,1,130,0|8,3:0|0:0,0:0:0:0:
288,256,173345,2,0,P|240:208|224:144,1,130,0|8,3:0|0:0,0:0:0:0:
304,48,174086,2,0,P|368:48|432:80,1,130,0|8,3:0|0:0,0:0:0:0:
496,192,174826,5,0,3:0:0:0:
448,320,175197,1,8,0:0:0:0:
192,336,175937,2,0,P|128:336|64:288,1,130,8|0,0:0|3:0,0:0:0:0:
32,176,176678,1,8,0:0:0:0:
256,32,177419,1,8,0:0:0:0:
384,64,177789,6,0,P|416:128|416:192,1,130,4|8,3:2|0:0,0:0:0:0:
400,320,178530,2,0,P|336:336|272:304,1,130,0|8,3:0|0:0,0:0:0:0:
336,192,179271,2,0,P|272:160|208:176,1,130,0|8,3:0|0:0,0:0:0:0:
128,272,180011,2,0,P|80:208|80:144,1,130,0|8,3:0|0:0,0:0:0:0:
160,64,180752,6,0,P|224:48|304:48,2,130,0|8|0,3:0|0:0|3:0,0:0:0:0:
252,156,181863,2,0,P|332:156|400:144,2,130,8|8|8,0:0|0:0|0:0,0:0:0:0:
128,144,182974,2,0,P|128:208|176:256,1,130,8|8,0:0|0:0,0:0:0:0:
288,320,183715,1,6,3:2:0:0:
192,208,195567,5,4,3:2:0:0:
304,48,196123,2,0,B|384:64|432:144|432:224,2,195,2|8|2,0:0|0:0|0:0,0:0:0:0:
112,48,197789,1,0,3:0:0:0:
64,176,198160,1,8,0:0:0:0:
144,272,198530,2,0,B|211:317|302:294|358:238,2,195,0|2|8,3:0|0:0|0:0,0:0:0:0:
224,96,200197,2,0,P|352:64|448:128,1,195,2|0,0:0|3:0,0:0:0:0:
464,208,201123,1,8,0:0:0:0:
400,320,201493,5,0,3:0:0:0:
208,336,202049,2,0,P|112:320|48:240,2,195,2|8|2,0:0|0:0|0:0,0:0:0:0:
345,198,203715,1,0,3:0:0:0:
272,96,204086,1,8,0:0:0:0:
144,64,204456,2,0,P|96:208|128:288,2,195,0|2|8,3:0|0:0|0:0,0:0:0:0:
336,48,206123,1,2,0:0:0:0:
480,176,206678,2,0,L|464:240,1,65,8|8,0:0|0:0,0:0:0:0:
416,288,207049,2,0,L|368:336,1,65,8|8,0:0|0:0,0:0:0:0:
304,368,207419,6,0,P|247:334|213:254,1,130,4|8,3:2|0:0,0:0:0:0:
152,279,207974,2,0,P|120:222|65:190,1,130,2|2,0:0|0:0,0:0:0:0:
19,144,208530,2,0,P|52:87|132:53,1,130,8|0,0:0|3:0,0:0:0:0:
172,57,209086,2,0,P|240:80|320:64,1,130,2|2,0:0|0:0,0:0:0:0:
352,48,209641,1,0,3:0:0:0:
352,48,210011,1,8,0:0:0:0:
464,112,210382,6,0,P|432:176|448:240,1,130,0|8,3:0|0:0,0:0:0:0:
464,288,210937,2,0,P|416:336|336:352,1,130,2|2,0:0|0:0,0:0:0:0:
304,320,211493,2,0,P|240:288|176:304,1,130,8|0,0:0|3:0,0:0:0:0:
128,320,212049,2,0,P|80:272|64:192,1,130,2|2,0:0|0:0,0:0:0:0:
64,144,212604,1,0,3:0:0:0:
64,144,212974,1,8,0:0:0:0:
156,51,213345,6,0,P|224:64|288:48,1,130,0|8,3:0|0:0,0:0:0:0:
336,32,213900,2,0,P|400:80|416:144,1,130,2|2,0:0|0:0,0:0:0:0:
464,160,214456,2,0,P|432:224|448:288,1,130,8|0,0:0|3:0,0:0:0:0:
432,336,215011,2,0,P|368:368|288:352,1,130,2|2,0:0|0:0,0:0:0:0:
256,336,215567,1,0,3:0:0:0:
256,336,215937,1,8,0:0:0:0:
128,336,216308,6,0,P|112:256|64:224,1,130,0|8,3:0|0:0,0:0:0:0:
32,192,216863,2,0,P|32:128|80:64,1,130,2|2,0:0|0:0,0:0:0:0:
128,80,217419,2,0,P|192:96|256:80,1,130,8|0,0:0|3:0,0:0:0:0:
304,32,217974,2,0,P|384:48|432:112,1,130,2|2,0:0|0:0,0:0:0:0:
432,144,218530,1,0,3:0:0:0:
400,272,218900,1,8,0:0:0:0:
288,336,219271,6,0,L|160:304,1,130,4|8,3:2|0:0,0:0:0:0:
115,258,219826,2,0,L|241:226,1,130,2|2,0:0|0:0,0:0:0:0:
287,180,220382,2,0,L|159:148,1,130,8|0,0:0|3:0,0:0:0:0:
114,102,220937,2,0,L|240:70,1,130,2|2,0:0|0:0,0:0:0:0:
304,48,221493,1,0,3:0:0:0:
432,64,221863,1,8,0:0:0:0:
464,192,222234,6,0,L|400:320,1,130,0|8,3:0|0:0,0:0:0:0:
340,308,222789,2,0,L|281:191,1,130,2|2,0:0|0:0,0:0:0:0:
216,191,223345,2,0,L|152:319,1,130,8|0,0:0|3:0,0:0:0:0:
92,307,223900,2,0,L|33:190,1,130,2|2,0:0|0:0,0:0:0:0:
0,128,224456,1,0,3:0:0:0:
96,32,224826,1,8,0:0:0:0:
226,32,225197,6,0,L|352:64,1,130,0|8,3:0|0:0,0:0:0:0:
306,109,225752,2,0,L|179:140,1,130,2|2,0:0|0:0,0:0:0:0:
226,186,226308,2,0,L|352:218,1,130,8|0,0:0|3:0,0:0:0:0:
306,263,226863,2,0,L|179:294,1,130,2|2,0:0|0:0,0:0:0:0:
112,304,227419,1,0,3:0:0:0:
16,224,227789,1,8,0:0:0:0:
96,128,228160,6,0,L|208:48,1,130,0|8,3:0|0:0,0:0:0:0:
272,32,228715,2,0,L|416:48,1,130,2|2,0:0|0:0,0:0:0:0:
448,80,229271,2,0,L|480:208,1,130,8|0,0:0|3:0,0:0:0:0:
464,272,229826,2,0,L|352:352,1,130,2|2,0:0|0:0,0:0:0:0:
292,347,230382,2,0,P|212:331|164:283,2,130,0|8|0,3:0|0:0|3:0,0:0:0:0:
