osu file format v14

[General]
AudioFilename: audio.mp3
AudioLeadIn: 0
PreviewTime: -1
Countdown: 0
SampleSet: None
StackLeniency: 0.4
Mode: 0
LetterboxInBreaks: 0
WidescreenStoryboard: 1

[Editor]
DistanceSpacing: 2
BeatDivisor: 2
GridSize: 4
TimelineZoom: 1

[Metadata]
Title:At the Speed of Light
TitleUnicode:At the Speed of Light
Artist:Dimrain47
ArtistUnicode:Dimrain47
Creator:KingBranBran
Version:Cataclysm
Source:
Tags:
BeatmapID:1515225
BeatmapSetID:717179

[Difficulty]
HPDrainRate:7
CircleSize:4.5
OverallDifficulty:8
ApproachRate:10
SliderMultiplier:1.6
SliderTickRate:1

[Events]
//Background and Video events
//Break Periods
//Storyboard Layer 0 (Background)
//Storyboard Layer 1 (Fail)
//Storyboard Layer 2 (Pass)
//Storyboard Layer 3 (Foreground)
//Storyboard Sound Samples

[TimingPoints]
0,370.37037037037,4,1,0,10,1,0
0,-200,4,1,0,10,0,0
5925,-200,4,1,0,10,0,0
6296,-200,4,1,0,20,0,0
6666,-200,4,1,0,30,0,0
8148,-100,4,1,0,30,0,0
14814,-33.3333333333333,4,1,0,30,0,0
38518,-200,4,1,0,30,0,0
47962,-100,4,1,0,30,0,0
48703,-200,4,1,0,30,0,0
50370,-100,4,1,0,30,0,0
82962,-200,4,1,0,30,0,0
84444,-66.6666666666667,4,1,0,30,0,0
84999,-33.3333333333333,4,1,0,30,0,0
85555,-100,4,1,0,30,0,0
109629,-114.285714285714,4,1,0,30,0,0
120740,-100,4,2,99,100,0,0
121481,-100,4,1,0,30,0,0
133333,-66.6666666666667,4,1,0,30,0,0
242222,444.444444444444,4,1,0,30,1,0
242666,631.578947368421,4,1,0,30,1,0
243297,631.578947368421,4,1,0,30,1,0

[Colours]
Combo1 : 255,53,53
Combo2 : 255,255,108
Combo3 : 255,169,83
Combo4 : 255,128,128
Combo5 : 255,218,4
Combo6 : 255,128,0

[HitObjects]
36,88,0,6,0,B|72:32|144:44|172:80|172:80|160:132|212:212|312:192|344:116|328:56|282:31|282:31|348:24|377:67|377:67|384:108|412:128|412:128|480:132|504:192|488:256|444:280|380:276|348:228|348:228|324:228|292:256|270:331|270:331|252:268|188:236|188:236,1,1200
64,256,5925,5,0,0:0:0:0:
68,240,6018,1,0,0:0:0:0:
76,224,6111,1,0,0:0:0:0:
88,212,6203,1,0,0:0:0:0:
144,288,6296,5,0,0:0:0:0:
164,264,6389,1,0,0:0:0:0:
192,252,6482,1,0,0:0:0:0:
224,252,6574,1,0,0:0:0:0:
208,348,6666,5,0,0:0:0:0:
280,320,6759,1,0,0:0:0:0:
360,324,6852,1,0,0:0:0:0:
432,352,6944,1,0,0:0:0:0:
504,316,7037,1,0,0:0:0:0:
508,240,7129,1,0,0:0:0:0:
452,188,7222,1,0,0:0:0:0:
376,208,7314,1,0,0:0:0:0:
360,324,7407,5,0,0:0:0:0:
352,300,7499,1,0,0:0:0:0:
336,280,7592,1,0,0:0:0:0:
316,264,7685,1,0,0:0:0:0:
292,256,7777,1,0,0:0:0:0:
264,256,7870,1,0,0:0:0:0:
240,264,7962,1,0,0:0:0:0:
220,280,8055,1,0,0:0:0:0:
208,304,8148,6,0,L|220:348,1,40
102,169,8333,2,0,L|92:208,1,40
208,124,8518,5,0,0:0:0:0:
280,156,8611,1,0,0:0:0:0:
360,168,8703,1,0,0:0:0:0:
440,152,8796,1,0,0:0:0:0:
420,312,8888,5,0,0:0:0:0:
400,268,8981,1,0,0:0:0:0:
356,244,9074,1,0,0:0:0:0:
308,248,9166,1,0,0:0:0:0:
276,284,9259,5,0,0:0:0:0:
232,304,9351,1,0,0:0:0:0:
184,292,9444,1,0,0:0:0:0:
156,252,9537,1,0,0:0:0:0:
64,348,9629,5,0,0:0:0:0:
84,292,9722,1,0,0:0:0:0:
76,232,9814,1,0,0:0:0:0:
48,180,9907,1,0,0:0:0:0:
0,152,9999,5,0,0:0:0:0:
0,212,10092,1,0,0:0:0:0:
40,256,10185,1,0,0:0:0:0:
100,260,10277,1,0,0:0:0:0:
188,216,10370,5,0,0:0:0:0:
140,148,10462,1,0,0:0:0:0:
172,68,10555,1,0,0:0:0:0:
256,56,10648,1,0,0:0:0:0:
316,116,10740,1,0,0:0:0:0:
304,200,10833,1,0,0:0:0:0:
368,252,10925,1,0,0:0:0:0:
452,236,11018,1,0,0:0:0:0:
448,344,11111,5,0,0:0:0:0:
348,324,11203,5,0,0:0:0:0:
244,332,11296,5,0,0:0:0:0:
144,364,11388,5,0,0:0:0:0:
44,336,11481,5,0,0:0:0:0:
0,240,11574,5,0,0:0:0:0:
36,144,11666,5,0,0:0:0:0:
132,100,11759,5,0,0:0:0:0:
128,228,11851,70,0,L|176:236,7,40
248,192,12592,2,0,L|296:184,7,40
376,256,13333,1,0,0:0:0:0:
392,208,13425,1,0,0:0:0:0:
380,156,13518,1,0,0:0:0:0:
336,128,13611,1,0,0:0:0:0:
376,256,13703,5,0,0:0:0:0:
356,168,13796,1,0,0:0:0:0:
280,124,13888,1,0,0:0:0:0:
192,132,13981,1,0,0:0:0:0:
132,196,14074,1,0,0:0:0:0:
349,236,14444,5,0,0:0:0:0:
334,169,14537,1,0,0:0:0:0:
276,136,14629,1,0,0:0:0:0:
210,142,14722,1,0,0:0:0:0:
164,200,14814,2,0,B|200:280|300:304|300:304|276:208|336:140|336:140|308:272|381:349|381:349|460:284|416:199|416:199|348:116|212:260|181:58|181:58|272:28|313:66|313:66|344:20|432:28|432:28|480:56|496:144|496:144,1,1440.00005493164
16,312,16296,6,0,B|72:352|123:303|123:303|140:272|128:229|128:229|160:176|240:160|240:160|320:184|424:144|424:144|432:212|324:256|324:256|300:336|192:340|192:340|208:272|260:232,2,960.000036621095
56,184,17962,5,0,0:0:0:0:
80,152,18054,1,0,0:0:0:0:
204,64,18240,5,0,0:0:0:0:
164,80,18332,1,0,0:0:0:0:
224,208,18518,5,0,0:0:0:0:
272,212,18611,1,0,0:0:0:0:
316,196,18703,1,0,0:0:0:0:
340,156,18796,1,0,0:0:0:0:
340,104,18888,5,0,0:0:0:0:
400,144,18981,1,0,0:0:0:0:
420,212,19074,1,0,0:0:0:0:
416,284,19166,1,0,0:0:0:0:
380,348,19259,1,0,0:0:0:0:
220,216,19444,5,0,0:0:0:0:
180,232,19537,1,0,0:0:0:0:
36,224,19722,5,0,0:0:0:0:
76,240,19815,1,0,0:0:0:0:
68,144,19999,5,0,0:0:0:0:
140,132,20091,1,0,0:0:0:0:
128,60,20184,1,0,0:0:0:0:
56,72,20277,1,0,0:0:0:0:
172,124,20370,5,0,0:0:0:0:
232,128,20462,1,0,0:0:0:0:
320,136,20555,1,0,0:0:0:0:
380,140,20647,1,0,0:0:0:0:
464,148,20740,6,0,B|404:236|468:328|468:328|472:276|512:240|492:212|492:212|392:276|276:204|276:204|332:216|364:168|384:192|384:192|388:272|372:316|324:328|324:328|280:284|212:280|212:280|224:288|224:300|224:300,2,960.000036621095
476,120,22314,1,0,0:0:0:0:
472,96,22407,1,0,0:0:0:0:
460,76,22499,1,0,0:0:0:0:
440,60,22592,1,0,0:0:0:0:
420,48,22685,1,0,0:0:0:0:
396,44,22777,1,0,0:0:0:0:
372,44,22870,1,0,0:0:0:0:
348,52,22962,1,0,0:0:0:0:
328,64,23055,1,0,0:0:0:0:
312,84,23148,1,0,0:0:0:0:
304,108,23240,1,0,0:0:0:0:
304,132,23333,1,0,0:0:0:0:
308,156,23425,1,0,0:0:0:0:
320,176,23518,1,0,0:0:0:0:
340,192,23611,1,0,0:0:0:0:
360,200,23703,5,0,0:0:0:0:
312,200,23796,1,0,0:0:0:0:
264,200,23981,5,0,0:0:0:0:
312,200,24074,1,0,0:0:0:0:
264,200,24259,5,0,0:0:0:0:
216,200,24352,1,0,0:0:0:0:
168,200,24537,5,0,0:0:0:0:
216,200,24630,1,0,0:0:0:0:
168,200,24814,5,0,0:0:0:0:
120,200,24907,1,0,0:0:0:0:
72,200,24999,1,0,0:0:0:0:
120,200,25092,1,0,0:0:0:0:
168,200,25185,5,0,0:0:0:0:
132,168,25278,1,0,0:0:0:0:
124,120,25370,1,0,0:0:0:0:
148,80,25463,1,0,0:0:0:0:
192,64,25556,1,0,0:0:0:0:
236,80,25648,1,0,0:0:0:0:
264,124,25741,1,0,0:0:0:0:
256,172,25833,1,0,0:0:0:0:
268,216,25925,5,0,0:0:0:0:
296,256,26018,1,0,0:0:0:0:
344,272,26111,1,0,0:0:0:0:
392,264,26203,1,0,0:0:0:0:
432,236,26296,5,0,0:0:0:0:
376,192,26388,1,0,0:0:0:0:
304,184,26481,1,0,0:0:0:0:
240,216,26574,1,0,0:0:0:0:
208,280,26666,6,0,B|304:320|440:256|440:256|472:112|400:44|400:44|456:116|512:112|512:112|528:228|492:304|492:304|320:404|111:340|111:340|152:268|148:184|88:136|88:136|112:184|56:240,1,1440.00005493164
320,148,28148,2,0,B|300:88|204:36|132:40|132:40|252:8|352:36|448:92|440:252|292:256|252:172|252:172|224:120|152:96|86:117|86:117|120:120|132:136,2,960.000036621095
176,200,29814,5,0,0:0:0:0:
132,208,29906,1,0,0:0:0:0:
176,200,30092,5,0,0:0:0:0:
220,192,30184,1,0,0:0:0:0:
88,216,30370,5,0,0:0:0:0:
116,256,30462,1,0,0:0:0:0:
160,272,30555,1,0,0:0:0:0:
208,272,30648,1,0,0:0:0:0:
248,248,30740,5,0,0:0:0:0:
308,204,30833,1,0,0:0:0:0:
380,208,30925,1,0,0:0:0:0:
432,256,31018,1,0,0:0:0:0:
436,328,31111,1,0,0:0:0:0:
336,304,31296,5,0,0:0:0:0:
311,328,31388,1,0,0:0:0:0:
336,304,31574,5,0,0:0:0:0:
360,279,31666,1,0,0:0:0:0:
288,352,31851,5,0,0:0:0:0:
264,312,31944,1,0,0:0:0:0:
220,292,32036,1,0,0:0:0:0:
172,292,32129,1,0,0:0:0:0:
140,312,32221,5,0,0:0:0:0:
168,232,32314,1,0,0:0:0:0:
152,148,32406,1,0,0:0:0:0:
96,84,32499,1,0,0:0:0:0:
12,68,32592,6,0,B|52:196|252:292|488:168|488:168|336:44|196:104|196:104,1,840.000032043458
188,108,33333,6,0,B|228:228|156:344|156:344|80:256|120:152|120:152|244:280|492:172,1,840.000032043458
468,152,34074,6,0,B|380:152|272:204|272:204|364:236|464:236|464:236|336:336|162:306|162:306|108:252|4:268|4:268,1,840.000032043458
24,240,34814,6,0,B|68:308|132:296|132:296|144:252|144:252|112:240|72:184|72:184|116:136|116:136|160:204|208:200|208:200|256:156|256:156|168:136|164:64|164:64|225:47|225:47|228:92|316:96,1,840.000032043458
344,60,35555,1,0,0:0:0:0:
416,76,35648,1,0,0:0:0:0:
456,136,35740,1,0,0:0:0:0:
452,208,35833,1,0,0:0:0:0:
420,272,35925,5,0,0:0:0:0:
376,228,36018,1,0,0:0:0:0:
368,168,36111,1,0,0:0:0:0:
356,228,36203,1,0,0:0:0:0:
336,260,36296,5,0,0:0:0:0:
304,240,36388,1,0,0:0:0:0:
268,240,36481,1,0,0:0:0:0:
236,256,36574,1,0,0:0:0:0:
212,284,36666,5,0,0:0:0:0:
176,296,36759,1,0,0:0:0:0:
140,288,36851,1,0,0:0:0:0:
112,264,36944,1,0,0:0:0:0:
100,216,37037,5,0,0:0:0:0:
160,212,37129,1,0,0:0:0:0:
204,168,37222,1,0,0:0:0:0:
228,112,37314,1,0,0:0:0:0:
220,48,37407,5,0,0:0:0:0:
144,84,37499,1,0,0:0:0:0:
132,168,37592,1,0,0:0:0:0:
184,236,37685,1,0,0:0:0:0:
272,236,37777,5,0,0:0:0:0:
332,140,37870,5,0,0:0:0:0:
440,152,37962,5,0,0:0:0:0:
476,256,38055,5,0,0:0:0:0:
420,348,38148,5,0,0:0:0:0:
376,248,38240,5,0,0:0:0:0:
272,236,38333,5,0,0:0:0:0:
204,320,38425,5,0,0:0:0:0:
376,248,38518,6,0,B|324:192|348:128|348:128,2,120
432,176,40185,1,0,0:0:0:0:
80,80,40740,5,0,0:0:0:0:
160,68,40925,1,0,0:0:0:0:
124,160,41111,1,0,0:0:0:0:
204,168,41296,1,0,0:0:0:0:
316,176,41481,5,0,0:0:0:0:
264,236,41666,1,0,0:0:0:0:
284,312,41851,1,0,0:0:0:0:
360,336,42037,1,0,0:0:0:0:
428,288,42222,1,0,0:0:0:0:
416,204,42407,1,0,0:0:0:0:
436,124,42592,1,0,0:0:0:0:
480,52,42777,1,0,0:0:0:0:
428,288,43148,5,0,0:0:0:0:
416,204,43333,1,0,0:0:0:0:
352,144,43518,1,0,0:0:0:0:
416,204,43703,5,0,0:0:0:0:
352,144,43888,1,0,0:0:0:0:
260,128,44074,1,0,0:0:0:0:
260,136,44166,1,0,0:0:0:0:
260,120,44259,1,0,0:0:0:0:
76,292,44444,5,0,0:0:0:0:
160,304,44629,1,0,0:0:0:0:
236,280,44814,1,0,0:0:0:0:
50,195,44999,5,0,0:0:0:0:
118,245,45184,1,0,0:0:0:0:
197,260,45369,1,0,0:0:0:0:
79,86,45555,5,0,0:0:0:0:
111,164,45740,1,0,0:0:0:0:
169,218,45925,1,0,0:0:0:0:
149,15,46110,5,0,0:0:0:0:
140,99,46295,1,0,0:0:0:0:
167,175,46480,1,0,0:0:0:0:
360,96,46666,5,0,0:0:0:0:
264,104,46851,1,0,0:0:0:0:
272,200,47037,1,0,0:0:0:0:
368,192,47222,1,0,0:0:0:0:
264,104,47407,5,0,0:0:0:0:
204,288,47592,1,0,0:0:0:0:
272,200,47777,1,0,0:0:0:0:
72,240,47962,2,0,P|112:240|164:220,1,80
156,88,48333,2,0,P|116:72|77:71,1,80
272,200,48703,6,0,P|284:152|272:112,1,80
288,288,49259,1,0,0:0:0:0:
364,232,49444,1,0,0:0:0:0:
272,199,49629,2,0,P|228:175|186:177,1,80
84,120,50370,6,0,P|128:96|170:98,1,80
168,96,50648,1,0,0:0:0:0:
180,100,50740,1,0,0:0:0:0:
152,184,50925,6,0,P|208:184|268:280,1,160
184,264,51481,5,0,0:0:0:0:
228,336,51666,1,0,0:0:0:0:
312,340,51851,1,0,0:0:0:0:
384,284,52037,6,0,B|400:232|376:180|376:180|408:220|452:228,1,160
472,176,52592,5,0,0:0:0:0:
452,144,52685,1,0,0:0:0:0:
452,108,52777,1,0,0:0:0:0:
464,72,52870,1,0,0:0:0:0:
481,39,52962,5,0,0:0:0:0:
464,72,53055,1,0,0:0:0:0:
433,90,53147,1,0,0:0:0:0:
395,97,53240,2,0,L|364:104,1,20
340,40,53333,6,0,B|268:8|224:60|224:60,1,120
228,55,53657,5,0,0:0:0:0:
228,55,53703,5,0,0:0:0:0:
300,152,53888,5,0,0:0:0:0:
288,256,54074,1,0,0:0:0:0:
208,320,54259,1,0,0:0:0:0:
144,244,54444,2,0,B|196:188|176:116|176:116|168:156|152:164,1,160
100,164,54999,2,0,P|88:104|172:36,1,160
180,116,55555,1,0,0:0:0:0:
392,92,55740,1,0,0:0:0:0:
284,56,55925,5,0,0:0:0:0:
296,128,56018,1,0,0:0:0:0:
380,164,56111,5,0,0:0:0:0:
392,92,56204,1,0,0:0:0:0:
472,112,56296,6,0,L|484:196,1,80
480,216,56574,1,0,0:0:0:0:
476,232,56666,1,0,0:0:0:0:
436,304,56851,6,0,P|368:348|284:312,1,160
356,260,57407,5,0,0:0:0:0:
232,180,57592,1,0,0:0:0:0:
336,160,57777,1,0,0:0:0:0:
256,280,57962,6,0,P|192:268|112:328,1,160
72,372,58518,5,0,0:0:0:0:
68,336,58610,1,0,0:0:0:0:
64,300,58703,1,0,0:0:0:0:
60,264,58796,1,0,0:0:0:0:
56,228,58888,5,0,0:0:0:0:
116,236,58981,1,0,0:0:0:0:
176,244,59074,1,0,0:0:0:0:
236,252,59166,2,0,L|236:280,1,20
292,260,59259,2,0,P|312:220|280:144,1,120
280,148,59583,5,0,0:0:0:0:
272,144,59629,5,0,0:0:0:0:
192,164,59814,5,0,0:0:0:0:
136,96,59999,1,0,0:0:0:0:
168,24,60185,1,0,0:0:0:0:
216,88,60370,6,0,P|272:64|352:116,1,160
292,168,60925,2,0,P|348:192|428:140,1,160
352,96,61481,1,0,0:0:0:0:
164,324,61851,6,0,B|196:320|196:320|224:328|224:328|256:320|256:320|284:328|284:328,1,120
320,328,62222,5,0,0:0:0:0:
360,328,62315,1,0,0:0:0:0:
272,240,62499,5,0,0:0:0:0:
232,240,62592,1,0,0:0:0:0:
332,159,62777,5,0,0:0:0:0:
372,159,62870,1,0,0:0:0:0:
284,71,63054,5,0,0:0:0:0:
244,71,63147,1,0,0:0:0:0:
360,328,63333,5,0,0:0:0:0:
284,71,63518,1,0,0:0:0:0:
360,328,63703,5,0,0:0:0:0:
399,321,63796,1,0,0:0:0:0:
430,297,63888,1,0,0:0:0:0:
447,261,63981,1,0,0:0:0:0:
449,220,64074,5,0,0:0:0:0:
417,226,64166,1,0,0:0:0:0:
384,224,64259,1,0,0:0:0:0:
355,209,64351,1,0,0:0:0:0:
335,183,64444,5,0,0:0:0:0:
319,164,64537,1,0,0:0:0:0:
299,150,64629,1,0,0:0:0:0:
276,141,64722,1,0,0:0:0:0:
252,140,64814,5,0,0:0:0:0:
270,155,64907,1,0,0:0:0:0:
292,162,64999,1,0,0:0:0:0:
319,164,65092,1,0,0:0:0:0:
350,156,65185,5,0,0:0:0:0:
356,108,65277,1,0,0:0:0:0:
329,67,65370,1,0,0:0:0:0:
284,49,65462,1,0,0:0:0:0:
240,53,65555,5,0,0:0:0:0:
226,107,65648,1,0,0:0:0:0:
193,152,65740,1,0,0:0:0:0:
141,173,65833,1,0,0:0:0:0:
85,168,65925,5,0,0:0:0:0:
125,217,66018,1,0,0:0:0:0:
187,231,66111,1,0,0:0:0:0:
249,218,66203,1,0,0:0:0:0:
285,155,66296,5,0,0:0:0:0:
322,94,66388,1,0,0:0:0:0:
387,62,66481,1,0,0:0:0:0:
457,77,66574,1,0,0:0:0:0:
512,126,66666,5,0,0:0:0:0:
434,147,66759,1,0,0:0:0:0:
370,194,66851,1,0,0:0:0:0:
353,281,66944,1,0,0:0:0:0:
377,353,67037,5,0,0:0:0:0:
432,296,67129,1,0,0:0:0:0:
446,216,67222,1,0,0:0:0:0:
390,159,67314,1,0,0:0:0:0:
307,127,67407,5,0,0:0:0:0:
232,154,67499,1,0,0:0:0:0:
155,129,67592,1,0,0:0:0:0:
79,155,67685,1,0,0:0:0:0:
154,180,67777,5,0,0:0:0:0:
232,154,67870,1,0,0:0:0:0:
306,181,67962,1,0,0:0:0:0:
390,159,68055,1,0,0:0:0:0:
466,183,68148,5,0,0:0:0:0:
481,146,68240,1,0,0:0:0:0:
480,105,68333,1,0,0:0:0:0:
463,67,68425,1,0,0:0:0:0:
432,40,68518,2,0,P|443:92|456:102,1,40
466,183,68703,5,0,0:0:0:0:
472,143,68795,1,0,0:0:0:0:
462,103,68888,1,0,0:0:0:0:
436,70,68980,1,0,0:0:0:0:
400,51,69073,2,0,P|422:99|437:106,1,40
466,183,69259,5,0,0:0:0:0:
461,143,69351,1,0,0:0:0:0:
441,107,69444,1,0,0:0:0:0:
408,81,69536,1,0,0:0:0:0:
368,72,69629,2,0,P|402:112|418:115,1,40
466,183,69814,5,0,0:0:0:0:
452,144,69906,1,0,0:0:0:0:
424,114,69999,1,0,0:0:0:0:
386,97,70091,1,0,0:0:0:0:
345,97,70184,2,0,P|387:129|403:128,1,40
466,183,70370,5,0,0:0:0:0:
440,150,70462,1,0,0:0:0:0:
404,130,70555,1,0,0:0:0:0:
363,125,70647,1,0,0:0:0:0:
324,138,70740,1,0,0:0:0:0:
365,161,70833,1,0,0:0:0:0:
408,162,70925,1,0,0:0:0:0:
441,139,71018,1,0,0:0:0:0:
466,99,71111,5,0,0:0:0:0:
466,99,71203,2,0,L|470:164,1,40
476,338,71388,5,0,0:0:0:0:
476,338,71481,2,0,L|411:342,1,40
248,346,71666,5,0,0:0:0:0:
248,346,71758,2,0,L|244:281,1,40
238,107,71943,5,0,0:0:0:0:
238,107,72036,2,0,L|303:103,1,40
112,115,72222,5,0,0:0:0:0:
119,153,72314,1,0,0:0:0:0:
112,115,72499,5,0,0:0:0:0:
123,177,72591,1,0,0:0:0:0:
112,115,72777,5,0,0:0:0:0:
127,202,72869,1,0,0:0:0:0:
112,115,73055,5,0,0:0:0:0:
133,226,73148,1,0,0:0:0:0:
97,29,73333,6,0,P|124:29|149:40,1,40
97,29,73518,1,0,0:0:0:0:
134,50,73611,1,0,0:0:0:0:
171,51,73703,2,0,L|195:47,2,20
200,132,73888,5,0,0:0:0:0:
326,167,73981,1,0,0:0:0:0:
290,39,74074,5,0,0:0:0:0:
260,356,74444,1,0,0:0:0:0:
273,36,74814,5,0,0:0:0:0:
277,354,75184,1,0,0:0:0:0:
260,35,75555,5,0,0:0:0:0:
291,352,75925,1,0,0:0:0:0:
246,35,76296,5,0,0:0:0:0:
305,348,76666,1,0,0:0:0:0:
270,190,76851,1,0,0:0:0:0:
232,36,77037,5,0,0:0:0:0:
318,343,77407,1,0,0:0:0:0:
219,39,77778,5,0,0:0:0:0:
331,337,78148,1,0,0:0:0:0:
206,43,78518,5,0,0:0:0:0:
343,330,78888,1,0,0:0:0:0:
193,48,79259,5,0,0:0:0:0:
194,48,79537,5,0,0:0:0:0:
193,48,79629,1,0,0:0:0:0:
355,322,79814,1,0,0:0:0:0:
181,54,79999,5,0,0:0:0:0:
366,313,80369,1,0,0:0:0:0:
169,61,80740,5,0,0:0:0:0:
376,303,81110,1,0,0:0:0:0:
158,69,81480,5,0,0:0:0:0:
385,292,81850,1,0,0:0:0:0:
148,78,82221,5,0,0:0:0:0:
394,280,82592,1,0,0:0:0:0:
203,250,82777,1,0,0:0:0:0:
64,335,82962,6,0,P|105:359|290:302,1,240
144,60,84444,6,0,P|91:111|163:285,1,240.000009155274
144,60,84999,6,0,P|92:114|333:198,1,480.000018310548
460,110,85555,5,0,0:0:0:0:
376,96,85648,1,0,0:0:0:0:
294,115,85740,1,0,0:0:0:0:
237,177,85833,1,0,0:0:0:0:
208,263,85925,5,0,0:0:0:0:
259,268,86018,1,0,0:0:0:0:
310,274,86111,1,0,0:0:0:0:
361,279,86203,1,0,0:0:0:0:
310,274,86296,1,0,0:0:0:0:
259,268,86388,1,0,0:0:0:0:
208,263,86481,1,0,0:0:0:0:
155,258,86574,1,0,0:0:0:0:
103,252,86666,5,0,0:0:0:0:
155,258,86759,1,0,0:0:0:0:
208,263,86851,1,0,0:0:0:0:
259,268,86944,1,0,0:0:0:0:
208,263,87037,1,0,0:0:0:0:
155,258,87129,1,0,0:0:0:0:
103,252,87222,1,0,0:0:0:0:
51,247,87314,1,0,0:0:0:0:
10,243,87407,5,0,0:0:0:0:
56,220,87499,1,0,0:0:0:0:
90,180,87592,1,0,0:0:0:0:
105,130,87685,1,0,0:0:0:0:
95,79,87777,5,0,0:0:0:0:
84,130,87870,1,0,0:0:0:0:
115,171,87962,1,0,0:0:0:0:
164,188,88055,1,0,0:0:0:0:
215,178,88148,5,0,0:0:0:0:
263,161,88240,1,0,0:0:0:0:
314,170,88333,1,0,0:0:0:0:
352,204,88425,1,0,0:0:0:0:
314,170,88518,5,0,0:0:0:0:
352,205,88611,1,0,0:0:0:0:
401,219,88703,1,0,0:0:0:0:
452,213,88796,1,0,0:0:0:0:
493,182,88888,5,0,0:0:0:0:
439,133,88981,1,0,0:0:0:0:
367,121,89074,1,0,0:0:0:0:
302,150,89166,1,0,0:0:0:0:
260,208,89259,1,0,0:0:0:0:
264,279,89351,1,0,0:0:0:0:
304,338,89444,1,0,0:0:0:0:
370,365,89537,1,0,0:0:0:0:
440,353,89629,5,0,0:0:0:0:
398,293,89722,1,0,0:0:0:0:
333,266,89814,1,0,0:0:0:0:
264,279,89907,1,0,0:0:0:0:
207,322,89999,1,0,0:0:0:0:
140,350,90092,1,0,0:0:0:0:
71,327,90185,1,0,0:0:0:0:
37,263,90277,1,0,0:0:0:0:
48,191,90370,5,0,0:0:0:0:
117,206,90462,1,0,0:0:0:0:
189,199,90555,1,0,0:0:0:0:
251,163,90648,1,0,0:0:0:0:
268,93,90740,1,0,0:0:0:0:
251,163,90833,1,0,0:0:0:0:
189,199,90925,1,0,0:0:0:0:
117,206,91018,1,0,0:0:0:0:
48,191,91111,5,0,0:0:0:0:
93,135,91203,1,0,0:0:0:0:
159,106,91296,1,0,0:0:0:0:
229,94,91388,1,0,0:0:0:0:
298,113,91481,1,0,0:0:0:0:
354,158,91574,1,0,0:0:0:0:
394,217,91666,1,0,0:0:0:0:
407,287,91759,1,0,0:0:0:0:
392,356,91851,5,0,0:0:0:0:
376,312,91944,1,0,0:0:0:0:
340,280,92037,1,0,0:0:0:0:
296,268,92129,1,0,0:0:0:0:
248,276,92222,1,0,0:0:0:0:
296,268,92314,1,0,0:0:0:0:
340,280,92406,1,0,0:0:0:0:
376,312,92499,1,0,0:0:0:0:
392,356,92592,5,0,0:0:0:0:
376,312,92685,1,0,0:0:0:0:
340,280,92778,1,0,0:0:0:0:
296,268,92870,1,0,0:0:0:0:
248,276,92963,1,0,0:0:0:0:
296,268,93055,1,0,0:0:0:0:
340,280,93147,1,0,0:0:0:0:
376,312,93240,1,0,0:0:0:0:
392,356,93333,5,0,0:0:0:0:
376,312,93425,1,0,0:0:0:0:
340,280,93518,1,0,0:0:0:0:
296,268,93611,1,0,0:0:0:0:
248,276,93703,5,0,0:0:0:0:
296,268,93796,1,0,0:0:0:0:
328,236,93888,1,0,0:0:0:0:
344,192,93981,1,0,0:0:0:0:
340,144,94074,5,0,0:0:0:0:
288,112,94166,1,0,0:0:0:0:
228,120,94259,1,0,0:0:0:0:
196,168,94351,1,0,0:0:0:0:
228,120,94444,5,0,0:0:0:0:
196,168,94537,1,0,0:0:0:0:
144,200,94629,1,0,0:0:0:0:
84,196,94722,1,0,0:0:0:0:
44,152,94814,5,0,0:0:0:0:
100,124,94907,1,0,0:0:0:0:
160,124,94999,1,0,0:0:0:0:
208,160,95092,1,0,0:0:0:0:
232,216,95185,1,0,0:0:0:0:
224,276,95277,1,0,0:0:0:0:
188,324,95370,1,0,0:0:0:0:
132,344,95462,1,0,0:0:0:0:
72,328,95555,5,0,0:0:0:0:
116,276,95648,1,0,0:0:0:0:
180,256,95740,1,0,0:0:0:0:
248,260,95833,1,0,0:0:0:0:
308,292,95925,1,0,0:0:0:0:
376,292,96018,1,0,0:0:0:0:
436,260,96111,1,0,0:0:0:0:
472,200,96203,1,0,0:0:0:0:
476,120,96296,5,0,0:0:0:0:
412,72,96388,1,0,0:0:0:0:
364,136,96481,1,0,0:0:0:0:
428,184,96574,1,0,0:0:0:0:
384,116,96666,5,0,0:0:0:0:
304,124,96759,1,0,0:0:0:0:
316,204,96851,1,0,0:0:0:0:
396,196,96944,1,0,0:0:0:0:
320,172,97037,5,0,0:0:0:0:
276,208,97129,1,0,0:0:0:0:
276,264,97222,1,0,0:0:0:0:
304,312,97314,1,0,0:0:0:0:
356,328,97407,5,0,0:0:0:0:
304,312,97499,1,0,0:0:0:0:
248,304,97592,1,0,0:0:0:0:
192,308,97685,1,0,0:0:0:0:
136,328,97777,6,0,L|160:320,1,20
116,160,97962,1,0,0:0:0:0:
96,8,98148,1,0,0:0:0:0:
440,244,98333,6,0,L|440:212,1,20
272,244,98518,1,0,0:0:0:0:
96,244,98703,1,0,0:0:0:0:
376,328,98888,6,0,L|352:320,1,20
396,160,99073,1,0,0:0:0:0:
416,8,99259,1,0,0:0:0:0:
440,140,99444,6,0,L|440:172,1,20
272,140,99629,1,0,0:0:0:0:
96,140,99814,1,0,0:0:0:0:
408,360,99999,6,0,L|436:364,1,20
360,28,100185,1,0,0:0:0:0:
136,348,100370,2,0,L|104:352,1,20
196,32,100555,1,0,0:0:0:0:
304,340,100740,6,0,L|304:364,1,20
292,184,100925,1,0,0:0:0:0:
196,32,101111,1,0,0:0:0:0:
444,252,101296,6,0,L|480:260,1,20
256,208,101481,1,0,0:0:0:0:
84,236,101666,1,0,0:0:0:0:
304,44,101851,6,0,L|304:20,1,20
292,200,102036,1,0,0:0:0:0:
196,352,102222,1,0,0:0:0:0:
444,132,102407,6,0,L|480:124,1,20
256,176,102592,1,0,0:0:0:0:
84,148,102777,1,0,0:0:0:0:
352,32,102962,6,0,L|368:8,1,20
412,284,103148,1,0,0:0:0:0:
160,344,103333,2,0,L|140:368,1,20
100,92,103518,1,0,0:0:0:0:
456,192,103703,6,0,L|436:192,1,20
256,192,103888,1,0,0:0:0:0:
64,192,104074,1,0,0:0:0:0:
176,32,104259,6,0,L|192:64,1,20
256,192,104444,1,0,0:0:0:0:
336,348,104629,1,0,0:0:0:0:
56,192,104814,6,0,L|76:192,1,20
256,192,104999,1,0,0:0:0:0:
448,192,105185,1,0,0:0:0:0:
176,352,105370,6,0,L|192:320,1,20
256,192,105555,1,0,0:0:0:0:
336,36,105740,1,0,0:0:0:0:
368,332,105925,5,0,0:0:0:0:
72,156,106111,1,0,0:0:0:0:
444,156,106296,1,0,0:0:0:0:
152,328,106481,1,0,0:0:0:0:
256,20,106666,5,0,0:0:0:0:
256,52,106759,1,0,0:0:0:0:
256,84,106851,1,0,0:0:0:0:
256,116,106944,1,0,0:0:0:0:
256,148,107037,1,0,0:0:0:0:
256,180,107129,1,0,0:0:0:0:
256,212,107222,1,0,0:0:0:0:
256,244,107314,1,0,0:0:0:0:
256,276,107407,5,0,0:0:0:0:
284,244,107499,1,0,0:0:0:0:
296,200,107592,1,0,0:0:0:0:
288,156,107685,1,0,0:0:0:0:
264,120,107777,1,0,0:0:0:0:
224,100,107870,1,0,0:0:0:0:
180,100,107962,1,0,0:0:0:0:
140,120,108055,1,0,0:0:0:0:
120,160,108148,5,0,0:0:0:0:
180,184,108240,1,0,0:0:0:0:
240,208,108333,1,0,0:0:0:0:
300,232,108425,1,0,0:0:0:0:
360,256,108518,5,0,0:0:0:0:
356,192,108611,1,0,0:0:0:0:
352,128,108703,1,0,0:0:0:0:
348,64,108796,1,0,0:0:0:0:
340,0,108888,5,0,0:0:0:0:
368,56,108981,1,0,0:0:0:0:
420,96,109074,1,0,0:0:0:0:
480,120,109166,1,0,0:0:0:0:
420,96,109259,5,0,0:0:0:0:
480,120,109351,1,0,0:0:0:0:
512,176,109444,1,0,0:0:0:0:
508,240,109537,1,0,0:0:0:0:
488,324,109629,6,0,B|416:296|268:284|176:308|140:320|140:320|180:336|204:356|204:356|188:304|200:248|200:248|264:232|388:236|464:256|464:256|368:216|340:161|340:161|364:96|288:-12|160:16|133:91|133:91|184:124|232:108|232:108|260:116|267:148|267:148|256:180|188:188|124:172|124:172|120:204|131:239|131:239|108:212|83:210|83:210|12:280|53:349|53:349|80:316|76:276|45:206|45:206|16:148|32:60|59:34|59:34|52:84|72:112|72:112,1,2240.0000213623
120,144,115925,1,0,0:0:0:0:
200,152,116296,1,0,0:0:0:0:
268,116,116666,1,0,0:0:0:0:
292,40,117037,5,0,0:0:0:0:
216,64,117407,1,0,0:0:0:0:
164,116,117777,1,0,0:0:0:0:
148,188,118148,1,0,0:0:0:0:
172,264,118518,5,0,0:0:0:0:
244,216,118888,1,0,0:0:0:0:
328,220,119259,1,0,0:0:0:0:
388,280,119629,1,0,0:0:0:0:
408,360,119814,1,0,0:0:0:0:
256,48,120740,6,0,L|252:76,1,20,2|0,0:0|0:0,0:0:0:0:
136,316,121481,6,0,L|219:323,1,80
263,233,121851,2,0,L|184:240,1,80
336,336,122222,1,0,0:0:0:0:
416,148,122407,1,0,0:0:0:0:
440,312,122592,1,0,0:0:0:0:
312,148,122777,1,0,0:0:0:0:
215,322,122962,6,0,L|222:239,1,80
132,195,123332,2,0,L|139:274,1,80
60,324,123703,1,0,0:0:0:0:
80,120,123888,1,0,0:0:0:0:
196,116,124074,1,0,0:0:0:0:
212,320,124259,1,0,0:0:0:0:
196,116,124444,6,0,L|279:108,1,80
280,192,124814,2,0,L|363:199,1,80
424,276,125185,1,0,0:0:0:0:
240,308,125370,1,0,0:0:0:0:
360,168,125555,1,0,0:0:0:0:
352,344,125740,1,0,0:0:0:0:
248,160,125925,6,0,P|228:136|224:12,1,160
188,23,126481,2,0,P|240:81|247:159,1,160
168,220,127037,1,0,0:0:0:0:
160,120,127222,1,0,0:0:0:0:
316,296,127407,5,0,0:0:0:0:
168,220,127592,1,0,0:0:0:0:
344,172,127777,1,0,0:0:0:0:
192,332,127962,1,0,0:0:0:0:
264,108,128148,5,0,0:0:0:0:
244,264,128333,1,0,0:0:0:0:
72,152,128518,1,0,0:0:0:0:
184,76,128703,1,0,0:0:0:0:
144,248,128888,5,0,0:0:0:0:
184,76,129074,1,0,0:0:0:0:
244,264,129259,1,0,0:0:0:0:
56,232,129444,1,0,0:0:0:0:
252,152,129629,5,0,0:0:0:0:
144,248,129814,1,0,0:0:0:0:
184,76,129999,1,0,0:0:0:0:
316,224,130185,1,0,0:0:0:0:
84,148,130370,5,0,0:0:0:0:
84,148,130740,1,0,0:0:0:0:
84,148,131018,5,0,0:0:0:0:
104,152,131110,1,0,0:0:0:0:
340,192,131296,1,0,0:0:0:0:
120,280,131481,1,0,0:0:0:0:
228,52,131666,1,0,0:0:0:0:
280,336,131851,6,0,L|344:344,3,40
344,264,132222,2,0,L|408:256,3,40
368,168,132592,6,0,L|356:152,1,20
344,136,132685,2,0,L|316:120,1,20
308,116,132777,2,0,L|280:116,1,20
268,112,132870,2,0,L|244:120,1,20
228,124,132962,2,0,L|212:140,1,20
192,152,133055,2,0,L|184:176,1,20
176,192,133148,2,0,L|176:224,1,20
176,236,133240,2,0,L|188:268,1,20
192,280,133333,6,0,P|240:320|300:324,1,120.000004577637
308,116,133703,1,0,0:0:0:0:
176,192,133888,1,0,0:0:0:0:
372,280,134074,2,0,P|344:224|276:200,1,120.000004577637
292,336,134444,1,0,0:0:0:0:
432,204,134629,1,0,0:0:0:0:
236,120,134814,6,0,P|172:108|116:144,1,120.000004577637
164,344,135185,1,0,0:0:0:0:
236,120,135370,1,0,0:0:0:0:
72,264,135555,1,0,0:0:0:0:
296,212,135740,1,0,0:0:0:0:
100,136,135925,1,0,0:0:0:0:
280,324,136111,1,0,0:0:0:0:
236,120,136296,6,0,P|188:72|136:72,1,120.000004577637
312,160,136666,2,0,P|377:142|403:97,1,120.000004577637
240,204,137037,1,0,0:0:0:0:
280,384,137222,1,0,0:0:0:0:
368,232,137407,1,0,0:0:0:0:
128,272,137592,1,0,0:0:0:0:
280,384,137777,6,0,P|312:340|496:328,1,240.000009155274
480,340,138333,2,0,P|424:312|412:136,1,240.000009155274
496,220,138888,1,0,0:0:0:0:
220,176,139074,1,0,0:0:0:0:
384,72,139259,5,0,0:0:0:0:
324,328,139444,1,0,0:0:0:0:
240,68,139629,1,0,0:0:0:0:
440,252,139814,1,0,0:0:0:0:
240,68,139999,5,0,0:0:0:0:
180,320,140185,1,0,0:0:0:0:
384,140,140370,1,0,0:0:0:0:
136,164,140555,1,0,0:0:0:0:
384,140,140740,6,0,P|416:200|400:264,1,120.000004577637
272,164,141111,2,0,P|265:222|296:273,1,120.000004577637
340,208,141481,5,0,0:0:0:0:
68,224,141666,1,0,0:0:0:0:
280,336,141851,1,0,0:0:0:0:
264,68,142037,1,0,0:0:0:0:
340,208,142222,5,0,0:0:0:0:
184,216,142407,1,0,0:0:0:0:
420,204,142592,1,0,0:0:0:0:
264,212,142777,1,0,0:0:0:0:
492,200,142962,5,0,0:0:0:0:
340,208,143148,1,0,0:0:0:0:
404,16,143333,1,0,0:0:0:0:
424,324,143518,1,0,0:0:0:0:
200,292,143703,5,0,0:0:0:0:
76,96,143888,1,0,0:0:0:0:
76,96,144074,5,0,0:0:0:0:
72,232,144259,1,0,0:0:0:0:
288,120,144444,1,0,0:0:0:0:
288,120,144629,5,0,0:0:0:0:
200,292,144814,1,0,0:0:0:0:
72,96,145000,1,0,0:0:0:0:
360,272,145185,5,0,0:0:0:0:
156,268,145370,1,0,0:0:0:0:
260,88,145555,1,0,0:0:0:0:
360,272,145740,1,0,0:0:0:0:
116,184,145925,5,0,0:0:0:0:
328,72,146111,1,0,0:0:0:0:
332,320,146296,1,0,0:0:0:0:
116,184,146481,1,0,0:0:0:0:
152,64,146666,5,0,0:0:0:0:
280,172,146851,1,0,0:0:0:0:
460,192,147037,1,0,0:0:0:0:
76,44,147222,5,0,0:0:0:0:
356,108,147407,1,0,0:0:0:0:
168,324,147592,1,0,0:0:0:0:
76,44,147777,1,0,0:0:0:0:
168,324,147962,1,0,0:0:0:0:
76,44,148148,5,0,0:0:0:0:
356,108,148334,1,0,0:0:0:0:
120,204,148519,1,0,0:0:0:0:
336,32,148704,1,0,0:0:0:0:
252,252,148888,5,0,0:0:0:0:
336,32,149074,1,0,0:0:0:0:
440,336,149259,1,0,0:0:0:0:
92,176,149444,1,0,0:0:0:0:
