osu file format v14

[General]
AudioFilename: Atthespeedoflight.mp3
AudioLeadIn: 0
PreviewTime: 159890
Countdown: 1
SampleSet: Soft
StackLeniency: 0.7
Mode: 2
LetterboxInBreaks: 1
WidescreenStoryboard: 1

[Editor]
Bookmarks: 8,5933,50378,62230,85933,160006,195562,231118,243340
DistanceSpacing: 1
BeatDivisor: 16
GridSize: 8
TimelineZoom: 1.702764

[Metadata]
Title:At the Speed of Light
TitleUnicode:At the Speed of Light
Artist:Dimrain47
ArtistUnicode:Dimrain47
Creator:ExGon
Version:Extreme Demon
Source:Newgrounds
Tags:Geometry Dash Cataclysm Bloodbath DakkyChan
BeatmapID:784839
BeatmapSetID:356680

[Difficulty]
HPDrainRate:6
CircleSize:4.4
OverallDifficulty:9.4
ApproachRate:9.4
SliderMultiplier:2.6
SliderTickRate:1

[Events]
//Background and Video events
0,0,"sssdsdsds.jpg",0,0
Video,0,"Cataclysm.avi"
//Break Periods
//Storyboard Layer 0 (Background)
//Storyboard Layer 1 (Fail)
//Storyboard Layer 2 (Pass)
//Storyboard Layer 3 (Foreground)
//Storyboard Sound Samples

[TimingPoints]
9,370.37037037037,4,3,0,30,1,0
9,-200,4,3,0,30,0,0
5101,-200,4,2,0,5,0,0
5194,-200,4,3,0,40,0,0
5911,-200,4,2,0,5,0,0
5934,-80,4,1,0,55,0,1
8897,-71.4285714285714,4,1,0,55,0,1
11860,-80,4,1,0,60,0,0
14453,-80,4,2,0,55,0,0
14823,-71.4285714285714,4,1,0,55,0,1
15194,-71.4285714285714,4,1,0,45,0,1
15379,-71.4285714285714,4,1,0,55,0,1
15934,-71.4285714285714,4,1,0,45,0,1
16120,-71.4285714285714,4,1,0,55,0,1
16675,-71.4285714285714,4,1,0,45,0,1
16860,-71.4285714285714,4,1,0,55,0,1
17416,-71.4285714285714,4,1,0,45,0,1
17601,-71.4285714285714,4,1,0,55,0,1
17786,-76.9230769230769,4,1,0,55,0,0
20749,-76.9230769230769,4,1,0,55,0,1
21120,-80,4,1,0,45,0,1
21212,-80,4,1,0,55,0,1
21860,-80,4,1,0,45,0,1
21953,-80,4,1,0,55,0,1
22601,-80,4,1,0,45,0,1
22694,-80,4,1,0,55,0,1
23342,-68.9655172413793,4,1,0,45,0,1
23434,-68.9655172413793,4,1,0,55,0,1
23712,-80,4,1,0,55,0,0
26675,-80,4,1,0,55,0,1
27046,-80,4,1,0,45,0,1
27231,-80,4,1,0,55,0,1
27786,-80,4,1,0,45,0,1
27971,-80,4,1,0,55,0,1
28527,-80,4,1,0,45,0,1
28712,-80,4,1,0,55,0,1
29268,-80,4,1,0,45,0,1
29453,-80,4,1,0,55,0,1
29638,-80,4,1,0,55,0,0
32601,-80,4,1,0,55,0,1
32971,-80,4,1,0,45,0,1
33157,-80,4,1,0,55,0,1
33712,-80,4,1,0,45,0,1
33897,-80,4,1,0,55,0,1
34453,-80,4,1,0,45,0,1
34638,-80,4,1,0,55,0,1
35194,-80,4,1,0,45,0,1
35379,-80,4,1,0,55,0,1
38527,-76.9230769230769,4,1,0,55,0,0
38712,-76.9230769230769,4,2,0,55,0,0
39083,-71.4285714285714,4,2,0,55,0,0
39638,-66.6666666666667,4,2,0,55,0,0
40194,-62.5,4,2,0,55,0,0
43342,-76.9230769230769,4,2,0,55,0,0
50379,-76.9230769230769,4,1,0,55,0,1
50402,-76.9230769230769,4,2,0,5,0,0
53342,-76.9230769230769,4,1,0,55,0,0
53365,-76.9230769230769,4,2,0,5,0,0
53897,-76.9230769230769,4,1,0,55,0,0
53921,-76.9230769230769,4,2,0,5,0,0
54453,-76.9230769230769,4,1,0,55,0,0
54476,-76.9230769230769,4,2,0,5,0,0
55008,-76.9230769230769,4,1,0,55,0,0
55032,-76.9230769230769,4,2,0,5,0,0
55564,-76.9230769230769,4,1,0,55,0,0
55587,-76.9230769230769,4,2,0,5,0,0
55934,-76.9230769230769,4,1,0,55,0,0
55958,-76.9230769230769,4,2,0,5,0,0
56305,-76.9230769230769,4,1,0,55,0,0
56328,-76.9230769230769,4,2,0,5,0,0
59268,-76.9230769230769,4,1,0,55,0,0
59291,-76.9230769230769,4,2,0,5,0,0
59823,-76.9230769230769,4,1,0,55,0,0
59846,-76.9230769230769,4,2,0,5,0,0
60379,-76.9230769230769,4,1,0,55,0,0
60402,-76.9230769230769,4,2,0,5,0,0
60934,-76.9230769230769,4,1,0,55,0,0
60958,-76.9230769230769,4,2,0,5,0,0
61490,-76.9230769230769,4,1,0,45,0,0
62231,-76.9230769230769,4,1,0,55,0,1
62254,-76.9230769230769,4,1,0,55,0,0
62601,-76.9230769230769,4,1,0,45,0,0
62694,-76.9230769230769,4,1,0,55,0,0
63342,-76.9230769230769,4,1,0,45,0,0
63434,-76.9230769230769,4,1,0,55,0,0
64083,-76.9230769230769,4,1,0,45,0,0
64175,-76.9230769230769,4,1,0,55,0,0
64823,-76.9230769230769,4,1,0,45,0,0
64916,-76.9230769230769,4,1,0,55,0,0
65564,-76.9230769230769,4,1,0,45,0,0
65657,-76.9230769230769,4,1,0,55,0,0
66305,-76.9230769230769,4,1,0,45,0,0
66397,-76.9230769230769,4,1,0,55,0,0
67046,-76.9230769230769,4,1,0,45,0,0
67138,-76.9230769230769,4,1,0,55,0,0
67786,-76.9230769230769,4,1,0,45,0,0
67879,-76.9230769230769,4,1,0,55,0,0
68527,-76.9230769230769,4,1,0,45,0,0
68620,-76.9230769230769,4,1,0,55,0,0
69268,-76.9230769230769,4,1,0,45,0,0
69360,-76.9230769230769,4,1,0,55,0,0
70008,-76.9230769230769,4,1,0,45,0,0
70101,-76.9230769230769,4,1,0,55,0,0
70749,-76.9230769230769,4,1,0,45,0,0
70842,-76.9230769230769,4,1,0,55,0,0
71490,-76.9230769230769,4,1,0,45,0,0
71583,-76.9230769230769,4,1,0,55,0,0
72231,-76.9230769230769,4,1,0,45,0,0
72323,-76.9230769230769,4,1,0,55,0,0
72971,-76.9230769230769,4,1,0,45,0,0
73064,-76.9230769230769,4,1,0,55,0,0
73411,-76.9230769230769,4,2,0,5,0,0
73434,-76.9230769230769,4,1,0,55,0,0
73504,-76.9230769230769,4,2,0,5,0,0
73527,-76.9230769230769,4,1,0,55,0,0
73596,-76.9230769230769,4,2,0,5,0,0
73620,-76.9230769230769,4,1,0,55,0,0
73689,-76.9230769230769,4,2,0,5,0,0
73712,-76.9230769230769,4,1,0,55,0,0
73782,-76.9230769230769,4,2,0,5,0,0
73805,-76.9230769230769,4,1,0,55,0,0
73874,-76.9230769230769,4,2,0,5,0,0
73897,-76.9230769230769,4,1,0,55,0,0
73967,-76.9230769230769,4,2,0,5,0,0
73990,-76.9230769230769,4,1,0,55,0,0
74059,-76.9230769230769,4,2,0,5,0,0
74083,-76.9230769230769,4,1,0,55,0,0
80749,-76.9230769230769,4,1,0,52,0,0
81490,-76.9230769230769,4,1,0,49,0,0
82231,-76.9230769230769,4,1,0,46,0,0
82971,-100,4,1,0,45,0,0
82995,-100,4,2,0,5,0,0
84453,-100,4,1,0,55,0,0
85564,-76.9230769230769,4,1,0,55,0,0
85934,-76.9230769230769,4,1,0,55,0,1
86305,-76.9230769230769,4,1,0,45,0,1
86397,-76.9230769230769,4,1,0,55,0,1
87046,-76.9230769230769,4,1,0,45,0,1
87138,-76.9230769230769,4,1,0,55,0,1
87786,-76.9230769230769,4,1,0,45,0,1
87879,-76.9230769230769,4,1,0,55,0,1
88527,-76.9230769230769,4,1,0,45,0,1
88620,-76.9230769230769,4,1,0,55,0,1
89268,-76.9230769230769,4,1,0,45,0,1
89360,-76.9230769230769,4,1,0,55,0,1
90008,-76.9230769230769,4,1,0,45,0,1
90101,-76.9230769230769,4,1,0,55,0,1
90749,-76.9230769230769,4,1,0,45,0,1
90842,-76.9230769230769,4,1,0,55,0,1
91490,-76.9230769230769,4,1,0,45,0,1
91583,-76.9230769230769,4,1,0,55,0,1
92231,-76.9230769230769,4,1,0,45,0,1
92323,-76.9230769230769,4,1,0,55,0,1
92971,-76.9230769230769,4,1,0,45,0,1
93064,-76.9230769230769,4,1,0,55,0,1
93712,-76.9230769230769,4,1,0,45,0,1
93805,-76.9230769230769,4,1,0,55,0,1
94453,-76.9230769230769,4,1,0,45,0,1
94546,-76.9230769230769,4,1,0,55,0,1
95194,-76.9230769230769,4,1,0,45,0,1
95286,-76.9230769230769,4,1,0,55,0,1
95934,-76.9230769230769,4,1,0,45,0,1
96027,-76.9230769230769,4,1,0,55,0,1
96675,-76.9230769230769,4,1,0,45,0,1
96768,-76.9230769230769,4,1,0,55,0,1
97416,-76.9230769230769,4,1,0,45,0,1
97508,-76.9230769230769,4,1,0,55,0,1
106629,185.185185185185,4,1,0,55,1,1
106663,-100,4,2,0,5,0,1
106675,185.185185185185,4,1,0,55,1,1
106686,-100,4,2,0,5,0,1
106767,-100,4,1,0,55,0,1
106779,-100,4,2,0,5,0,1
106860,-100,4,1,0,55,0,1
106871,-100,4,2,0,5,0,1
106952,-100,4,1,0,55,0,1
106964,-100,4,2,0,5,0,1
107045,-100,4,1,0,55,0,1
107056,-100,4,2,0,5,0,1
107137,-100,4,1,0,55,0,1
107149,-100,4,2,0,5,0,1
107230,-100,4,1,0,55,0,1
107242,-100,4,2,0,5,0,1
107323,-100,4,1,0,55,0,1
107334,-100,4,2,0,5,0,1
107415,-100,4,1,0,55,0,1
107427,-100,4,2,0,5,0,1
107508,-100,4,1,0,55,0,1
107519,-100,4,2,0,5,0,1
107600,-100,4,1,0,55,0,1
107612,-100,4,2,0,5,0,1
107693,-100,4,1,0,55,0,1
107705,-100,4,2,0,5,0,1
107786,-100,4,1,0,55,0,1
107797,-100,4,2,0,5,0,1
107878,-100,4,1,0,55,0,1
107890,-100,4,2,0,5,0,1
107971,-100,4,1,0,55,0,1
107982,-100,4,2,0,5,0,1
108063,-100,4,1,0,55,0,1
108075,-100,4,2,0,5,0,1
108156,-100,4,1,0,55,0,1
108168,-100,4,2,0,5,0,1
108249,-100,4,1,0,55,0,1
108260,-100,4,2,0,5,0,1
108341,-100,4,1,0,55,0,1
108353,-100,4,2,0,5,0,1
108434,-100,4,1,0,55,0,1
108445,-100,4,2,0,5,0,1
108526,-100,4,1,0,55,0,1
108538,-100,4,2,0,5,0,1
108619,-100,4,1,0,55,0,1
108631,-100,4,2,0,5,0,1
108712,-100,4,1,0,55,0,1
108723,-100,4,2,0,5,0,1
108804,-100,4,1,0,55,0,1
108816,-100,4,2,0,5,0,1
108897,-100,4,1,0,55,0,1
108908,-100,4,2,0,5,0,1
108989,-100,4,1,0,55,0,1
109001,-100,4,2,0,5,0,1
109082,-100,4,1,0,55,0,1
109093,-100,4,2,0,5,0,1
109175,-100,4,1,0,55,0,1
109186,-100,4,2,0,5,0,1
109267,-100,4,1,0,55,0,1
109279,-100,4,2,0,5,0,1
109360,-100,4,1,0,55,0,1
109371,-100,4,2,0,5,0,1
109452,-100,4,1,0,55,0,1
109464,-100,4,2,0,5,0,1
109545,-100,4,1,0,55,0,1
109556,-100,4,2,0,5,0,0
109637,370.37037037037,4,1,0,55,1,1
109660,-100,4,1,0,45,0,0
120007,-100,4,2,0,5,0,0
121488,-100,4,1,0,52,0,1
121511,-100,4,1,0,52,0,0
121859,-100,4,1,0,42,0,0
122044,-100,4,1,0,52,0,0
122599,-100,4,1,0,42,0,0
122785,-100,4,1,0,52,0,0
123340,-100,4,1,0,42,0,0
123525,-100,4,1,0,52,0,0
124081,-100,4,1,0,42,0,0
124266,-100,4,1,0,52,0,0
124822,-100,4,1,0,42,0,0
125007,-100,4,1,0,52,0,0
125562,-100,4,1,0,42,0,0
125748,-100,4,1,0,52,0,0
126303,-100,4,1,0,42,0,0
126488,-100,4,1,0,52,0,0
127044,-100,4,1,0,42,0,0
127229,-100,4,1,0,52,0,0
127785,-100,4,1,0,42,0,0
127970,-100,4,1,0,52,0,0
128525,-100,4,1,0,42,0,0
128711,-100,4,1,0,52,0,0
129266,-100,4,1,0,42,0,0
129451,-100,4,1,0,52,0,0
130007,-100,4,1,0,42,0,0
130192,-100,4,1,0,52,0,0
130748,-100,4,1,0,42,0,0
130933,-100,4,1,0,52,0,0
131488,-100,4,1,0,42,0,0
131674,-100,4,1,0,52,0,0
132229,-100,4,1,0,42,0,0
132322,-100,4,1,0,52,0,0
133340,-66.6666666666667,4,1,0,55,0,1
133363,-66.6666666666667,4,1,0,55,0,1
133711,-66.6666666666667,4,1,0,45,0,1
133896,-66.6666666666667,4,1,0,55,0,1
134451,-66.6666666666667,4,1,0,45,0,1
134636,-66.6666666666667,4,1,0,55,0,1
135192,-66.6666666666667,4,1,0,45,0,1
135377,-66.6666666666667,4,1,0,55,0,1
135933,-66.6666666666667,4,1,0,45,0,1
136118,-66.6666666666667,4,1,0,55,0,1
136674,-66.6666666666667,4,1,0,45,0,1
136859,-66.6666666666667,4,1,0,55,0,1
137414,-66.6666666666667,4,1,0,45,0,1
137599,-66.6666666666667,4,1,0,55,0,1
138155,-66.6666666666667,4,1,0,45,0,1
138340,-66.6666666666667,4,1,0,55,0,1
138896,-66.6666666666667,4,1,0,45,0,1
139081,-66.6666666666667,4,1,0,55,0,1
139636,-66.6666666666667,4,1,0,45,0,1
139822,-66.6666666666667,4,1,0,55,0,1
140377,-66.6666666666667,4,1,0,45,0,1
140562,-66.6666666666667,4,1,0,55,0,1
141118,-66.6666666666667,4,1,0,45,0,1
141303,-66.6666666666667,4,1,0,55,0,1
141859,-66.6666666666667,4,1,0,45,0,1
142044,-66.6666666666667,4,1,0,55,0,1
142599,-66.6666666666667,4,1,0,45,0,1
142785,-66.6666666666667,4,1,0,55,0,1
143340,-66.6666666666667,4,1,0,45,0,1
143525,-66.6666666666667,4,1,0,55,0,1
144081,-66.6666666666667,4,1,0,45,0,1
144266,-66.6666666666667,4,1,0,55,0,1
144822,-66.6666666666667,4,1,0,45,0,1
145007,-66.6666666666667,4,1,0,55,0,1
145169,-66.6666666666667,4,1,0,55,0,0
145192,-100,4,1,0,55,0,1
145215,-100,4,2,0,5,0,1
145377,-100,4,1,0,55,0,1
145470,-100,4,2,0,5,0,1
145562,-100,4,1,0,45,0,1
145655,-100,4,2,0,5,0,1
145748,-100,4,1,0,55,0,1
145840,-100,4,2,0,5,0,1
145933,-100,4,1,0,55,0,1
146025,-100,4,2,0,5,0,1
146118,-100,4,1,0,55,0,1
146211,-100,4,2,0,5,0,1
146303,-100,4,1,0,45,0,1
146396,-100,4,2,0,5,0,1
146488,-100,4,1,0,55,0,1
146581,-100,4,2,0,5,0,1
146674,-100,4,1,0,55,0,1
146766,-100,4,2,0,5,0,1
146859,-100,4,1,0,55,0,1
146951,-100,4,2,0,5,0,1
147044,-100,4,1,0,45,0,1
147136,-100,4,2,0,5,0,1
147229,-100,4,1,0,55,0,1
147322,-100,4,2,0,5,0,1
147599,-100,4,1,0,55,0,1
147692,-100,4,2,0,5,0,1
147785,-100,4,1,0,45,0,1
147877,-100,4,2,0,5,0,1
147970,-100,4,1,0,55,0,1
148062,-100,4,2,0,5,0,1
148155,-100,4,1,0,55,0,1
148248,-100,4,2,0,5,0,1
148525,-100,4,1,0,45,0,1
148618,-100,4,2,0,5,0,1
148896,-100,4,1,0,55,0,1
148988,-100,4,2,0,5,0,1
149081,-100,4,1,0,55,0,1
149174,-100,4,2,0,5,0,1
149266,-100,4,1,0,45,0,1
149359,-100,4,2,0,5,0,1
149636,-100,4,1,0,55,0,1
149729,-100,4,2,0,5,0,1
150007,-100,4,1,0,45,0,1
150099,-100,4,2,0,5,0,1
150192,-100,4,1,0,55,0,1
150285,-100,4,2,0,5,0,1
150562,-100,4,1,0,55,0,1
150655,-100,4,2,0,5,0,1
150748,-100,4,1,0,45,0,1
150840,-100,4,2,0,5,0,1
150933,-100,4,1,0,55,0,1
151025,-100,4,2,0,5,0,1
151118,-50,4,1,0,55,0,1
151211,-50,4,2,0,5,0,1
151303,-50,4,1,0,55,0,1
151396,-50,4,2,0,5,0,1
151488,-50,4,1,0,45,0,1
151581,-50,4,2,0,5,0,1
151674,-50,4,1,0,55,0,1
151766,-50,4,2,0,5,0,1
151859,-50,4,1,0,55,0,1
151951,-50,4,2,0,5,0,1
152044,-50,4,1,0,55,0,1
152136,-50,4,2,0,5,0,1
152229,-50,4,1,0,45,0,1
152322,-50,4,2,0,5,0,1
152414,-50,4,1,0,55,0,1
152507,-50,4,2,0,5,0,1
152599,-50,4,1,0,55,0,1
152692,-50,4,2,0,5,0,1
152785,-50,4,1,0,55,0,1
152877,-50,4,2,0,5,0,1
152970,-50,4,1,0,45,0,1
153062,-50,4,2,0,5,0,1
153155,-50,4,1,0,55,0,1
153248,-50,4,2,0,5,0,1
153525,-50,4,1,0,55,0,1
153618,-50,4,2,0,5,0,1
153711,-50,4,1,0,45,0,1
153803,-50,4,2,0,5,0,1
153896,-50,4,1,0,55,0,1
153988,-50,4,2,0,5,0,1
154081,-50,4,1,0,55,0,1
154174,-50,4,2,0,5,0,1
154451,-50,4,1,0,45,0,1
154544,-50,4,2,0,5,0,1
154822,-50,4,1,0,55,0,1
154914,-50,4,2,0,5,0,1
155007,-50,4,1,0,55,0,1
155099,-50,4,2,0,5,0,1
155192,-50,4,1,0,45,0,1
155285,-50,4,2,0,5,0,1
155562,-50,4,1,0,55,0,1
155655,-50,4,2,0,5,0,1
155933,-50,4,1,0,45,0,1
156025,-50,4,2,0,5,0,1
156118,-50,4,1,0,55,0,1
156211,-50,4,2,0,5,0,1
156303,-100,4,1,0,55,0,1
156349,-100,4,2,0,5,0,1
156396,-100,4,1,0,55,0,1
156442,-100,4,2,0,5,0,1
156488,-100,4,1,0,55,0,1
156535,-100,4,2,0,5,0,1
156581,-100,4,1,0,55,0,1
156627,-100,4,2,0,5,0,1
156674,-100,4,1,0,55,0,1
156720,-100,4,2,0,5,0,1
156766,-100,4,1,0,55,0,1
156812,-100,4,2,0,5,0,1
156859,-100,4,1,0,55,0,1
156905,-100,4,2,0,5,0,1
156951,-100,4,1,0,55,0,1
156998,-100,4,2,0,5,0,1
157044,-100,4,1,0,55,0,0
158525,-50,4,1,0,60,0,0
159289,-50,4,2,0,5,0,0
159636,-100,4,1,0,55,0,0
160007,-100,4,1,0,55,0,1
160030,-100,4,1,0,55,0,1
160377,-100,4,1,0,45,0,1
160562,-100,4,1,0,55,0,1
161118,-100,4,1,0,45,0,1
161303,-71.4285714285714,4,1,0,55,0,1
161859,-71.4285714285714,4,1,0,45,0,1
162044,-71.4285714285714,4,1,0,55,0,1
162599,-71.4285714285714,4,1,0,45,0,1
162785,-71.4285714285714,4,1,0,55,0,1
162970,-71.4285714285714,4,1,0,55,0,0
165933,-71.4285714285714,4,1,0,55,0,1
166303,-71.4285714285714,4,1,0,45,0,1
166488,-71.4285714285714,4,1,0,55,0,1
167044,-71.4285714285714,4,1,0,45,0,1
167229,-71.4285714285714,4,1,0,55,0,1
167785,-71.4285714285714,4,1,0,45,0,1
167970,-71.4285714285714,4,1,0,55,0,1
168525,-71.4285714285714,4,1,0,45,0,1
168711,-71.4285714285714,4,1,0,55,0,1
168896,-71.4285714285714,4,1,0,55,0,0
171859,-71.4285714285714,4,1,0,55,0,1
172229,-71.4285714285714,4,1,0,45,0,1
172414,-71.4285714285714,4,1,0,55,0,1
172970,-71.4285714285714,4,1,0,45,0,1
173155,-71.4285714285714,4,1,0,55,0,1
173711,-71.4285714285714,4,1,0,45,0,1
173896,-71.4285714285714,4,1,0,55,0,1
174451,-71.4285714285714,4,1,0,45,0,1
174636,-71.4285714285714,4,1,0,55,0,1
174822,-71.4285714285714,4,1,0,55,0,0
177785,-71.4285714285714,4,1,0,55,0,1
178155,-71.4285714285714,4,1,0,45,0,1
178248,-71.4285714285714,4,1,0,55,0,1
178896,-71.4285714285714,4,1,0,45,0,1
178988,-71.4285714285714,4,1,0,55,0,1
179636,-71.4285714285714,4,1,0,45,0,1
179729,-71.4285714285714,4,1,0,55,0,1
180377,-71.4285714285714,4,1,0,45,0,1
180470,-71.4285714285714,4,1,0,55,0,1
183711,-71.4285714285714,4,1,0,55,0,0
183896,-71.4285714285714,4,2,0,55,0,0
194266,-71.4285714285714,4,2,0,60,0,0
194451,-71.4285714285714,4,2,0,65,0,0
194636,-71.4285714285714,4,2,0,70,0,0
194822,-71.4285714285714,4,2,0,75,0,0
195007,-71.4285714285714,4,2,0,80,0,0
195192,-71.4285714285714,4,2,0,85,0,0
195377,-71.4285714285714,4,2,0,90,0,0
195562,-66.6666666666667,4,1,0,55,0,1
195586,-66.6666666666667,4,1,0,55,0,0
200748,-100,4,1,0,60,0,0
201118,-66.6666666666667,4,1,0,60,0,0
201488,-66.6666666666667,4,1,0,55,0,0
206674,-66.6666666666667,4,1,0,60,0,0
207414,-66.6666666666667,4,1,0,55,0,1
212599,-100,4,1,0,60,0,1
212970,-66.6666666666667,4,1,0,60,0,1
213340,-66.6666666666667,4,1,0,55,0,1
218525,-66.6666666666667,4,1,0,60,0,1
219243,-66.6666666666667,4,1,0,55,0,0
219266,-66.6666666666667,4,1,0,55,0,1
221859,-66.6666666666667,4,1,0,60,0,1
222414,-66.6666666666667,4,1,0,55,0,1
224822,-66.6666666666667,4,1,0,60,0,1
225377,-66.6666666666667,4,1,0,55,0,1
227785,-66.6666666666667,4,1,0,60,0,1
228340,-66.6666666666667,4,1,0,55,0,1
230377,-66.6666666666667,4,1,0,60,0,1
231095,-66.6666666666667,4,1,0,55,0,0
231118,-66.6666666666667,4,1,0,70,0,1
231141,-66.6666666666667,4,2,0,60,0,0
244081,-66.6666666666667,4,2,0,58,0,0
244451,-66.6666666666667,4,2,0,54,0,0
244822,-66.6666666666667,4,2,0,50,0,0
245192,-66.6666666666667,4,2,0,46,0,0
245562,-66.6666666666667,4,2,0,42,0,0
245933,-66.6666666666667,4,2,0,38,0,0
246303,-66.6666666666667,4,2,0,34,0,0
246674,-66.6666666666667,4,2,0,30,0,0
247044,-66.6666666666667,4,2,0,26,0,0
247414,-66.6666666666667,4,2,0,22,0,0
247785,-66.6666666666667,4,2,0,18,0,0
248155,-66.6666666666667,4,2,0,14,0,0
248525,-66.6666666666667,4,2,0,10,0,0
248896,-66.6666666666667,4,2,0,5,0,0

[HitObjects]
80,144,78,6,0,B|48:64|48:64|128:48|224:144,1,260
160,256,1189,1,0,0:0:0:0:
432,144,1559,2,0,B|464:64|464:64|384:48|288:144,1,260
352,256,2671,1,0,0:0:0:0:
144,160,3041,6,0,P|256:104|368:160,1,260
256,288,4152,1,0,0:0:0:0:
100,312,4522,6,0,P|196:280|328:272,1,227.5
412,72,5263,2,0,P|316:104|184:112,1,227.5
80,64,5934,5,4,0:0:0:0:
400,64,6120,1,0,0:0:0:0:
96,232,6305,2,0,L|8:232,1,81.25,8|0,0:3|0:0,0:0:0:0:
232,232,6490,2,0,L|320:232,1,81.25
120,152,6675,2,0,L|32:152,1,81.25,8|0,0:3|0:0,0:0:0:0:
248,152,6860,2,0,L|352:152,1,81.25
152,72,7046,2,0,L|64:72,1,81.25,8|0,0:3|0:0,0:0:0:0:
264,72,7231,2,0,L|352:72,1,81.25
496,64,7416,5,4,0:0:0:0:
128,160,7601,2,0,L|32:160,3,81.25,0|0|8|0,0:0|0:0|0:3|0:0,0:0:0:0:
384,160,7971,2,0,L|480:160,3,81.25,0|0|8|0,0:0|0:0|0:3|0:0,0:0:0:0:
160,224,8342,2,0,L|32:224,3,81.25,0|0|8|0,0:0|0:0|0:3|0:0,0:0:0:0:
256,224,8712,2,0,L|384:224,1,81.25
512,128,8897,6,0,L|304:128,2,181.999994445801,4|0|8,0:0|0:0|0:3,0:0:0:0:
256,192,9453,1,0,0:0:0:0:
0,128,9638,2,0,L|192:128,2,181.999994445801,4|0|8,0:0|0:0|0:3,0:0:0:0:
256,192,10194,1,0,0:0:0:0:
464,96,10379,6,0,B|365:96|365:96|272:96,1,181.999994445801,4|0,0:0|0:0,0:0:0:0:
48,64,10749,2,0,B|146:64|146:64|240:64,1,181.999994445801,4|0,0:0|0:0,0:0:0:0:
368,64,11120,5,4,0:0:0:0:
160,96,11305,1,0,0:0:0:0:
384,160,11490,1,4,0:0:0:0:
128,192,11675,1,0,0:0:0:0:
416,240,11860,6,0,L|512:240,1,81.25,4|0,0:0|0:0,0:0:0:0:
336,240,12046,2,0,L|240:240,1,81.25
96,240,12231,2,0,L|-16:240,1,81.25,4|0,0:0|0:0,0:0:0:0:
173,240,12416,2,0,L|269:240,1,81.25
416,240,12601,6,0,L|512:240,1,81.25,4|0,0:0|0:0,0:0:0:0:
112,240,12786,2,0,L|16:240,1,81.25
448,192,12971,2,0,L|464:96,1,81.25,4|0,0:0|0:0,0:0:0:0:
64,176,13157,2,0,L|48:80,1,81.25
496,80,13342,6,0,L|414:80,1,81.25,8|8,0:3|0:3,0:0:0:0:
16,80,13527,2,0,L|97:80,1,81.25
496,144,13712,2,0,L|414:144,1,81.25,8|8,0:3|0:3,0:0:0:0:
16,144,13897,2,0,L|97:144,1,81.25
304,64,14083,6,0,B|384:112|384:112|448:144|448:144|288:64,1,325,4|0,2:2|0:0,0:0:0:0:
224,64,14546,1,2,0:0:0:0:
144,64,14638,1,2,0:0:0:0:
224,64,14731,1,2,0:0:0:0:
304,64,14823,6,0,L|496:64,1,181.999994445801,4|0,0:0|0:0,0:0:0:0:
192,144,15194,2,8,L|-16:144,1,181.999994445801,8|0,2:1|0:0,0:0:0:0:
336,144,15564,2,0,L|128:144,1,181.999994445801
480,144,15934,2,0,L|272:144,1,181.999994445801,8|0,2:1|0:0,0:0:0:0:
208,288,16305,6,0,L|16:288,2,181.999994445801,0|0|8,0:0|0:0|2:1,0:0:0:0:
512,224,16860,2,0,L|330:224,2,181.999994445801
192,224,17416,2,0,L|0:224,1,181.999994445801,8|0,2:1|0:0,0:0:0:0:
416,144,17786,6,0,L|512:144,1,84.4999961318971,2|0,0:2|0:0,0:0:0:0:
416,80,17971,2,0,L|400:80|320:80,1,84.4999961318971,0|2,0:0|0:2,0:0:0:0:
96,144,18157,2,0,L|-16:144,1,84.4999961318971
96,80,18342,2,0,L|192:80,1,84.4999961318971,2|0,0:2|0:0,0:0:0:0:
352,144,18527,2,0,L|448:80,1,84.4999961318971,0|2,0:0|0:2,0:0:0:0:
176,224,18712,2,0,L|96:160,1,84.4999961318971
398,224,18897,2,0,L|320:272,1,84.4999961318971,2|2,0:2|0:2,0:0:0:0:
144,256,19083,2,0,L|48:176,1,84.4999961318971
480,160,19268,6,0,L|496:64,1,84.4999961318971,2|0,0:2|0:0,0:0:0:0:
32,160,19453,2,0,L|16:64,1,84.4999961318971,0|2,0:0|0:2,0:0:0:0:
480,160,19638,2,0,L|464:64,1,84.4999961318971
0,160,19823,2,0,L|16:48,1,84.4999961318971,2|0,0:2|0:0,0:0:0:0:
352,240,20008,2,0,L|464:176,1,84.4999961318971,0|2,0:0|0:2,0:0:0:0:
160,240,20194,2,0,L|64:176,1,84.4999961318971
496,160,20379,2,0,L|512:64,1,84.4999961318971,2|0,0:2|0:0,0:0:0:0:
32,160,20564,2,0,L|16:64,1,84.4999961318971,2|0,0:2|0:0,0:0:0:0:
256,288,20749,5,0,0:0:0:0:
432,288,20934,1,0,0:0:0:0:
144,288,21120,2,0,L|48:288,1,81.25,8|0,2:1|0:0,0:0:0:0:
336,288,21305,2,0,L|432:288,1,81.25
256,288,21490,5,0,0:0:0:0:
496,288,21675,1,0,0:0:0:0:
128,208,21860,2,0,L|32:144,1,81.25,8|0,2:1|0:0,0:0:0:0:
400,192,22046,2,0,L|304:128,1,81.25
32,208,22231,5,0,0:0:0:0:
304,208,22416,1,0,0:0:0:0:
64,192,22601,2,0,B|64:103|64:103|144:100,1,162.5,8|0,2:1|0:0,0:0:0:0:
464,39,22971,2,0,B|464:128|464:128|388:132,1,162.5
64,32,23342,6,0,L|496:32,1,377.000011505127,8|2,2:1|0:2,0:0:0:0:
432,144,23805,6,0,L|432:256,1,81.25
256,144,23990,2,0,L|256:256,1,81.25,2|0,0:2|0:0,0:0:0:0:
64,144,24175,2,0,L|64:240,1,81.25,0|2,0:0|0:2,0:0:0:0:
256,144,24360,2,0,L|256:256,1,81.25
464,144,24546,2,0,L|464:240,1,81.25,2|0,0:2|0:0,0:0:0:0:
256,144,24731,2,0,L|256:240,1,81.25,0|2,0:0|0:2,0:0:0:0:
32,144,24916,2,0,L|32:240,1,81.25,2|0,0:2|0:2,0:0:0:0:
256,144,25101,2,0,L|256:240,1,81.25,0|2,0:0|0:2,0:0:0:0:
448,144,25286,6,0,L|464:256,1,81.25
64,144,25471,2,0,L|48:256,1,81.25,2|0,0:2|0:0,0:0:0:0:
464,144,25657,2,0,L|480:240,1,81.25,0|2,0:0|0:2,0:0:0:0:
48,144,25842,2,0,L|32:240,1,81.25,0|8,0:0|0:3,0:0:0:0:
480,144,26027,2,0,L|496:240,1,81.25,8|0,0:3|0:0,0:0:0:0:
34,142,26212,2,0,L|16:240,1,81.25,0|8,0:0|0:3,0:0:0:0:
493,142,26397,2,0,L|512:240,1,81.25,8|0,0:3|0:0,0:0:0:0:
16,144,26583,2,0,L|0:240,1,81.25,0|4,0:0|0:0,0:0:0:0:
288,176,26860,5,0,0:0:0:0:
496,176,27046,1,8,2:1:0:0:
256,128,27231,1,0,0:0:0:0:
464,128,27416,1,0,0:0:0:0:
176,128,27601,1,0,0:0:0:0:
432,128,27786,1,8,2:1:0:0:
144,176,27971,1,0,0:0:0:0:
464,176,28157,6,0,L|256:176,1,162.5
48,176,28527,2,0,L|224:176,1,162.5,8|0,2:1|0:0,0:0:0:0:
496,48,28897,1,0,0:0:0:0:
192,48,29083,1,0,0:0:0:0:
480,112,29268,1,8,2:1:0:0:
104,112,29453,1,0,0:0:0:0:
256,304,29638,6,0,L|144:304,1,81.25,2|0,0:2|0:0,0:0:0:0:
256,304,29823,2,0,L|352:304,1,81.25,0|2,0:0|0:2,0:0:0:0:
112,240,30008,2,0,L|80:128,1,81.25
384,240,30194,2,0,L|416:144,1,81.25,2|0,0:2|0:0,0:0:0:0:
160,240,30379,2,0,L|128:144,1,81.25,0|2,0:0|0:2,0:0:0:0:
352,240,30564,2,0,L|320:160,1,81.25
80,240,30749,2,0,L|112:144,1,81.25,2|0,0:2|0:2,0:0:0:0:
352,240,30934,2,0,L|384:144,1,81.25,2|0,0:2|0:0,0:0:0:0:
112,96,31120,6,0,L|64:0,1,81.25,2|0,0:2|0:0,0:0:0:0:
432,96,31305,2,0,L|384:0,1,81.25,0|2,0:0|0:2,0:0:0:0:
112,96,31490,2,0,L|48:32,1,81.25
432,96,31675,2,0,L|368:32,1,81.25,2|0,0:2|0:0,0:0:0:0:
112,96,31860,2,0,L|0:32,1,81.25,0|2,0:0|0:2,0:0:0:0:
432,96,32046,2,0,L|352:48,1,81.25
112,96,32231,2,0,L|0:80,1,81.25,2|2,0:2|0:2,0:0:0:0:
432,96,32416,2,0,L|336:80,1,81.25
96,240,32601,6,0,B|32:192|32:192|112:128,1,162.5
256,192,32971,1,8,2:1:0:0:
96,240,33157,2,0,B|32:192|32:192|112:128,1,162.5
384,192,33527,1,0,0:0:0:0:
96,240,33712,2,0,B|32:192|32:192|112:128,1,162.5,8|0,2:1|0:0,0:0:0:0:
512,192,34083,5,0,0:0:0:0:
16,178,34268,2,0,B|16:128|16:128|128:125,1,162.5,0|8,0:0|2:1,0:0:0:0:
496,141,34638,2,0,B|496:192|496:192|384:192,1,162.5
128,192,35008,1,0,0:0:0:0:
320,192,35194,1,8,2:1:0:0:
32,112,35379,1,0,0:0:0:0:
416,120,35564,6,0,L|480:56,1,81.25,8|0,0:3|0:0,0:0:0:0:
312,120,35749,2,0,L|376:56,1,81.25
112,128,35934,2,0,L|48:64,1,81.25,8|0,0:3|0:0,0:0:0:0:
216,120,36120,2,0,L|160:56,1,81.25
464,176,36305,2,0,L|352:128,3,81.25,8|0|0|0,0:3|0:0|0:0|0:0,0:0:0:0:
48,176,36675,2,0,L|128:128,3,81.25,8|0|0|0,0:3|0:0|0:0|0:0,0:0:0:0:
464,256,37046,6,0,L|480:160,1,81.25,8|0,0:3|0:0,0:0:0:0:
48,240,37231,2,0,L|32:160,1,81.25,8|0,0:3|0:0,0:0:0:0:
464,256,37416,2,0,L|496:176,1,81.25,8|0,0:3|0:0,0:0:0:0:
48,240,37601,2,0,L|16:144,1,81.25,8|0,0:3|0:0,0:0:0:0:
256,176,37786,1,8,0:3:0:0:
480,176,37879,1,8,0:3:0:0:
256,176,37971,1,8,0:3:0:0:
32,176,38064,1,8,0:3:0:0:
256,176,38157,1,8,0:3:0:0:
480,176,38249,1,8,0:3:0:0:
256,176,38342,1,8,0:3:0:0:
32,176,38434,1,8,0:3:0:0:
208,32,38527,6,0,L|377:32,1,168.999992263794,4|0,0:0|0:0,0:0:0:0:
32,32,38897,1,0,0:0:0:0:
304,32,39083,2,0,L|122:32,1,181.999994445801
480,32,39453,1,0,0:0:0:0:
208,32,39638,2,0,L|403:32,1,195.00000743866
32,32,40008,5,0,0:0:0:0:
304,32,40194,2,0,L|80:32,1,208
480,32,40564,1,0,0:0:0:0:
168,192,40749,1,0,0:0:0:0:
344,192,40934,1,0,0:0:0:0:
32,192,41120,1,0,0:0:0:0:
480,192,41305,1,0,0:0:0:0:
96,256,41490,5,0,0:0:0:0:
256,256,41675,1,0,0:0:0:0:
416,256,41860,1,0,0:0:0:0:
64,192,42046,1,0,0:0:0:0:
448,192,42231,1,0,0:0:0:0:
256,192,42416,1,0,0:0:0:0:
364,112,42601,1,0,0:0:0:0:
148,112,42786,1,0,0:0:0:0:
364,48,42971,5,0,0:0:0:0:
148,48,43157,1,0,0:0:0:0:
368,160,43342,2,0,L|496:304,1,168.999992263794
144,160,43712,2,0,L|16:304,1,168.999992263794
176,192,44083,1,0,0:0:0:0:
64,192,44175,1,0,0:0:0:0:
176,192,44268,1,0,0:0:0:0:
304,272,44453,6,0,L|480:272,1,168.999992263794
256,272,44823,2,0,L|432:272,1,168.999992263794
208,272,45194,2,0,L|400:272,1,168.999992263794
160,272,45564,2,0,L|336:272,1,168.999992263794
224,208,45934,6,0,L|32:208,1,168.999992263794
272,208,46305,2,0,L|96:208,1,168.999992263794
320,208,46675,2,0,L|128:208,1,168.999992263794
368,208,47046,2,0,L|192:208,1,168.999992263794
88,204,47416,5,2,0:0:0:0:
256,176,47601,1,0,0:0:0:0:
432,144,47786,1,0,0:0:0:0:
80,144,47971,1,2,0:0:0:0:
448,96,48342,1,2,0:0:0:0:
72,96,48712,1,2,0:0:0:0:
424,96,49083,5,2,0:0:0:0:
232,200,49268,1,0,0:0:0:0:
416,200,49453,1,0,0:0:0:0:
96,200,49638,1,2,0:0:0:0:
472,288,50008,1,2,0:0:0:0:
40,288,50379,5,4,0:0:0:0:
256,192,50911,12,0,50934,0:0:0:0:
256,192,51467,12,0,51490,0:0:0:0:
256,192,52022,12,0,52046,0:0:0:0:
256,192,52578,12,0,52601,0:0:0:0:
256,192,52948,12,0,52971,0:0:0:0:
98,290,53342,6,0,B|224:384|256:288|224:192|224:192|80:192|128:64|192:64,1,485.874977758409
321,64,53897,6,0,B|384:64|432:192|288:192|288:192|256:288|288:384|413:290,1,485.874977758409
433,223,54453,6,0,B|512:192|512:192|400:144|400:144|528:128|496:0|325:61,1,485.874977758409,0|0,0:3|0:3,0:3:0:0:
186,61,55008,6,0,B|16:0|-16:128|112:144|112:144|0:192|0:192|78:223,1,485.874977758409,0|0,0:3|0:3,0:3:0:0:
436,256,55564,6,0,B|516:192|580:192|580:192|516:192|439:130,1,316.874985494614
76,128,55934,6,0,B|-4:192|-68:192|-68:192|-4:192|73:254,1,316.874985494614
512,192,56305,5,4,0:0:0:0:
256,192,56837,12,0,56860,0:0:0:0:
256,192,57393,12,0,57416,0:0:0:0:
256,192,57948,12,0,57971,0:0:0:0:
256,192,58504,12,0,58527,0:0:0:0:
256,192,58874,12,0,58897,0:0:0:0:
320,64,59268,6,0,B|480:64|544:160|512:256|448:320|448:320|352:288,1,485.874977758409
192,64,59823,6,0,B|32:64|-32:160|0:256|64:320|64:320|160:288,1,485.874977758409
400,112,60379,6,0,P|512:268|363:208,1,485.874977758409
112,112,60934,6,0,P|0:268|149:208,1,485.874977758409
512,192,61490,5,12,2:1:0:0:
0,192,61860,5,12,2:1:0:0:
256,64,62231,6,0,L|352:32,1,84.4999961318971,4|0,0:0|0:0,0:0:0:0:
256,128,62416,2,0,L|352:96,1,84.4999961318971,2|0,0:2|0:0,0:0:0:0:
256,192,62601,2,0,L|352:160,1,84.4999961318971,8|0,2:1|0:0,0:0:0:0:
256,256,62786,2,0,L|352:224,1,84.4999961318971,2|0,0:2|0:0,0:0:0:0:
416,240,62971,2,0,L|512:208,1,84.4999961318971
416,176,63157,2,0,L|512:144,1,84.4999961318971,2|0,0:2|0:0,0:0:0:0:
416,112,63342,2,0,L|512:80,1,84.4999961318971,8|0,2:1|0:0,0:0:0:0:
416,48,63527,2,0,L|512:16,1,84.4999961318971,2|0,0:2|0:0,0:0:0:0:
320,48,63712,6,0,L|208:16,1,84.4999961318971
320,112,63897,2,0,L|208:80,1,84.4999961318971,2|0,0:2|0:0,0:0:0:0:
320,176,64083,2,0,L|208:144,1,84.4999961318971,8|0,2:1|0:0,0:0:0:0:
320,240,64268,2,0,L|208:208,1,84.4999961318971,2|0,0:2|0:0,0:0:0:0:
160,32,64453,2,0,L|48:0,1,84.4999961318971
160,96,64638,2,0,L|48:64,1,84.4999961318971,2|0,0:2|0:0,0:0:0:0:
160,160,64823,2,0,L|48:128,1,84.4999961318971,8|0,2:1|0:0,0:0:0:0:
160,224,65008,2,0,L|48:192,1,84.4999961318971
160,224,65194,6,0,L|256:192,1,84.4999961318971
320,192,65379,2,0,L|416:192,1,84.4999961318971,2|0,0:2|0:0,0:0:0:0:
432,128,65564,2,0,L|448:32,1,84.4999961318971,8|0,2:1|0:0,0:0:0:0:
192,192,65749,2,0,L|48:192,1,84.4999961318971,2|0,0:2|0:0,0:0:0:0:
80,128,65934,2,0,L|64:32,1,84.4999961318971
432,192,66120,2,0,L|400:96,1,84.4999961318971,2|0,0:2|0:0,0:0:0:0:
368,48,66305,2,0,L|272:48,1,84.4999961318971,8|0,2:1|0:0,0:0:0:0:
80,192,66490,2,0,L|112:96,1,84.4999961318971,2|0,0:2|0:0,0:0:0:0:
144,48,66675,6,0,L|248:48,1,84.4999961318971
48,288,66860,2,0,L|32:200,3,84.4999961318971,2|0|8|0,0:2|0:0|2:1|0:0,0:0:0:0:
464,288,67231,2,0,L|480:200,3,84.4999961318971,2|0|0|0,0:2|0:0|0:0|0:0,0:0:0:0:
224,192,67601,2,0,L|120:184,1,84.4999961318971,2|0,0:2|0:0,0:0:0:0:
64,160,67786,2,0,L|8:88,1,84.4999961318971,8|0,2:1|0:0,0:0:0:0:
288,192,67971,2,0,L|376:184,1,84.4999961318971
448,160,68157,6,0,L|504:88,1,84.4999961318971
112,80,68342,2,0,L|192:32,1,84.4999961318971,2|0,0:2|0:0,0:0:0:0:
336,80,68527,2,0,L|416:32,1,84.4999961318971,8|0,2:1|0:0,0:0:0:0:
64,160,68712,2,0,L|176:96,1,84.4999961318971,2|0,0:2|0:0,0:0:0:0:
384,160,68897,2,0,L|464:112,1,84.4999961318971
176,208,69083,2,0,P|160:168|200:112,1,84.4999961318971,2|0,0:2|0:0,0:0:0:0:
344,208,69268,2,0,P|352:168|304:112,1,84.4999961318971,8|0,2:1|0:0,0:0:0:0:
96,208,69453,2,0,P|80:168|120:112,1,84.4999961318971,2|0,0:2|0:0,0:0:0:0:
424,208,69638,6,0,P|432:168|384:112,1,84.4999961318971
48,152,69823,2,0,L|128:104,1,84.4999961318971,2|0,0:2|0:0,0:0:0:0:
184,152,70008,2,0,L|96:88,1,84.4999961318971,8|0,0:0|0:0,0:0:0:0:
336,160,70194,2,0,L|408:112,1,84.4999961318971,2|0,0:2|0:0,0:0:0:0:
464,160,70379,2,0,L|376:104,1,84.4999961318971
104,272,70564,2,0,L|8:240,1,84.4999961318971,2|0,0:2|0:0,0:0:0:0:
24,192,70749,2,0,L|72:96,1,84.4999961318971,8|0,2:1|0:0,0:0:0:0:
224,200,70934,2,0,L|272:112,1,84.4999961318971
432,208,71120,6,0,L|504:128,1,84.4999961318971
496,128,71305,2,0,L|464:40,1,84.4999961318971,2|0,0:2|0:0,0:0:0:0:
320,128,71490,2,0,L|296:40,1,84.4999961318971,8|0,2:1|0:0,0:0:0:0:
144,128,71675,2,0,L|120:40,1,84.4999961318971,2|0,0:2|0:0,0:0:0:0:
336,128,71860,2,0,L|384:48,1,84.4999961318971
96,128,72046,2,0,L|48:48,1,84.4999961318971,2|0,0:2|0:0,0:0:0:0:
392,128,72231,2,0,L|464:64,1,84.4999961318971,8|0,2:1|0:0,0:0:0:0:
104,128,72416,2,0,L|8:128,1,84.4999961318971,2|0,0:2|0:0,0:0:0:0:
408,128,72601,6,0,L|504:128,1,84.4999961318971
104,200,72786,2,0,L|0:200,1,84.4999961318971,2|0,0:2|0:0,0:0:0:0:
400,208,72971,2,0,L|488:208,1,84.4999961318971,8|0,2:1|0:0,0:0:0:0:
320,208,73157,2,0,L|216:208,1,84.4999961318971,2|0,0:2|0:0,0:0:0:0:
16,208,73342,5,0,0:0:0:0:
0,0,73411,1,0,0:0:0:0:
496,208,73434,1,0,0:0:0:0:
512,0,73504,1,0,0:0:0:0:
16,208,73527,1,0,0:0:0:0:
16,0,73596,1,0,0:0:0:0:
496,208,73620,1,0,0:0:0:0:
496,0,73689,1,0,0:0:0:0:
16,208,73712,1,0,0:0:0:0:
32,0,73782,1,0,0:0:0:0:
496,208,73805,1,0,0:0:0:0:
480,0,73874,1,0,0:0:0:0:
16,208,73897,1,0,0:0:0:0:
48,0,73967,1,0,0:0:0:0:
496,208,73990,1,0,0:0:0:0:
464,0,74059,1,0,0:0:0:0:
257,190,74083,5,4,0:3:0:0:
96,192,74268,1,0,0:0:0:0:
256,104,74453,1,4,0:3:0:0:
416,192,74638,1,0,0:0:0:0:
257,190,74823,1,4,0:3:0:0:
416,192,75008,1,0,0:0:0:0:
72,192,75194,1,4,0:3:0:0:
164,192,75286,1,2,2:2:0:0:
257,190,75379,1,2,2:2:0:0:
348,192,75471,1,2,2:2:0:0:
440,192,75564,5,4,0:3:0:0:
128,96,75749,1,0,0:0:0:0:
272,96,75934,1,4,0:3:0:0:
128,48,76120,1,0,0:0:0:0:
480,96,76305,1,4,0:3:0:0:
352,96,76490,1,0,0:0:0:0:
32,192,76675,1,4,0:3:0:0:
128,192,76768,1,2,2:2:0:0:
224,192,76860,1,4,0:3:0:0:
128,192,76953,1,2,2:2:0:0:
32,192,77046,5,4,0:3:0:0:
176,192,77231,1,0,0:0:0:0:
336,192,77416,1,4,0:3:0:0:
480,192,77601,1,0,0:0:0:0:
176,144,77786,1,4,0:3:0:0:
16,144,77971,1,0,0:0:0:0:
352,144,78157,2,0,L|464:144,1,84.4999961318971,4|2,0:3|2:2,0:0:0:0:
160,144,78342,2,0,L|48:144,1,84.4999961318971,2|2,2:2|2:2,0:0:0:0:
256,96,78527,5,4,0:3:0:0:
416,96,78712,1,0,0:0:0:0:
96,96,78897,1,4,0:3:0:0:
256,96,79083,1,0,0:0:0:0:
80,96,79268,1,4,0:3:0:0:
256,96,79453,1,0,0:0:0:0:
440,96,79638,1,4,0:3:0:0:
184,96,79731,1,2,2:2:0:0:
256,96,79823,1,4,0:3:0:0:
328,96,79916,1,2,2:2:0:0:
72,96,80008,5,4,0:3:0:0:
32,176,80194,1,0,0:0:0:0:
96,256,80379,1,4,0:3:0:0:
208,288,80564,1,0,0:0:0:0:
320,288,80749,1,4,0:3:0:0:
416,256,80934,1,0,0:0:0:0:
480,160,81120,1,4,0:3:0:0:
432,64,81305,1,0,0:0:0:0:
336,32,81490,5,4,0:3:0:0:
480,160,81675,1,0,0:0:0:0:
368,176,81860,1,4,0:3:0:0:
512,128,82046,1,0,0:0:0:0:
96,96,82231,2,0,L|0:96,3,84.4999961318971,4|2|2|2,0:3|0:3|0:3|0:3,0:0:0:0:
96,96,82601,2,0,L|192:96,3,84.4999961318971,6|2|2|2,0:3|0:3|0:3|0:3,0:0:0:0:
504,312,82971,6,0,B|344:80|344:80|256:296|256:296|144:80|144:80|0:352,1,1040,2|4,0:3|0:0,0:0:0:0:
512,320,85008,1,4,0:0:0:0:
11,192,85564,6,4,L|96:192,1,84.4999961318971,4|8,0:0|0:3,0:0:0:0:
11,136,85749,2,4,L|96:136,1,84.4999961318971,8|8,0:3|0:3,0:0:0:0:
312,192,85934,5,4,0:0:0:0:
384,144,86027,1,0,0:0:0:0:
408,64,86120,1,0,0:0:0:0:
400,144,86212,1,0,0:0:0:0:
352,216,86305,1,8,2:1:0:0:
288,272,86397,1,0,0:0:0:0:
208,296,86490,1,0,0:0:0:0:
120,304,86583,1,0,0:0:0:0:
200,192,86675,5,0,0:0:0:0:
128,144,86768,1,0,0:0:0:0:
104,64,86860,1,0,0:0:0:0:
112,144,86953,1,0,0:0:0:0:
160,216,87046,1,8,2:1:0:0:
224,272,87138,1,0,0:0:0:0:
304,296,87231,1,0,0:0:0:0:
392,304,87323,1,0,0:0:0:0:
160,112,87416,5,0,0:0:0:0:
80,96,87508,1,0,0:0:0:0:
168,96,87601,1,0,0:0:0:0:
256,96,87694,1,0,0:0:0:0:
144,272,87786,5,8,2:1:0:0:
64,288,87879,1,0,0:0:0:0:
168,288,87971,1,0,0:0:0:0:
272,288,88064,1,0,0:0:0:0:
128,112,88157,5,0,0:0:0:0:
48,96,88249,1,0,0:0:0:0:
168,96,88342,1,0,0:0:0:0:
288,96,88434,1,0,0:0:0:0:
112,272,88527,5,8,2:1:0:0:
32,288,88620,1,0,0:0:0:0:
168,288,88712,1,0,0:0:0:0:
304,288,88805,1,0,0:0:0:0:
408,56,88897,5,0,0:0:0:0:
440,136,88990,1,0,0:0:0:0:
120,40,89083,1,0,0:0:0:0:
200,8,89175,1,0,0:0:0:0:
382,31,89268,5,8,2:1:0:0:
427,104,89360,1,0,0:0:0:0:
95,65,89453,1,0,0:0:0:0:
168,20,89546,1,0,0:0:0:0:
352,12,89638,5,0,0:0:0:0:
409,76,89731,1,0,0:0:0:0:
76,95,89823,1,0,0:0:0:0:
140,38,89916,1,0,0:0:0:0:
319,0,90008,5,8,2:1:0:0:
387,51,90101,1,0,0:0:0:0:
62,128,90194,1,0,0:0:0:0:
115,60,90286,1,0,0:0:0:0:
352,184,90379,5,0,0:0:0:0:
432,264,90471,1,0,0:0:0:0:
392,152,90564,1,0,0:0:0:0:
312,64,90657,1,0,0:0:0:0:
0,96,90749,5,8,2:1:0:0:
80,184,90842,1,0,0:0:0:0:
432,184,90934,1,0,0:0:0:0:
512,96,91027,1,0,0:0:0:0:
160,184,91120,5,0,0:0:0:0:
80,264,91212,1,0,0:0:0:0:
120,152,91305,1,0,0:0:0:0:
200,64,91397,1,0,0:0:0:0:
512,96,91490,5,8,2:1:0:0:
360,192,91583,1,0,0:0:0:0:
152,192,91675,1,0,0:0:0:0:
0,96,91768,1,0,0:0:0:0:
312,192,91860,5,0,0:0:0:0:
384,144,91953,1,0,0:0:0:0:
408,64,92046,1,0,0:0:0:0:
400,144,92138,1,0,0:0:0:0:
160,216,92231,1,8,2:1:0:0:
224,272,92323,1,0,0:0:0:0:
304,296,92416,1,0,0:0:0:0:
392,304,92508,1,0,0:0:0:0:
200,192,92601,5,0,0:0:0:0:
128,144,92694,1,0,0:0:0:0:
104,64,92786,1,0,0:0:0:0:
112,144,92879,1,0,0:0:0:0:
352,216,92971,1,8,2:1:0:0:
288,272,93064,1,0,0:0:0:0:
208,296,93157,1,0,0:0:0:0:
120,304,93249,1,0,0:0:0:0:
352,112,93342,5,0,0:0:0:0:
432,96,93434,1,0,0:0:0:0:
344,96,93527,1,0,0:0:0:0:
256,96,93620,1,0,0:0:0:0:
368,272,93712,5,8,2:1:0:0:
448,288,93805,1,0,0:0:0:0:
344,288,93897,1,0,0:0:0:0:
240,288,93990,1,0,0:0:0:0:
384,112,94083,5,0,0:0:0:0:
464,96,94175,1,0,0:0:0:0:
344,96,94268,1,0,0:0:0:0:
224,96,94360,1,0,0:0:0:0:
400,272,94453,5,8,2:1:0:0:
480,288,94546,1,0,0:0:0:0:
344,288,94638,1,0,0:0:0:0:
208,288,94731,1,0,0:0:0:0:
104,56,94823,5,0,0:0:0:0:
72,136,94916,1,0,0:0:0:0:
392,40,95008,1,0,0:0:0:0:
312,8,95101,1,0,0:0:0:0:
95,318,95194,5,8,2:1:0:0:
168,363,95286,1,0,0:0:0:0:
383,353,95379,1,0,0:0:0:0:
428,280,95471,1,0,0:0:0:0:
103,76,95564,5,0,0:0:0:0:
160,12,95657,1,0,0:0:0:0:
436,95,95749,1,0,0:0:0:0:
372,38,95842,1,0,0:0:0:0:
193,384,95934,5,8,2:1:0:0:
125,333,96027,1,0,0:0:0:0:
450,256,96120,1,0,0:0:0:0:
397,324,96212,1,0,0:0:0:0:
160,184,96305,5,0,0:0:0:0:
80,264,96397,1,0,0:0:0:0:
120,152,96490,1,0,0:0:0:0:
200,64,96583,1,0,0:0:0:0:
512,96,96675,5,8,2:1:0:0:
432,184,96768,1,0,0:0:0:0:
80,184,96860,1,0,0:0:0:0:
0,96,96953,1,0,0:0:0:0:
352,184,97046,5,0,0:0:0:0:
432,264,97138,1,0,0:0:0:0:
392,152,97231,1,0,0:0:0:0:
312,64,97323,1,0,0:0:0:0:
0,96,97416,5,8,2:1:0:0:
152,192,97508,1,0,0:0:0:0:
360,192,97601,1,0,0:0:0:0:
512,96,97694,1,0,0:0:0:0:
192,32,97786,5,4,0:0:0:0:
64,32,97879,1,0,0:0:0:0:
88,32,97971,1,0,0:0:0:0:
64,32,98064,1,0,0:0:0:0:
104,32,98157,1,0,0:0:0:0:
64,32,98249,1,0,0:0:0:0:
120,32,98342,1,2,0:2:0:0:
64,32,98434,1,0,0:0:0:0:
136,32,98527,1,0,0:0:0:0:
64,32,98620,1,0,0:0:0:0:
152,32,98712,1,0,0:0:0:0:
64,32,98805,1,0,0:0:0:0:
320,32,98897,5,2,0:2:0:0:
448,32,98990,1,0,0:0:0:0:
424,32,99083,1,0,0:0:0:0:
448,32,99175,1,0,0:0:0:0:
408,32,99268,1,0,0:0:0:0:
448,32,99360,1,0,0:0:0:0:
392,32,99453,1,2,0:2:0:0:
448,32,99546,1,0,0:0:0:0:
376,32,99638,1,0,0:0:0:0:
448,32,99731,1,0,0:0:0:0:
360,32,99823,1,0,0:0:0:0:
448,32,99916,1,0,0:0:0:0:
128,80,100008,5,2,0:2:0:0:
32,248,100101,1,0,0:0:0:0:
128,336,100194,1,0,0:0:0:0:
48,96,100286,1,0,0:0:0:0:
384,304,100379,5,2,0:2:0:0:
480,136,100471,1,0,0:0:0:0:
384,48,100564,1,0,0:0:0:0:
464,288,100657,1,0,0:0:0:0:
200,256,100749,5,2,0:2:0:0:
120,272,100842,1,0,0:0:0:0:
72,200,100934,1,0,0:0:0:0:
128,136,101027,5,0,0:0:0:0:
80,64,101120,1,0,0:0:0:0:
0,80,101212,1,0,0:0:0:0:
312,256,101305,5,2,0:2:0:0:
392,272,101397,1,0,0:0:0:0:
440,200,101490,1,0,0:0:0:0:
384,136,101583,5,0,0:0:0:0:
432,64,101675,1,0,0:0:0:0:
512,80,101768,1,0,0:0:0:0:
184,128,101860,5,2,0:2:0:0:
104,112,101953,1,0,0:0:0:0:
56,184,102046,1,0,0:0:0:0:
169,302,102138,5,0,0:0:0:0:
160,384,102231,1,0,0:0:0:0:
82,384,102323,1,0,0:0:0:0:
328,128,102416,5,2,0:2:0:0:
408,112,102508,1,0,0:0:0:0:
456,184,102601,1,0,0:0:0:0:
342,302,102694,5,0,0:0:0:0:
351,384,102786,1,0,0:0:0:0:
429,384,102879,1,0,0:0:0:0:
80,192,102971,5,4,3:0:0:0:
0,192,103157,1,4,3:0:0:0:
512,192,103342,1,2,0:2:0:0:
432,192,103434,1,4,3:0:0:0:
256,192,103527,1,4,3:0:0:0:
408,128,103712,6,0,L|432:40,5,84.4999961318971,2|0|0|0|0|0,0:2|0:0|0:0|0:0|0:0|0:0,0:0:0:0:
240,120,104268,6,0,L|216:32,5,84.4999961318971,2|0|0|0|0|0,0:2|0:0|0:0|0:0|0:0|0:0,0:0:0:0:
104,128,104823,6,0,L|80:40,5,84.4999961318971,2|0|0|0|0|0,0:2|0:0|0:0|0:0|0:0|0:0,0:0:0:0:
272,120,105379,6,0,L|296:32,5,84.4999961318971,2|0|0|0|0|0,0:2|0:0|0:0|0:0|0:0|0:0,0:0:0:0:
64,304,105934,6,0,L|40:216,3,84.4999961318971,2|0|0|0,0:2|0:0|0:0|0:0,0:0:0:0:
448,304,106305,6,0,L|472:216,3,84.4999961318971,2|0|0|0,0:2|0:0|0:0|0:0,0:0:0:0:
464,112,106663,6,0,L|468:92,2,16.25
224,108,106756,6,0,L|220:88,2,16.25
448,112,106848,6,0,L|452:92,2,16.25
208,108,106941,6,0,L|204:88,2,16.25
432,112,107033,6,0,L|436:92,2,16.25
192,108,107126,6,0,L|188:88,2,16.25
416,112,107218,6,0,L|420:92,2,16.25
176,108,107311,6,0,L|172:88,2,16.25
400,112,107404,6,0,L|404:92,2,16.25
160,108,107496,6,0,L|156:88,2,16.25
384,112,107589,6,0,L|388:92,2,16.25
144,108,107681,6,0,L|140:88,2,16.25
368,112,107774,6,0,L|372:92,2,16.25
128,108,107867,6,0,L|124:88,2,16.25
352,112,107959,6,0,L|356:92,2,16.25
112,108,108052,6,0,L|108:88,2,16.25
400,112,108144,6,0,L|404:92,2,16.25
160,108,108237,6,0,L|156:88,2,16.25
384,112,108330,6,0,L|388:92,2,16.25
144,108,108422,6,0,L|140:88,2,16.25
368,112,108515,6,0,L|372:92,2,16.25
128,108,108607,6,0,L|124:88,2,16.25
352,112,108700,6,0,L|356:92,2,16.25
112,108,108793,6,0,L|108:88,2,16.25
336,112,108885,6,0,L|340:92,2,16.25
96,108,108978,6,0,L|92:88,2,16.25
320,112,109070,6,0,L|324:92,2,16.25
80,108,109163,6,0,L|76:88,2,16.25
304,112,109256,6,0,L|308:92,2,16.25
64,108,109348,6,0,L|60:88,2,16.25
288,112,109441,6,0,L|292:92,2,16.25
48,108,109533,6,0,L|44:88,2,16.25
512,192,109637,5,4,0:0:0:0:
320,192,110007,1,0,0:0:0:0:
256,192,110377,1,0,0:0:0:0:
192,192,110748,1,0,0:0:0:0:
448,192,111118,5,0,0:0:0:0:
256,192,111488,1,0,0:0:0:0:
192,192,111859,1,0,0:0:0:0:
128,192,112229,1,0,0:0:0:0:
384,192,112599,5,0,0:0:0:0:
128,192,112970,1,0,0:0:0:0:
192,192,113340,1,0,0:0:0:0:
64,192,113711,1,0,0:0:0:0:
320,192,114081,5,0,0:0:0:0:
64,192,114451,1,0,0:0:0:0:
128,192,114822,1,0,0:0:0:0:
0,192,115192,1,0,0:0:0:0:
304,96,115562,6,0,B|352:48|432:64|432:64|464:112|464:144|464:144|496:128,1,260
208,96,116303,2,0,B|160:48|80:64|80:64|48:112|48:144|48:144|16:128,1,260
320,272,117044,6,0,B|448:272|448:272|400:272|400:272|480:224,1,260
192,272,117785,2,0,B|64:272|64:272|112:272|112:272|32:224,1,260
512,0,118525,5,0,0:0:0:0:
0,384,118896,5,0,0:0:0:0:
512,384,119266,5,0,0:0:0:0:
0,0,119636,5,0,0:0:0:0:
256,192,119822,5,0,0:0:0:0:
512,192,120007,5,0,0:0:0:0:
472,192,120030,5,0,0:0:0:0:
392,192,120053,5,0,0:0:0:0:
320,192,120076,5,0,0:0:0:0:
256,192,120099,5,0,0:0:0:0:
192,192,120123,5,0,0:0:0:0:
120,192,120146,5,0,0:0:0:0:
40,192,120169,5,0,0:0:0:0:
0,192,120192,5,0,0:0:0:0:
40,192,120215,5,0,0:0:0:0:
120,192,120238,5,0,0:0:0:0:
192,192,120261,5,0,0:0:0:0:
256,192,120285,5,0,0:0:0:0:
320,192,120308,5,0,0:0:0:0:
392,192,120331,5,0,0:0:0:0:
472,192,120354,5,0,0:0:0:0:
512,192,120377,5,0,0:0:0:0:
472,192,120400,5,0,0:0:0:0:
392,192,120424,5,0,0:0:0:0:
320,192,120447,5,0,0:0:0:0:
256,192,120470,5,0,0:0:0:0:
192,192,120493,5,0,0:0:0:0:
120,192,120516,5,0,0:0:0:0:
40,192,120539,5,0,0:0:0:0:
0,192,120562,5,0,0:0:0:0:
40,192,120586,5,0,0:0:0:0:
120,192,120609,5,0,0:0:0:0:
192,192,120632,5,0,0:0:0:0:
256,192,120655,5,0,0:0:0:0:
320,192,120678,5,0,0:0:0:0:
392,192,120701,5,0,0:0:0:0:
472,192,120724,5,0,0:0:0:0:
512,192,120748,5,0,0:0:0:0:
472,192,120771,5,0,0:0:0:0:
392,192,120794,5,0,0:0:0:0:
320,192,120817,5,0,0:0:0:0:
256,192,120840,5,0,0:0:0:0:
192,192,120863,5,0,0:0:0:0:
120,192,120886,5,0,0:0:0:0:
40,192,120910,5,0,0:0:0:0:
0,192,120933,5,0,0:0:0:0:
40,192,120956,5,0,0:0:0:0:
120,192,120979,5,0,0:0:0:0:
192,192,121002,5,0,0:0:0:0:
256,192,121025,5,0,0:0:0:0:
320,192,121049,5,0,0:0:0:0:
392,192,121072,5,0,0:0:0:0:
472,192,121095,5,0,0:0:0:0:
512,192,121118,5,0,0:0:0:0:
472,192,121141,5,0,0:0:0:0:
392,192,121164,5,0,0:0:0:0:
320,192,121187,5,0,0:0:0:0:
256,192,121211,5,0,0:0:0:0:
192,192,121234,5,0,0:0:0:0:
120,192,121257,5,0,0:0:0:0:
40,192,121280,5,0,0:0:0:0:
0,192,121303,5,0,0:0:0:0:
40,192,121326,5,0,0:0:0:0:
120,192,121349,5,0,0:0:0:0:
192,192,121373,5,0,0:0:0:0:
256,192,121396,5,0,0:0:0:0:
320,192,121419,5,0,0:0:0:0:
392,192,121442,5,0,0:0:0:0:
472,192,121465,5,0,0:0:0:0:
512,192,121488,6,0,L|512:56,1,130,0|2,0:0|0:2,0:0:0:0:
0,192,121859,2,0,L|0:56,1,130,8|2,0:2|0:2,0:0:0:0:
416,192,122229,2,0,L|416:328,1,130,0|2,0:0|0:2,0:0:0:0:
96,192,122599,2,0,L|96:328,1,130,8|2,0:2|0:2,0:0:0:0:
386,192,122970,6,0,L|250:192,2,130,0|2|8,0:0|0:2|0:2,0:0:0:0:
126,192,123525,2,0,L|390:192,1,260,2|2,0:2|0:2,0:0:0:0:
128,192,124081,2,0,L|-8:192,1,130,8|2,0:2|0:2,0:0:0:0:
336,56,124451,6,0,B|296:152|296:152|456:104,2,260,0|8|0,0:0|0:2|0:0,0:0:0:0:
256,80,125377,1,2,0:2:0:0:
176,56,125562,2,0,B|216:152|216:152|56:104,2,260,8|0|8,0:2|0:0|0:2,0:0:0:0:
386,192,126488,6,0,L|126:192,1,260,2|2,0:2|0:2,0:0:0:0:
512,192,127044,2,0,L|376:192,1,130,8|2,0:2|0:2,0:0:0:0:
88,296,127414,6,0,P|48:232|40:160,1,130,0|2,0:0|0:2,0:0:0:0:
424,296,127785,2,0,P|464:232|472:160,1,130,8|2,0:2|0:2,0:0:0:0:
136,208,128155,2,0,L|168:72,1,130,0|2,0:0|0:2,0:0:0:0:
376,208,128525,2,0,L|344:72,1,130,8|2,0:2|0:2,0:0:0:0:
130,192,128896,6,0,L|0:192,2,130,0|2|8,0:0|0:2|0:2,0:0:0:0:
386,192,129451,2,0,L|126:192,1,260,2|2,0:2|0:2,0:0:0:0:
382,192,130007,2,0,L|512:192,1,130,8|2,0:2|0:2,0:0:0:0:
89,61,130377,5,8,0:3:0:0:
421,61,130748,1,8,0:2:0:0:
144,192,131025,1,8,0:3:0:0:
368,192,131118,1,8,0:3:0:0:
192,320,131303,1,8,0:3:0:0:
320,320,131488,1,8,0:2:0:0:
256,192,131674,1,8,0:3:0:0:
80,224,131859,5,0,0:0:0:0:
40,136,131951,1,0,0:0:0:0:
100,56,132044,1,0,0:0:0:0:
196,36,132136,1,8,0:3:0:0:
432,224,132229,5,8,0:2:0:0:
472,136,132322,1,0,0:0:0:0:
412,56,132414,1,0,0:0:0:0:
316,36,132507,1,8,0:3:0:0:
16,176,132599,5,0,0:3:0:0:
32,240,132646,1,0,0:3:0:0:
136,288,132692,1,0,0:3:0:0:
192,304,132738,1,0,0:3:0:0:
496,160,132785,5,0,0:3:0:0:
480,224,132831,1,0,0:3:0:0:
376,288,132877,1,0,0:3:0:0:
320,304,132924,1,0,0:3:0:0:
32,216,132970,5,0,0:3:0:0:
3,153,133016,1,0,0:3:0:0:
46,96,133062,1,0,0:3:0:0:
114,81,133109,1,0,0:3:0:0:
480,216,133155,5,0,0:3:0:0:
509,153,133201,1,0,0:3:0:0:
466,96,133248,1,0,0:3:0:0:
398,81,133294,1,0,0:3:0:0:
220,56,133340,6,0,L|28:96,1,195.00000743866,4|0,0:0|0:0,0:0:0:0:
292,56,133711,2,0,L|484:96,1,195.00000743866,8|0,2:1|0:0,0:0:0:0:
160,336,134081,6,0,B|92:280|92:280|52:176,1,195.00000743866
352,336,134451,2,0,B|420:280|420:280|460:176,1,195.00000743866,8|0,2:1|0:0,0:0:0:0:
48,264,134822,6,0,P|144:200|420:232,1,390.00001487732,0|8,0:0|2:1,0:0:0:0:
105,223,135377,2,0,P|291:180|464:264,1,390.00001487732
196,192,135933,2,0,L|0:192,1,195.00000743866,8|0,2:1|0:0,0:0:0:0:
508,256,136303,6,0,B|340:256|340:192|340:192|340:128|508:128|508:128,2,390.00001487732,0|8|0,0:0|2:1|0:0,0:0:0:0:
256,192,137229,1,0,0:0:0:0:
4,128,137414,2,0,B|172:128|172:192|172:192|172:256|4:256|4:256,2,390.00001487732,8|0|8,2:1|0:0|2:1,0:0:0:0:
316,192,138340,6,0,B|512:192|512:192|316:192,1,390.00001487732
148,192,138896,2,0,B|48:192|48:192|148:192,1,195.00000743866,8|0,2:1|0:0,0:0:0:0:
496,288,139266,6,0,L|306:327,1,195.00000743866
462,207,139636,2,0,L|272:246,1,195.00000743866,8|0,2:1|0:0,0:0:0:0:
16,288,140007,6,0,L|206:327,1,195.00000743866
50,207,140377,2,0,L|240:246,1,195.00000743866,8|0,2:1|0:0,0:0:0:0:
436,176,140748,6,0,B|472:80|472:80|184:128,1,390.00001487732,0|8,0:0|2:1,0:0:0:0:
323,256,141303,2,0,B|40:304|40:304|76:208,1,390.00001487732
316,192,141859,2,0,L|512:192,1,195.00000743866,8|0,2:1|0:0,0:0:0:0:
4,128,142229,6,0,B|172:128|172:192|172:192|172:256|4:256|4:256,2,390.00001487732,0|8|0,0:0|2:1|0:0,0:0:0:0:
256,192,143155,1,0,0:0:0:0:
508,256,143340,2,0,B|340:256|340:192|340:192|340:128|508:128|508:128,2,390.00001487732,8|0|8,2:1|0:0|2:1,0:0:0:0:
196,192,144266,6,0,B|0:192|0:192|196:192,1,390.00001487732
364,192,144822,2,0,B|464:192|464:192|364:192,1,195.00000743866,8|0,2:1|0:0,0:0:0:0:
0,192,145192,6,0,P|32:156|80:188,1,113.75,4|0,0:0|0:0,0:0:0:0:
512,192,145377,6,0,P|480:156|432:188,1,113.75
0,192,145562,6,0,P|32:228|80:196,1,113.75,8|0,2:1|0:0,0:0:0:0:
512,192,145748,6,0,P|480:228|432:196,1,113.75
0,192,145933,6,0,P|36:160|100:180,1,113.75
512,192,146118,6,0,P|476:160|412:180,1,113.75
0,192,146303,6,0,P|36:224|100:204,1,113.75,8|0,2:1|0:0,0:0:0:0:
512,192,146488,6,0,P|476:224|412:204,1,113.75
0,192,146674,6,0,B|56:192|56:192|48:192|48:192|100:192,1,113.75
512,192,146859,6,0,B|456:192|456:192|464:192|464:192|412:192,1,113.75
0,192,147044,6,0,B|56:192|56:192|48:192|48:192|100:192,1,113.75,8|0,2:1|0:0,0:0:0:0:
512,192,147229,6,0,L|332:360,1,243.75
0,192,147599,6,0,B|56:192|56:192|48:192|48:192|100:192,1,113.75
512,192,147785,6,0,B|456:192|456:192|464:192|464:192|412:192,1,113.75,8|0,2:1|0:0,0:0:0:0:
0,192,147970,6,0,B|56:192|56:192|48:192|48:192|100:192,1,113.75
512,192,148155,6,0,L|332:24,1,243.75
0,192,148525,6,0,L|180:24,1,243.75,8|0,2:1|0:0,0:0:0:0:
512,192,148896,6,0,B|488:224|488:224|420:196,1,113.75
0,192,149081,6,0,B|24:224|24:224|92:196,1,113.75
512,192,149266,6,0,L|332:360,1,243.75,8|0,2:1|0:0,0:0:0:0:
0,192,149636,6,0,L|180:360,1,243.75
512,192,150007,6,0,B|456:192|456:192|464:192|464:192|412:192,1,113.75,8|0,2:1|0:0,0:0:0:0:
0,192,150192,6,0,L|180:24,1,243.75
512,192,150562,6,0,B|456:192|456:192|464:192|464:192|412:192,1,113.75
0,192,150748,6,0,B|56:192|56:192|48:192|48:192|100:192,1,113.75,8|0,2:1|0:0,0:0:0:0:
512,192,150933,6,0,B|456:192|456:192|464:192|464:192|412:192,1,113.75
0,192,151118,6,0,L|228:192,1,227.5
512,192,151303,6,0,L|284:192,1,227.5
0,192,151488,6,0,L|228:192,1,227.5,8|0,2:1|0:0,0:0:0:0:
512,192,151674,6,0,L|284:192,1,227.5
0,192,151859,6,0,L|146:17,1,227.5
512,192,152044,6,0,L|365:17,1,227.5
0,192,152229,6,0,L|146:17,1,227.5,8|0,2:1|0:0,0:0:0:0:
512,192,152414,6,0,L|365:17,1,227.5
0,192,152599,6,0,L|228:192,1,227.5
512,192,152785,6,0,L|284:192,1,227.5
0,192,152970,6,0,L|228:192,1,227.5,8|0,2:1|0:0,0:0:0:0:
512,192,153155,5,0,0:0:0:0:
160,192,153502,1,0,0:0:0:0:
0,192,153525,6,0,L|228:192,1,227.5
512,192,153711,6,0,L|284:192,1,227.5,8|0,2:1|0:0,0:0:0:0:
0,192,153896,6,0,L|228:192,1,227.5
512,192,154081,5,0,0:0:0:0:
160,192,154428,1,0,0:0:0:0:
0,192,154451,5,8,2:1:0:0:
352,192,154799,1,0,0:0:0:0:
512,192,154822,6,0,L|284:192,1,227.5
0,192,155007,6,0,L|228:192,1,227.5
512,192,155192,5,8,2:1:0:0:
160,192,155539,1,0,0:0:0:0:
0,192,155562,5,0,0:0:0:0:
352,192,155910,1,0,0:0:0:0:
512,192,155933,6,0,L|284:192,1,227.5,8|0,2:1|0:0,0:0:0:0:
0,192,156118,6,0,L|228:192,1,227.5
512,192,156303,6,0,L|452:192,1,48.75
0,192,156396,6,0,L|60:192,1,48.75
512,192,156488,6,0,L|452:192,1,48.75
0,192,156581,6,0,L|60:192,1,48.75
512,192,156674,6,0,L|452:192,1,48.75
0,192,156766,6,0,L|60:192,1,48.75
512,192,156859,6,0,L|452:192,1,48.75
0,192,156951,6,0,L|60:192,1,48.75
512,96,157044,6,0,L|512:32,2,65,4|0|0,0:0|0:0|0:0,0:0:0:0:
0,288,157322,6,0,L|0:352,2,65,4|0|0,0:3|0:0|0:0,0:0:0:0:
352,128,157599,6,0,L|416:96,2,65,4|0|0,0:0|0:0|0:0,0:0:0:0:
160,256,157877,6,0,L|96:288,2,65,4|0|0,0:3|0:0|0:0,0:0:0:0:
416,256,158155,5,4,0:0:0:0:
440,240,158248,1,0,0:0:0:0:
96,256,158340,5,8,0:3:0:0:
72,240,158433,1,0,0:0:0:0:
448,256,158525,5,8,0:3:0:0:
512,192,158618,1,8,0:3:0:0:
448,128,158711,1,0,0:0:0:0:
352,160,158803,1,0,0:0:0:0:
256,96,158896,1,8,0:3:0:0:
160,160,158988,1,8,0:3:0:0:
64,128,159081,1,0,0:0:0:0:
0,192,159174,1,0,0:0:0:0:
64,256,159266,5,4,2:2:0:0:
96,252,159289,1,0,0:0:0:0:
126,241,159312,1,0,0:0:0:0:
154,224,159336,1,0,0:0:0:0:
177,201,159359,1,0,0:0:0:0:
191,172,159382,1,0,0:0:0:0:
193,140,159405,1,0,0:0:0:0:
182,109,159428,1,0,0:0:0:0:
162,84,159451,1,0,0:0:0:0:
135,65,159474,1,0,0:0:0:0:
106,53,159498,1,0,0:0:0:0:
74,47,159521,1,0,0:0:0:0:
42,52,159544,1,0,0:0:0:0:
23,76,159567,1,0,0:0:0:0:
36,104,159590,1,0,0:0:0:0:
66,116,159613,1,0,0:0:0:0:
480,192,159636,5,4,0:3:0:0:
352,288,160007,5,4,0:0:0:0:
160,288,160192,1,0,0:0:0:0:
368,224,160377,1,8,2:1:0:0:
144,224,160562,1,0,0:0:0:0:
384,160,160748,1,0,0:0:0:0:
128,160,160933,1,0,0:0:0:0:
400,96,161118,1,8,2:1:0:0:
112,96,161303,1,0,0:0:0:0:
400,96,161488,5,0,0:0:0:0:
112,96,161674,1,0,0:0:0:0:
384,160,161859,1,8,2:1:0:0:
128,160,162044,1,0,0:0:0:0:
368,224,162229,1,0,0:0:0:0:
144,224,162414,1,0,0:0:0:0:
352,288,162599,1,8,2:1:0:0:
160,288,162785,1,0,0:0:0:0:
288,224,162970,5,2,0:2:0:0:
384,224,163062,1,0,0:0:0:0:
480,224,163155,1,0,0:0:0:0:
392,192,163248,1,2,0:2:0:0:
480,192,163340,1,0,0:0:0:0:
400,152,163433,1,0,0:0:0:0:
480,152,163525,1,2,0:2:0:0:
400,152,163618,1,0,0:0:0:0:
480,112,163711,1,0,0:0:0:0:
392,192,163803,1,2,0:2:0:0:
480,72,163896,1,0,0:0:0:0:
384,224,163988,1,0,0:0:0:0:
480,40,164081,1,2,0:2:0:0:
160,176,164174,2,0,L|64:224,1,90.9999972229005,2|0,0:2|0:0,0:0:0:0:
352,176,164359,2,0,L|448:224,1,90.9999972229005,0|2,0:0|0:2,0:0:0:0:
128,192,164544,5,0,0:0:0:0:
32,192,164636,1,0,0:0:0:0:
120,160,164729,1,2,0:2:0:0:
32,160,164822,1,0,0:0:0:0:
112,128,164914,1,0,0:0:0:0:
32,128,165007,1,2,0:2:0:0:
112,128,165099,1,0,0:0:0:0:
32,96,165192,1,0,0:0:0:0:
120,160,165285,1,2,0:2:0:0:
32,64,165377,1,0,0:0:0:0:
128,192,165470,1,0,0:0:0:0:
32,32,165562,1,2,0:2:0:0:
384,192,165655,2,0,L|464:144,1,90.9999972229005,0|2,0:0|0:2,0:0:0:0:
128,192,165840,2,0,L|48:144,1,90.9999972229005
464,288,166118,5,0,0:0:0:0:
272,288,166303,1,8,2:1:0:0:
448,224,166488,1,0,0:0:0:0:
192,224,166674,1,0,0:0:0:0:
432,144,166859,1,0,0:0:0:0:
144,160,167044,1,8,2:1:0:0:
416,64,167229,1,0,0:0:0:0:
48,64,167414,5,0,0:0:0:0:
336,64,167599,1,0,0:0:0:0:
64,128,167785,1,8,2:1:0:0:
336,128,167970,1,0,0:0:0:0:
80,192,168155,1,0,0:0:0:0:
352,192,168340,1,0,0:0:0:0:
112,256,168525,1,8,2:1:0:0:
320,256,168711,1,0,0:0:0:0:
512,256,168896,6,0,L|288:256,1,181.999994445801,2|0,0:2|0:0,0:0:0:0:
400,208,169174,2,0,L|218:208,1,181.999994445801,2|0,0:2|0:0,0:0:0:0:
288,160,169451,2,0,L|106:160,1,181.999994445801,2|0,0:2|0:0,0:0:0:0:
192,96,169729,2,0,L|10:96,1,181.999994445801,2|0,0:2|0:0,0:0:0:0:
336,96,170007,2,0,L|448:64,1,90.9999972229005,2|2,0:2|0:2,0:0:0:0:
176,96,170192,2,0,L|64:48,1,90.9999972229005
304,208,170377,6,0,L|496:208,1,181.999994445801,2|0,0:2|0:0,0:0:0:0:
208,208,170655,2,0,L|16:208,1,181.999994445801,2|0,0:2|0:0,0:0:0:0:
464,208,170933,2,0,L|240:208,1,181.999994445801,2|8,0:2|0:3,0:0:0:0:
48,208,171211,2,0,L|272:208,1,181.999994445801,8|0,0:3|0:0,0:0:0:0:
64,144,171488,2,0,L|0:64,1,90.9999972229005,8|8,0:3|0:3,0:0:0:0:
448,160,171674,2,0,L|512:80,1,90.9999972229005
256,160,171859,5,4,0:0:0:0:
80,160,172044,1,0,0:0:0:0:
256,96,172229,1,8,2:1:0:0:
0,96,172414,1,0,0:0:0:0:
256,32,172599,1,0,0:0:0:0:
64,32,172785,1,0,0:0:0:0:
256,32,172970,1,8,2:1:0:0:
0,32,173155,1,0,0:0:0:0:
256,192,173340,5,0,0:0:0:0:
512,32,173525,1,0,0:0:0:0:
256,192,173711,1,8,2:1:0:0:
448,192,173896,1,0,0:0:0:0:
256,192,174081,1,0,0:0:0:0:
512,192,174266,1,0,0:0:0:0:
256,192,174451,1,8,2:1:0:0:
432,192,174636,1,0,0:0:0:0:
176,320,174822,6,0,L|80:304,1,90.9999972229005,2|0,0:2|0:0,0:0:0:0:
336,320,175007,2,0,L|432:304,1,90.9999972229005,0|2,0:0|0:2,0:0:0:0:
176,256,175192,2,0,L|64:240,1,90.9999972229005
336,256,175377,2,0,L|432:240,1,90.9999972229005,2|0,0:2|0:0,0:0:0:0:
152,192,175562,2,0,L|32:176,1,90.9999972229005,0|2,0:0|0:2,0:0:0:0:
357,192,175748,2,0,L|464:176,1,90.9999972229005
152,128,175933,2,0,L|48:112,1,90.9999972229005,2|0,0:2|0:0,0:0:0:0:
360,128,176118,2,0,L|464:112,1,90.9999972229005,2|0,0:2|0:0,0:0:0:0:
152,80,176303,6,0,L|32:64,3,90.9999972229005,2|0|0|2,0:2|0:0|0:0|0:2,0:0:0:0:
360,80,176674,2,0,L|464:64,3,90.9999972229005,0|0|2|0,0:0|0:0|0:2|0:0,0:0:0:0:
96,24,177044,2,0,L|-32:0,3,90.9999972229005,0|2|0|0,0:0|0:2|0:0|0:0,0:0:0:0:
416,24,177414,2,0,L|528:0,3,90.9999972229005,2|2|0|0,0:2|0:2|0:0|0:0,0:0:0:0:
192,224,177785,5,0,0:0:0:0:
320,224,177970,1,0,0:0:0:0:
192,160,178155,2,0,L|101:160,1,90.9999972229005,8|0,2:1|0:0,0:0:0:0:
325,160,178340,2,0,L|416:160,1,90.9999972229005
176,96,178525,1,0,0:0:0:0:
336,96,178711,1,0,0:0:0:0:
160,32,178896,2,0,L|32:32,1,90.9999972229005,8|0,2:1|0:0,0:0:0:0:
352,32,179081,2,0,L|472:32,1,90.9999972229005
128,96,179266,5,0,0:0:0:0:
384,96,179451,1,0,0:0:0:0:
128,32,179636,2,0,L|0:32,1,90.9999972229005,8|0,2:1|0:0,0:0:0:0:
384,32,179822,2,0,L|480:32,1,90.9999972229005
96,96,180007,1,0,0:0:0:0:
416,96,180192,1,0,0:0:0:0:
96,160,180377,2,0,L|0:160,1,90.9999972229005,8|0,2:1|0:0,0:0:0:0:
416,160,180562,2,0,L|512:160,1,90.9999972229005
144,288,180748,6,0,L|48:288,1,90.9999972229005,8|0,0:3|0:0,0:0:0:0:
128,224,180933,2,0,L|32:224,1,90.9999972229005
112,160,181118,2,0,L|16:160,1,90.9999972229005,8|0,0:3|0:0,0:0:0:0:
96,96,181303,2,0,L|0:96,1,90.9999972229005
368,288,181488,2,0,L|464:288,1,90.9999972229005,8|0,0:3|0:0,0:0:0:0:
384,224,181674,2,0,L|480:224,1,90.9999972229005
400,160,181859,2,0,L|496:160,1,90.9999972229005,8|0,0:3|0:0,0:0:0:0:
416,96,182044,2,0,L|512:96,1,90.9999972229005,8|0,0:3|0:0,0:0:0:0:
48,256,182229,6,0,L|32:160,1,90.9999972229005,8|0,0:3|0:0,0:0:0:0:
464,256,182414,2,0,L|480:160,1,90.9999972229005,8|0,0:3|0:0,0:0:0:0:
16,256,182599,2,0,L|0:160,1,90.9999972229005,8|0,0:3|0:0,0:0:0:0:
496,256,182785,2,0,L|512:160,1,90.9999972229005,8|0,0:3|0:0,0:0:0:0:
256,192,182970,1,8,0:3:0:0:
0,192,183062,1,8,0:3:0:0:
256,192,183155,1,8,0:3:0:0:
512,192,183248,1,8,0:3:0:0:
256,192,183340,1,8,0:3:0:0:
0,192,183433,1,8,0:3:0:0:
256,192,183525,1,8,0:3:0:0:
512,192,183618,1,8,0:3:0:0:
144,208,183711,6,0,P|80:160|160:112,1,181.999994445801,4|0,0:0|0:0,0:0:0:0:
0,48,184081,1,0,0:0:0:0:
368,80,184266,6,0,P|432:128|352:160,1,181.999994445801
512,288,184636,1,0,0:0:0:0:
160,192,184822,6,0,P|224:240|128:272,1,181.999994445801
0,96,185192,1,0,0:0:0:0:
352,288,185377,6,0,P|288:240|368:192,1,181.999994445801
512,80,185748,1,0,0:0:0:0:
208,128,185933,1,0,0:0:0:0:
76,128,186118,1,0,0:0:0:0:
304,128,186303,1,0,0:0:0:0:
436,128,186488,1,0,0:0:0:0:
76,128,186674,1,0,0:0:0:0:
208,128,186859,5,0,0:0:0:0:
436,128,187044,1,0,0:0:0:0:
304,128,187229,1,0,0:0:0:0:
0,64,187414,1,0,0:0:0:0:
352,64,187599,1,0,0:0:0:0:
160,64,187785,1,0,0:0:0:0:
512,64,187970,1,0,0:0:0:0:
160,64,188155,5,0,0:0:0:0:
352,64,188340,1,0,0:0:0:0:
0,64,188525,1,0,0:0:0:0:
512,64,188711,1,0,0:0:0:0:
160,64,188896,1,0,0:0:0:0:
352,64,189081,1,0,0:0:0:0:
96,240,189266,1,0,0:0:0:0:
256,240,189359,1,0,0:0:0:0:
416,240,189451,1,0,0:0:0:0:
32,176,189636,6,0,L|224:176,1,181.999994445801
480,176,190007,2,0,L|288:176,1,181.999994445801
48,112,190377,2,0,L|240:112,1,181.999994445801
464,112,190748,2,0,L|272:112,1,181.999994445801
68,48,191118,6,0,L|250:48,1,181.999994445801
448,48,191488,2,0,L|266:48,1,181.999994445801
144,160,191859,5,0,0:0:0:0:
368,160,192044,1,0,0:0:0:0:
112,160,192229,1,0,0:0:0:0:
400,160,192414,1,0,0:0:0:0:
64,160,192599,1,2,0:0:0:0:
448,160,192785,5,0,0:0:0:0:
64,160,192970,1,0,0:0:0:0:
448,160,193155,1,2,0:0:0:0:
72,160,193525,1,2,0:0:0:0:
512,160,193896,1,2,0:0:0:0:
256,192,194081,12,6,195562,0:0:0:0:
328,64,195748,5,0,0:0:0:0:
144,96,195933,1,8,0:0:0:0:
384,288,196118,5,2,0:0:0:0:
192,320,196303,1,0,0:0:0:0:
0,352,196488,1,0,0:0:0:0:
512,32,196674,5,10,0:0:0:0:
328,64,196859,1,0,0:0:0:0:
144,96,197044,1,0,0:0:0:0:
384,288,197229,5,2,0:0:0:0:
192,320,197414,1,8,0:0:0:0:
0,352,197599,1,0,0:0:0:0:
440,320,197785,6,0,P|496:280|464:160,1,195.00000743866,2|0,0:0|0:0,0:0:0:0:
72,320,198155,2,0,P|16:280|48:160,1,195.00000743866,10|0,0:0|0:0,0:0:0:0:
512,352,198525,5,2,0:0:0:0:
144,288,198711,1,0,0:0:0:0:
328,320,198896,1,8,0:0:0:0:
384,96,199081,5,2,0:0:0:0:
0,32,199266,1,0,0:0:0:0:
192,64,199451,1,0,0:0:0:0:
512,352,199636,5,10,0:0:0:0:
144,288,199822,1,0,0:0:0:0:
328,320,200007,1,0,0:0:0:0:
384,96,200192,5,2,0:0:0:0:
0,32,200377,1,8,0:0:0:0:
192,64,200562,1,0,0:0:0:0:
72,64,200748,6,0,P|16:104|48:224,1,195.00000743866,4|4,3:0|3:0,0:0:0:0:
440,64,201118,2,0,P|496:104|464:224,1,195.00000743866,2|4,3:0|3:0,0:0:0:0:
184,64,201488,5,6,0:0:0:0:
0,32,201674,1,0,0:0:0:0:
368,96,201859,1,8,0:0:0:0:
320,320,202044,5,2,0:0:0:0:
128,288,202229,1,0,0:0:0:0:
512,352,202414,1,0,0:0:0:0:
184,64,202599,5,10,0:0:0:0:
0,32,202785,1,0,0:0:0:0:
368,96,202970,1,0,0:0:0:0:
320,320,203155,5,2,0:0:0:0:
128,288,203340,1,8,0:0:0:0:
512,352,203525,1,0,0:0:0:0:
312,288,203711,6,0,P|379:273|396:150,1,195.00000743866,2|0,0:0|0:0,0:0:0:0:
200,288,204081,2,0,P|132:273|115:150,1,195.00000743866,10|0,0:0|0:0,0:0:0:0:
368,288,204451,5,2,0:0:0:0:
0,352,204636,1,0,0:0:0:0:
184,320,204822,1,8,0:0:0:0:
512,32,205007,5,2,0:0:0:0:
128,96,205192,1,0,0:0:0:0:
320,64,205377,1,0,0:0:0:0:
368,288,205562,5,10,0:0:0:0:
0,352,205748,1,0,0:0:0:0:
184,320,205933,1,0,0:0:0:0:
512,32,206118,5,2,0:0:0:0:
128,96,206303,1,8,0:0:0:0:
320,64,206488,1,0,0:0:0:0:
31,34,206674,6,0,B|70:84|70:84|139:74,1,97.50000371933,8|8,0:3|0:3,0:0:0:0:
482,34,206859,2,0,B|443:84|443:84|374:74,1,97.50000371933,8|8,0:3|0:3,0:0:0:0:
149,97,207044,2,0,B|104:104|104:104|72:64,1,97.50000371933,8|8,0:3|0:3,0:0:0:0:
362,97,207229,2,0,B|408:104|408:104|440:64,1,97.50000371933,8|8,0:3|0:3,0:0:0:0:
368,48,207414,5,6,0:0:0:0:
176,192,207599,1,0,0:0:0:0:
368,336,207785,1,8,0:0:0:0:
288,96,207970,1,2,0:0:0:0:
480,192,208155,1,0,0:0:0:0:
288,288,208340,1,0,0:0:0:0:
144,48,208525,5,10,0:0:0:0:
336,192,208711,1,0,0:0:0:0:
144,336,208896,1,0,0:0:0:0:
224,96,209080,1,2,0:0:0:0:
32,192,209265,1,8,0:0:0:0:
224,288,209451,1,0,0:0:0:0:
272,192,209636,6,0,L|72:192,1,195.00000743866,2|0,0:0|0:0,0:0:0:0:
216,192,210007,2,0,L|16:192,1,195.00000743866,10|0,0:0|0:0,0:0:0:0:
224,96,210377,5,2,0:0:0:0:
32,192,210562,1,0,0:0:0:0:
224,288,210748,1,8,0:0:0:0:
144,48,210933,1,2,0:0:0:0:
336,192,211118,1,0,0:0:0:0:
144,336,211304,1,0,0:0:0:0:
288,96,211488,5,10,0:0:0:0:
480,192,211673,1,0,0:0:0:0:
288,288,211859,1,0,0:0:0:0:
368,48,212044,1,2,0:0:0:0:
176,192,212229,1,8,0:0:0:0:
368,336,212415,1,0,0:0:0:0:
240,192,212599,6,0,L|448:192,1,195.00000743866,4|4,3:0|3:0,0:0:0:0:
296,192,212970,2,0,L|496:192,1,195.00000743866,2|4,3:0|3:0,0:0:0:0:
160,48,213340,6,0,L|240:240,1,195.00000743866,2|0,0:0|0:0,0:0:0:0:
24,48,213711,1,8,0:0:0:0:
240,48,213896,6,0,L|320:240,1,195.00000743866,2|0,0:0|0:0,0:0:0:0:
104,48,214267,1,0,0:0:0:0:
320,48,214451,6,0,L|400:240,1,195.00000743866,10|0,0:0|0:0,0:0:0:0:
184,48,214822,1,0,0:0:0:0:
400,48,215007,6,0,L|480:240,1,195.00000743866,2|8,0:0|0:0,0:0:0:0:
264,48,215378,1,0,0:0:0:0:
475,228,215562,6,0,L|400:48,1,195.00000743866,2|0,0:0|0:0,0:0:0:0:
37,228,215933,2,0,L|112:48,1,195.00000743866,10|0,0:0|0:0,0:0:0:0:
352,336,216303,6,0,L|272:144,1,195.00000743866,2|0,0:0|0:0,0:0:0:0:
488,336,216674,1,8,0:0:0:0:
272,336,216859,6,0,L|192:144,1,195.00000743866,2|0,0:0|0:0,0:0:0:0:
408,336,217230,1,0,0:0:0:0:
192,336,217414,6,0,L|112:144,1,195.00000743866,10|0,0:0|0:0,0:0:0:0:
328,336,217785,1,0,0:0:0:0:
112,336,217970,6,0,L|32:144,1,195.00000743866,2|8,0:0|0:0,0:0:0:0:
248,336,218341,1,0,0:0:0:0:
37,156,218525,6,0,L|112:336,1,195.00000743866,4|4,3:0|3:0,0:0:0:0:
512,96,218896,5,2,3:0:0:0:
416,192,218988,1,4,3:0:0:0:
512,192,219081,1,4,3:0:0:0:
416,192,219174,1,0,3:0:0:0:
512,288,219266,1,4,0:0:0:0:
200,320,219451,6,0,B|152:288|152:288|152:352,2,97.50000371933,2|2|0,0:2|0:2|0:0,0:0:0:0:
104,192,219822,2,0,B|48:192|48:192|64:192|64:192|24:192,2,97.50000371933,2|2|0,0:2|0:2|0:0,0:0:0:0:
200,64,220192,2,0,B|152:96|152:96|152:32,2,97.50000371933,2|2|0,0:2|0:2|0:0,0:0:0:0:
312,64,220562,6,0,B|360:96|360:96|360:32,2,97.50000371933,2|2|0,0:2|0:2|0:0,0:0:0:0:
408,192,220933,2,0,B|464:192|464:192|448:192|448:192|488:192,2,97.50000371933,2|2|0,0:2|0:2|0:0,0:0:0:0:
312,320,221303,2,0,B|360:288|360:288|360:352,2,97.50000371933,2|2|0,0:2|0:2|0:0,0:0:0:0:
160,192,221674,5,2,0:2:0:0:
256,192,221766,1,2,0:2:0:0:
352,192,221859,1,8,3:0:0:0:
160,192,222044,1,4,3:0:0:0:
512,192,222229,1,4,3:0:0:0:
192,304,222414,6,0,L|96:360,2,97.50000371933,2|2|0,0:2|0:2|0:0,0:0:0:0:
128,192,222785,2,0,L|24:192,2,97.50000371933,2|2|0,0:2|0:2|0:0,0:0:0:0:
192,80,223155,2,0,L|96:24,2,97.50000371933,2|2|0,0:2|0:2|0:0,0:0:0:0:
320,80,223525,6,0,L|416:24,2,97.50000371933,2|2|0,0:2|0:2|0:0,0:0:0:0:
384,192,223896,2,0,L|488:192,2,97.50000371933,2|2|0,0:2|0:2|0:0,0:0:0:0:
320,304,224266,2,0,L|416:360,2,97.50000371933,2|2|0,0:2|0:2|0:0,0:0:0:0:
160,192,224729,5,0,0:0:0:0:
352,192,224821,1,8,3:0:0:0:
160,192,225006,1,4,3:0:0:0:
512,192,225191,1,4,3:0:0:0:
184,96,225377,5,2,0:2:0:0:
0,96,225470,1,2,0:2:0:0:
160,96,225562,1,0,0:0:0:0:
328,96,225748,1,2,0:2:0:0:
512,96,225841,1,2,0:2:0:0:
352,96,225933,1,0,0:0:0:0:
184,288,226118,5,2,0:2:0:0:
0,288,226211,1,2,0:2:0:0:
160,288,226303,1,0,0:0:0:0:
328,288,226489,1,2,0:2:0:0:
512,288,226582,1,2,0:2:0:0:
352,288,226674,1,0,0:0:0:0:
240,192,226859,5,2,0:2:0:0:
0,192,226951,1,2,0:2:0:0:
240,192,227044,1,0,0:0:0:0:
272,192,227229,1,2,0:2:0:0:
512,192,227322,1,2,0:2:0:0:
272,192,227414,1,0,0:0:0:0:
158,192,227599,6,0,L|262:192,1,97.50000371933,2|2,0:2|0:2,0:0:0:0:
512,192,227785,1,8,3:0:0:0:
0,192,227970,5,4,3:0:0:0:
0,192,228155,1,4,3:0:0:0:
291,67,228340,6,0,L|191:40,1,97.50000371933,2|2,0:2|0:2,0:0:0:0:
106,16,228525,1,0,0:0:0:0:
335,148,228711,6,0,L|235:119,1,97.50000371933,2|2,0:2|0:2,0:0:0:0:
150,94,228896,1,0,0:0:0:0:
379,227,229081,6,0,L|279:198,1,97.50000371933,2|2,0:2|0:2,0:0:0:0:
194,174,229266,1,0,0:0:0:0:
422,306,229451,6,0,L|322:277,1,97.50000371933,2|2,0:2|0:2,0:0:0:0:
238,253,229636,1,0,0:0:0:0:
466,385,229822,6,0,L|366:356,1,97.50000371933,2|2,0:2|0:2,0:0:0:0:
282,331,230007,1,0,0:0:0:0:
0,244,230192,2,0,L|74:272,1,97.50000371933,2|2,0:2|0:2,0:0:0:0:
432,192,230377,5,4,3:0:0:0:
512,192,230563,1,4,3:0:0:0:
0,192,230748,1,8,3:0:0:0:
80,192,230840,1,4,3:0:0:0:
256,192,230933,1,4,3:0:0:0:
104,128,231118,5,4,0:0:0:0:
352,128,231488,1,4,0:3:0:0:
176,128,231674,1,0,0:0:0:0:
16,64,231859,1,4,0:3:0:0:
144,64,232044,1,0,0:0:0:0:
512,64,232229,1,4,0:3:0:0:
0,64,232785,1,0,0:0:0:0:
512,320,233340,1,4,0:3:0:0:
368,320,233525,1,0,0:0:0:0:
224,320,233711,1,4,0:3:0:0:
368,240,233896,1,0,0:0:0:0:
224,240,234081,5,4,0:3:0:0:
80,240,234266,1,0,0:0:0:0:
384,176,234451,1,4,0:3:0:0:
512,176,234636,1,0,0:0:0:0:
384,112,234822,1,4,0:3:0:0:
128,176,235007,1,0,0:0:0:0:
0,176,235192,1,4,0:3:0:0:
128,112,235377,1,0,0:0:0:0:
480,256,235562,6,0,L|304:144,1,195.00000743866,4|0,0:3|0:0,0:0:0:0:
32,256,235933,2,0,L|208:144,1,195.00000743866,4|0,0:3|0:0,0:0:0:0:
32,48,236303,1,4,0:3:0:0:
464,48,236488,1,0,0:0:0:0:
96,48,236674,1,4,0:3:0:0:
400,48,236859,1,4,0:3:0:0:
80,256,237044,6,0,L|32:64,1,195.00000743866
192,256,237414,2,0,L|240:48,1,195.00000743866
320,256,237785,2,0,L|272:64,1,195.00000743866
432,256,238155,2,0,L|480:48,1,195.00000743866
192,256,238525,6,0,P|144:176|208:208,1,195.00000743866
336,176,238896,2,0,P|400:192|320:240,1,195.00000743866
176,192,239266,1,0,0:0:0:0:
336,192,239451,1,0,0:0:0:0:
176,128,239636,1,0,0:0:0:0:
336,128,239822,1,0,0:0:0:0:
128,128,240007,5,2,0:0:0:0:
368,128,240192,1,0,0:0:0:0:
128,64,240377,1,0,0:0:0:0:
368,64,240562,1,2,0:0:0:0:
32,64,240933,1,2,0:0:0:0:
480,64,241303,1,2,0:0:0:0:
208,176,241674,5,2,0:0:0:0:
32,176,241859,1,0,0:0:0:0:
208,112,242044,1,0,0:0:0:0:
32,112,242229,1,2,0:0:0:0:
480,112,242692,1,2,0:0:0:0:
40,64,243155,5,0,0:0:0:0:
68,64,243224,5,0,0:0:0:0:
96,64,243294,5,0,0:0:0:0:
388,64,243340,5,2,0:0:0:0:
256,192,243433,12,0,248896,0:0:0:0:
