osu file format v14

[General]
AudioFilename: audio.mp3
AudioLeadIn: 0
PreviewTime: -1
Countdown: 0
SampleSet: Normal
StackLeniency: 0.7
Mode: 0
LetterboxInBreaks: 0
SkinPreference:SKINWITHOUTNAME
WidescreenStoryboard: 0

[Editor]
DistanceSpacing: 0.8
BeatDivisor: 2
GridSize: 16
TimelineZoom: 2.1

[Metadata]
Title:At the Speed of Light
TitleUnicode:At the Speed of Light
Artist:Dimrain47
ArtistUnicode:Dimrain47
Creator:Cycopton
Version:Speed of Light
Source:
Tags:
BeatmapID:1694126
BeatmapSetID:807156

[Difficulty]
HPDrainRate:5
CircleSize:5
OverallDifficulty:5
ApproachRate:10
SliderMultiplier:1.50000000596046
SliderTickRate:1

[Events]
//Background and Video events
0,0,"th.jpg",0,0
//Break Periods
2,38718,49920
//Storyboard Layer 0 (Background)
//Storyboard Layer 1 (Fail)
//Storyboard Layer 2 (Pass)
//Storyboard Layer 3 (Foreground)
//Storyboard Sound Samples

[TimingPoints]
0,370.37037037037,4,1,0,100,1,0
5925,-100,4,1,0,100,0,0
14814,-100,4,1,0,100,0,1
38518,-100,4,1,0,100,0,0
62222,-100,4,1,0,100,0,1
67407,-400,4,1,0,100,0,1
68148,-100,4,1,0,100,0,1
73703,-100,4,1,0,100,0,0

[HitObjects]
160,96,5925,5,0,0:0:0:0:
80,160,6296,1,0,0:0:0:0:
208,96,6666,1,0,0:0:0:0:
288,128,7037,1,8,0:0:0:0:
80,112,7407,5,0,0:0:0:0:
112,208,7777,1,0,0:0:0:0:
224,80,8148,1,0,0:0:0:0:
320,160,8518,1,8,0:0:0:0:
128,96,8888,5,0,0:0:0:0:
288,64,9074,1,4,0:0:0:0:
192,176,9259,1,0,0:0:0:0:
192,96,9444,1,4,0:0:0:0:
288,144,9629,5,0,0:0:0:0:
176,208,9814,1,4,0:0:0:0:
336,240,9999,1,0,0:0:0:0:
240,144,10185,1,4,0:0:0:0:
384,144,10370,5,0,0:0:0:0:
288,48,10555,1,4,0:0:0:0:
256,224,10740,1,0,0:0:0:0:
192,144,10925,1,4,0:0:0:0:
352,160,11110,5,0,0:0:0:0:
208,240,11296,1,4,0:0:0:0:
160,224,11480,1,0,0:0:0:0:
224,144,11666,1,4,0:0:0:0:
256,192,11851,5,0,0:0:0:0:
248,193,11943,1,0,0:0:0:0:
241,196,12036,1,0,0:0:0:0:
235,200,12128,1,0,0:0:0:0:
229,205,12221,1,0,0:0:0:0:
224,211,12313,1,0,0:0:0:0:
220,217,12406,1,0,0:0:0:0:
218,224,12499,1,0,0:0:0:0:
216,231,12591,1,0,0:0:0:0:
215,239,12684,1,0,0:0:0:0:
215,246,12776,1,0,0:0:0:0:
217,253,12869,1,0,0:0:0:0:
220,260,12962,1,0,0:0:0:0:
223,267,13054,1,0,0:0:0:0:
228,273,13147,5,0,0:0:0:0:
234,278,13239,1,0,0:0:0:0:
240,282,13332,1,0,0:0:0:0:
247,285,13425,1,0,0:0:0:0:
254,287,13517,1,0,0:0:0:0:
261,288,13610,1,0,0:0:0:0:
269,288,13702,1,0,0:0:0:0:
276,286,13795,1,0,0:0:0:0:
283,284,13888,1,0,0:0:0:0:
290,280,13980,1,0,0:0:0:0:
296,276,14074,1,2,0:0:0:0:
176,64,14814,6,0,P|96:64|96:144,1,150.000000596046
80,144,15370,1,0,0:0:0:0:
80,176,15555,2,0,P|61:263|109:295,1,150.000000596046
144,272,16111,1,0,0:0:0:0:
176,256,16296,2,0,B|240:208|240:208|192:144|192:160|208:128,1,150.000000596046
224,144,16851,1,0,0:0:0:0:
272,128,17037,2,0,B|352:96|352:96|384:176,1,150.000000596046
320,224,17592,1,0,0:0:0:0:
256,192,17777,12,0,18888,0:0:0:0:
96,128,19259,6,0,L|256:80,1,150.000000596046
304,112,19814,1,0,0:0:0:0:
368,224,19999,5,2,0:0:0:0:
240,288,20185,1,2,0:0:0:0:
224,144,20370,1,0,0:0:0:0:
432,128,20555,1,2,0:0:0:0:
256,96,20740,5,4,0:0:0:0:
224,77,20832,1,0,0:0:0:0:
188,84,20925,1,0,0:0:0:0:
166,114,21017,1,0,0:0:0:0:
170,150,21110,1,0,0:0:0:0:
224,208,21296,5,0,0:0:0:0:
128,240,21481,1,4,0:0:0:0:
163,251,21573,1,0,0:0:0:0:
199,263,21666,1,0,0:0:0:0:
234,275,21758,1,0,0:0:0:0:
270,287,21851,1,0,0:0:0:0:
336,240,22037,5,0,0:0:0:0:
304,96,22222,1,4,0:0:0:0:
240,240,22407,1,0,0:0:0:0:
208,112,22592,1,0,0:0:0:0:
384,192,22777,1,0,0:0:0:0:
320,112,22962,5,4,0:0:0:0:
384,176,23148,1,0,0:0:0:0:
304,240,23333,1,0,0:0:0:0:
400,288,23518,1,0,0:0:0:0:
384,288,23703,5,0,0:0:0:0:
384,278,23795,1,0,0:0:0:0:
384,267,23888,1,0,0:0:0:0:
384,256,23980,1,0,0:0:0:0:
384,245,24073,1,0,0:0:0:0:
256,192,24259,5,0,0:0:0:0:
128,96,24444,5,0,0:0:0:0:
128,106,24536,1,0,0:0:0:0:
128,117,24629,1,0,0:0:0:0:
128,128,24721,1,0,0:0:0:0:
128,139,24814,1,0,0:0:0:0:
256,192,24999,5,0,0:0:0:0:
368,144,25185,2,0,L|368:240,1,75.000000298023
144,144,25555,2,0,L|144:240,1,75.000000298023,0|2,0:0|0:0,0:0:0:0:
208,224,25925,2,0,L|208:128,1,75.000000298023
304,224,26296,2,0,L|304:128,1,75.000000298023,0|2,0:0|0:0,0:0:0:0:
224,96,26666,5,0,0:0:0:0:
352,160,26851,2,8,L|272:144,2,75.000000298023,8|8|12,0:0|0:0|0:0,0:0:0:0:
224,208,27407,1,0,0:0:0:0:
176,160,27592,2,8,P|176:128|128:128,2,75.000000298023
256,176,28148,5,0,0:0:0:0:
192,224,28333,1,8,0:0:0:0:
192,224,28518,1,8,0:0:0:0:
192,224,28703,1,8,0:0:0:0:
256,144,28888,1,0,0:0:0:0:
256,144,29074,2,8,L|304:80,2,75.000000298023
144,112,29629,5,0,0:0:0:0:
198,99,29814,1,0,0:0:0:0:
253,110,29999,1,0,0:0:0:0:
302,137,30184,1,0,0:0:0:0:
337,180,30370,5,0,0:0:0:0:
346,235,30554,1,0,0:0:0:0:
321,285,30740,1,0,0:0:0:0:
276,318,30925,1,0,0:0:0:0:
250,328,31018,5,0,0:0:0:0:
224,336,31110,5,0,0:0:0:0:
208,320,31203,1,0,0:0:0:0:
198,293,31295,1,0,0:0:0:0:
195,265,31388,1,0,0:0:0:0:
198,237,31480,1,0,0:0:0:0:
206,210,31573,1,0,0:0:0:0:
217,185,31665,1,0,0:0:0:0:
233,161,31758,1,0,0:0:0:0:
253,141,31851,5,0,0:0:0:0:
276,126,31943,1,0,0:0:0:0:
303,118,32036,1,0,0:0:0:0:
331,117,32128,1,0,0:0:0:0:
358,126,32221,1,0,0:0:0:0:
381,142,32314,1,0,0:0:0:0:
399,162,32406,1,0,0:0:0:0:
414,187,32499,1,0,0:0:0:0:
256,192,32592,5,0,0:0:0:0:
256,240,32777,2,8,L|256:320,2,75.000000298023
320,240,33333,1,0,0:0:0:0:
256,144,33518,2,8,L|320:80,2,75.000000298023
176,192,34074,1,0,0:0:0:0:
320,240,34259,1,8,0:0:0:0:
416,272,34444,1,8,0:0:0:0:
320,240,34629,1,8,0:0:0:0:
208,192,34814,1,0,0:0:0:0:
112,272,34999,2,8,P|64:304|96:320,2,75.000000298023
256,192,35555,12,0,38518,0:0:0:0:
112,144,50370,6,0,P|112:64|192:64,1,150.000000596046,0|2,0:0|0:0,0:0:0:0:
224,64,50925,2,0,P|288:96|320:192,1,150.000000596046,0|2,0:0|0:0,0:0:0:0:
80,224,51481,2,0,P|80:304|128:288,1,150.000000596046,0|2,0:0|0:0,0:0:0:0:
176,320,52037,2,0,P|272:304|288:256,1,150.000000596046,0|2,0:0|0:0,0:0:0:0:
176,208,52592,5,0,0:0:0:0:
240,112,52962,1,0,0:0:0:0:
320,176,53333,6,0,P|400:128|400:128,1,75.000000298023
320,96,53703,1,8,0:0:0:0:
176,160,53888,2,0,P|160:208|192:208,1,75.000000298023
96,240,54259,1,8,0:0:0:0:
256,240,54444,2,0,P|320:224|320:144,1,150.000000596046,0|8,0:0|0:0,0:0:0:0:
288,128,54999,2,0,P|224:144|224:224,1,150.000000596046,0|8,0:0|0:0,0:0:0:0:
208,272,55555,2,0,L|64:336,2,150.000000596046
208,192,56481,5,0,0:0:0:0:
288,112,56666,1,0,0:0:0:0:
160,160,56851,1,4,0:0:0:0:
272,192,57037,1,0,0:0:0:0:
272,192,57222,1,0,0:0:0:0:
192,240,57407,6,4,P|224:272|256:256,1,75.000000298023
304,208,57777,1,0,0:0:0:0:
304,128,57962,2,4,P|283:98|247:103,1,75.000000298023
191,159,58332,1,0,0:0:0:0:
208,272,58518,2,2,L|272:208,1,75.000000298023
224,144,58888,2,2,P|288:144|304:160,1,75.000000298023
112,96,59259,5,0,0:0:0:0:
128,256,59444,1,0,0:0:0:0:
128,256,59629,1,4,0:0:0:0:
208,176,59814,1,0,0:0:0:0:
288,96,59999,2,0,P|336:96|336:128,2,75.000000298023,0|0|4,0:0|0:0|0:0,0:0:0:0:
320,208,60555,1,0,0:0:0:0:
320,208,60740,1,0,0:0:0:0:
208,144,60925,1,0,0:0:0:0:
288,256,61111,1,0,0:0:0:0:
416,304,61296,1,0,0:0:0:0:
304,208,61481,5,2,0:0:0:0:
368,240,61851,1,2,0:0:0:0:
121,324,62222,5,0,0:0:0:0:
170,316,62345,1,0,0:0:0:0:
218,300,62469,1,0,0:0:0:0:
260,273,62592,1,0,0:0:0:0:
284,231,62716,1,0,0:0:0:0:
288,181,62839,1,0,0:0:0:0:
279,132,62963,1,0,0:0:0:0:
258,87,63086,1,0,0:0:0:0:
220,55,63210,1,0,0:0:0:0:
172,51,63333,1,0,0:0:0:0:
128,74,63457,1,0,0:0:0:0:
97,112,63580,1,0,0:0:0:0:
80,160,63703,5,0,0:0:0:0:
75,184,63765,1,0,0:0:0:0:
78,209,63827,1,0,0:0:0:0:
83,233,63888,1,0,0:0:0:0:
90,257,63950,1,0,0:0:0:0:
99,281,64012,1,0,0:0:0:0:
111,303,64074,1,0,0:0:0:0:
126,323,64135,1,0,0:0:0:0:
145,338,64197,1,0,0:0:0:0:
168,347,64259,1,0,0:0:0:0:
193,351,64321,1,0,0:0:0:0:
218,351,64382,1,0,0:0:0:0:
243,348,64444,1,0,0:0:0:0:
267,342,64506,5,0,0:0:0:0:
290,333,64567,1,0,0:0:0:0:
312,321,64629,1,0,0:0:0:0:
330,304,64691,1,0,0:0:0:0:
344,283,64753,1,0,0:0:0:0:
350,259,64814,1,0,0:0:0:0:
348,235,64876,5,0,0:0:0:0:
340,211,64938,1,0,0:0:0:0:
325,191,65000,1,0,0:0:0:0:
307,173,65061,1,0,0:0:0:0:
287,160,65123,1,0,0:0:0:0:
144,128,65185,6,2,P|144:176|176:176,1,75.000000298023
256,80,65555,2,0,P|256:128|224:128,1,75.000000298023
288,288,65925,2,2,P|288:240|320:240,1,75.000000298023
416,144,66296,2,0,P|416:192|384:192,1,75.000000298023
288,224,66666,2,2,P|288:176|320:176,1,75.000000298023
224,224,67037,2,0,P|224:272|192:272,1,75.000000298023
256,112,67407,6,2,P|256:144|272:160,1,56.2500002235172
112,96,68148,5,0,0:0:0:0:
272,192,68333,1,0,0:0:0:0:
128,224,68518,1,8,0:0:0:0:
208,96,68703,1,0,0:0:0:0:
352,144,68888,1,0,0:0:0:0:
384,256,69074,1,8,0:0:0:0:
240,192,69259,5,0,0:0:0:0:
400,144,69444,1,0,0:0:0:0:
320,192,69629,1,8,0:0:0:0:
256,112,69814,1,0,0:0:0:0:
384,208,69999,1,0,0:0:0:0:
464,192,70185,1,8,0:0:0:0:
464,272,70370,5,0,0:0:0:0:
384,256,70555,1,0,0:0:0:0:
304,240,70740,2,8,L|128:208,1,150.000000596046
256,192,71296,12,0,73703,0:0:0:0:
256,192,74074,5,14,0:0:0:0:
