osu file format v14

[General]
AudioFilename: audio.mp3
AudioLeadIn: 0
PreviewTime: -1
Countdown: 0
SampleSet: Normal
StackLeniency: 0.7
Mode: 0
LetterboxInBreaks: 0
WidescreenStoryboard: 1

[Editor]
Bookmarks: 11831,17718,39093,50343,84415,109647,115573,133350,156313,160017,162980,165943,168906,171869,174832,180665
DistanceSpacing: 1
BeatDivisor: 4
GridSize: 8
TimelineZoom: 1

[Metadata]
Title:At the Speed of Light
TitleUnicode:At the Speed of Light
Artist:Dimrain47
ArtistUnicode:Dimrain47
Creator:Articninja
Version:Speed of Sound
Source:
Tags:
BeatmapID:1288463
BeatmapSetID:603997

[Difficulty]
HPDrainRate:5.7
CircleSize:4.6
OverallDifficulty:6
ApproachRate:9.2
SliderMultiplier:1.3
SliderTickRate:1

[Events]
//Background and Video events
0,0,"Space.jpg",0,0
//Break Periods
2,65263,67580
2,109846,114956
2,145587,155743
2,184013,192595
//Storyboard Layer 0 (Background)
//Storyboard Layer 1 (Fail)
//Storyboard Layer 2 (Pass)
//Storyboard Layer 3 (Foreground)
//Storyboard Sound Samples

[TimingPoints]
5906,370.37037037037,4,1,0,50,1,0
8868,-83.3333333333333,4,1,0,70,0,0
10350,-166.666666666667,4,1,0,75,0,0
14424,-125,4,1,0,50,0,0
17718,-100,4,1,0,80,0,0
20718,-90.9090909090909,4,1,0,60,0,0
23718,-90.9090909090909,4,1,0,80,0,0
26718,-142.857142857143,4,1,0,60,0,0
32624,-166.666666666667,4,1,0,50,0,0
35624,-166.666666666667,4,1,0,80,0,0
37968,-50,4,1,0,100,0,0
38531,-100,4,1,0,100,0,0
39093,370.37037037037,4,2,0,50,1,0
39093,-100,4,2,0,40,0,0
50342,370.37037037037,4,1,0,60,1,0
62193,-100,4,1,0,75,0,0
65156,-66.6666666666667,4,1,0,75,0,0
68150,370.37037037037,4,1,0,75,1,0
71267,370.37037037037,4,1,0,75,1,0
74045,-100,4,2,0,50,0,0
82286,-100,4,2,0,25,0,0
85017,-100,4,1,0,70,0,0
85573,-100,4,1,0,80,0,0
88813,-66.6666666666667,4,1,0,80,0,0
97795,-66.6666666666667,4,1,0,70,0,0
102980,-66.6666666666667,4,1,0,60,0,0
106684,-66.6666666666667,4,3,0,50,0,0
108906,-100,4,2,0,30,0,0
115573,-100,4,2,0,30,0,0
120017,-66.6666666666667,4,2,0,30,0,0
120943,-66.6666666666667,4,2,0,60,0,0
125202,-83.3333333333333,4,2,0,60,0,0
133350,-83.3333333333333,4,1,0,85,0,0
156313,-66.6666666666667,4,1,0,90,0,0
159276,-50,4,1,0,85,0,0
160017,-100,4,1,0,85,0,0
170017,-66.6666666666667,4,1,0,85,0,0
170665,-66.6666666666667,4,1,0,85,0,0
177795,-133.333333333333,4,1,0,85,0,0
180665,-66.6666666666667,4,1,0,85,0,0
194091,-71.4285714285714,4,1,0,70,0,0

[HitObjects]
48,272,5905,6,0,B|24:304|24:304|32:336|32:336,1,65
64,208,6276,2,0,B|40:240|40:240|48:272|48:272,1,65
124,190,6656,2,0,B|156:206|156:206|180:174|180:174|204:190|204:190|220:166|220:166|244:182|244:182|288:144|288:144,1,195
35,157,7387,6,0,B|0:172|0:172|3:212|3:212,1,65
87,131,7757,2,0,B|47:132|47:132|38:172|38:172,1,65
142,124,8128,2,0,B|162:154|162:154|199:138|199:138|211:164|211:164|237:151|237:151|250:177|250:177|287:161|287:161,1,195
20,332,9054,2,0,B|61:270|61:270|138:303|138:303|162:249|162:249|216:276|216:276|243:223|243:223|320:256|320:256,1,389.999988098145
288,248,10350,6,0,B|287:250|302:130|302:130|190:83,1,233.999992858887
386,86,11831,5,0,0:0:0:0:
402,96,11924,1,0,0:0:0:0:
417,109,12018,1,0,0:0:0:0:
430,124,12112,1,0,0:0:0:0:
441,140,12205,1,0,0:0:0:0:
449,157,12299,1,0,0:0:0:0:
455,176,12393,1,0,0:0:0:0:
458,195,12487,1,0,0:0:0:0:
458,215,12580,1,0,0:0:0:0:
455,234,12674,1,0,0:0:0:0:
449,252,12768,1,0,0:0:0:0:
401,313,13237,1,0,0:0:0:0:
385,324,13331,1,0,0:0:0:0:
369,334,13424,1,0,0:0:0:0:
351,343,13518,1,0,0:0:0:0:
333,349,13612,1,0,0:0:0:0:
304,352,13706,2,0,B|320:355|292:349|292:349|280:312,1,58.4999982147217
128,144,14424,22,0,B|136:144|136:144|144:144|144:144|152:144|152:144|160:144|160:144|168:144|168:144|240:144|240:144,1,104
312,64,15165,1,0,0:0:0:0:
376,88,15350,2,0,L|376:160,1,52
368,224,15720,1,0,0:0:0:0:
312,240,15906,1,0,0:0:0:0:
256,256,16091,2,0,L|224:192,1,52
176,80,16461,1,0,0:0:0:0:
240,72,16646,1,0,0:0:0:0:
360,224,17062,2,0,L|368:320,2,78
320,176,17718,22,0,B|300:206|300:206|263:190|263:190|251:216|251:216|225:203|225:203|212:229|212:229|192:224|192:224,1,162.5
160,248,18281,1,0,0:0:0:0:
112,216,18374,2,0,L|104:176,1,32.5
128,136,18562,1,0,0:0:0:0:
128,136,18656,1,0,0:0:0:0:
240,120,18843,2,0,L|272:144,4,32.5
160,56,19312,6,0,L|192:40,1,32.5
256,40,19499,1,0,0:0:0:0:
256,40,19593,1,0,0:0:0:0:
344,80,19781,2,0,L|352:112,3,32.5
368,168,20156,2,0,L|376:200,3,32.5
368,248,20531,1,0,0:0:0:0:
336,288,20624,1,0,0:0:0:0:
288,312,20718,6,0,P|216:344|160:288,3,143.000004364014
136,256,22218,2,0,P|141:182|203:154,1,143.000004364014
256,184,22968,2,0,P|250:257|188:285,1,143.000004364014,0|0,0:3|0:3,0:3:0:0:
56,280,23683,22,0,L|34:308,2,35.7500010910034
88,176,24054,2,0,L|66:204,2,35.7500010910034
144,104,24424,2,0,L|105:100,2,35.7500010910034
256,96,24794,6,0,P|304:96|304:96,1,35.7500010910034
288,136,24980,2,0,P|336:136|336:136,1,35.7500010910034
320,176,25165,2,0,P|368:176|368:176,1,35.7500010910034
416,192,25350,37,0,0:0:0:0:
416,192,25443,1,0,0:0:0:0:
416,192,25804,5,0,0:0:0:0:
445,171,25898,1,0,0:0:0:0:
469,145,25992,1,0,0:0:0:0:
479,111,26086,1,0,0:0:0:0:
468,77,26179,1,0,0:0:0:0:
440,55,26273,1,0,0:0:0:0:
405,51,26367,1,0,0:0:0:0:
373,67,26461,1,0,0:0:0:0:
416,112,26646,38,0,P|344:184|336:264,1,181.999994445801
433,209,27843,1,0,0:0:0:0:
416,112,28124,38,0,P|344:40|264:32,1,181.999994445801
200,64,29062,5,0,0:0:0:0:
152,112,29249,1,0,0:0:0:0:
112,168,29437,1,0,0:0:0:0:
360,200,29609,6,0,L|320:160,1,45.4999986114502
360,144,29887,2,0,L|328:112,1,45.4999986114502
360,96,30165,2,0,L|320:56,1,45.4999986114502
312,48,30443,2,0,L|280:40,1,22.7499993057251
252,41,30628,1,0,0:0:0:0:
231,50,30720,1,0,0:0:0:0:
215,67,30813,1,0,0:0:0:0:
206,87,30906,1,0,0:0:0:0:
192,120,30998,2,0,L|176:160,1,22.7499993057251
176,232,31218,6,0,P|216:272|216:272,2,45.4999986114502
112,168,31781,1,0,0:0:0:0:
280,328,31968,2,0,L|320:312,1,22.7499993057251
352,256,32249,1,0,0:0:0:0:
352,216,32343,1,0,0:0:0:0:
352,176,32437,1,0,0:0:0:0:
304,120,32572,6,0,L|392:88,1,77.999997619629
208,120,33313,2,0,L|120:88,1,77.999997619629
304,264,34054,2,0,L|392:296,1,77.999997619629
208,264,34794,1,0,0:0:0:0:
256,192,35072,5,0,0:0:0:0:
256,192,35165,1,0,0:0:0:0:
256,192,35257,1,0,0:0:0:0:
368,240,35535,6,0,L|376:272,3,19.4999994049072
158,264,35906,2,0,L|126:255,3,19.4999994049072
241,71,36276,2,0,L|248:104,1,19.4999994049072
263,133,36461,1,0,0:0:0:0:
274,148,36554,1,0,0:0:0:0:
289,161,36646,1,0,0:0:0:0:
305,171,36739,1,0,0:0:0:0:
324,177,36831,1,0,0:0:0:0:
343,180,36924,1,0,0:0:0:0:
363,179,37017,1,0,0:0:0:0:
384,171,37109,1,0,0:0:0:0:
384,96,37387,5,0,0:0:0:0:
456,224,37572,1,0,0:0:0:0:
320,224,37757,1,0,0:0:0:0:
464,105,38035,6,0,B|452:130|443:147|417:197|305:196|239:94|322:-25|441:11|460:77,1,325
64,312,39093,5,0,0:0:0:0:
152,256,39648,1,0,0:0:0:0:
232,200,40204,1,0,0:0:0:0:
416,200,40759,5,0,0:0:0:0:
320,288,40944,1,0,0:0:0:0:
352,136,41130,1,0,0:0:0:0:
288,72,41315,2,0,P|288:40|257:30,2,65
216,168,41870,1,0,0:0:0:0:
80,256,42055,1,0,0:0:0:0:
216,288,42241,2,0,L|278:304,1,65,0|0,0:3|0:3,0:3:0:0:
336,320,42611,2,0,L|398:336,1,65,0|0,0:3|0:3,0:3:0:0:
480,232,43167,5,0,0:0:0:0:
432,64,43352,1,0,0:0:0:0:
376,192,43537,1,0,0:0:0:0:
328,24,43722,1,0,0:0:0:0:
328,24,43907,1,0,0:0:0:0:
256,112,44092,1,0,0:0:0:0:
248,104,44185,2,0,L|272:128,1,32.5
96,240,44463,6,0,L|158:256,1,65,0|0,0:3|0:3,0:3:0:0:
224,136,44833,1,0,0:0:0:0:
216,272,45018,2,0,L|278:288,1,65,0|0,0:3|0:3,0:3:0:0:
344,168,45389,1,0,0:0:0:0:
336,304,45574,2,0,L|398:320,1,65,0|0,0:3|0:3,0:3:0:0:
448,280,45944,1,0,0:0:0:0:
256,200,46130,6,0,B|208:200|168:168|176:112,1,130
208,64,46685,1,0,0:0:0:0:
253,108,46870,1,0,0:0:0:0:
316,103,47055,1,0,0:0:0:0:
380,94,47241,1,0,0:0:0:0:
438,122,47426,2,0,P|480:176|440:232,1,130
368,288,47981,5,0,0:0:0:0:
256,72,48352,5,0,0:0:0:0:
128,272,48722,5,0,0:0:0:0:
72,152,49092,5,0,0:0:0:0:
125,91,49278,1,0,0:0:0:0:
200,120,49463,1,0,0:0:0:0:
264,166,49648,2,0,B|312:182|332:218|344:238|344:262|344:270,1,130
348,346,50296,6,0,P|395:309|340:224,1,162.5
32,64,51082,1,0,0:0:0:0:
48,200,51453,1,0,0:0:0:0:
512,48,52008,1,0,0:0:0:0:
328,160,52564,1,0,0:0:0:0:
328,32,52934,1,0,0:0:0:0:
432,120,53304,2,0,P|448:216|360:272,2,195
288,304,54971,6,0,L|160:224,1,130
128,224,55527,2,0,L|184:192,1,65
232,152,55897,2,0,L|168:136,1,65
96,120,56267,5,0,0:0:0:0:
392,40,56823,1,0,0:0:0:0:
96,264,57379,1,0,0:0:0:0:
392,344,57934,1,0,0:0:0:0:
320,232,58490,5,0,0:0:0:0:
264,192,58860,2,0,L|208:152,1,65
136,104,59230,1,0,0:0:0:0:
376,280,59786,1,0,0:0:0:0:
160,80,60341,1,0,0:0:0:0:
400,256,60897,1,0,0:0:0:0:
472,128,61453,2,0,L|464:264,1,130
128,64,62193,6,0,L|144:208,1,130
192,80,62749,2,0,L|208:224,1,130
272,256,63490,6,0,L|328:304,1,65
367,311,63767,1,0,0:0:0:0:
399,309,63860,1,0,0:0:0:0:
429,296,63952,1,0,0:0:0:0:
453,275,64045,1,0,0:0:0:0:
469,247,64137,1,0,0:0:0:0:
476,215,64230,1,0,0:0:0:0:
472,183,64323,1,0,0:0:0:0:
458,154,64415,1,0,0:0:0:0:
435,131,64508,1,0,0:0:0:0:
406,116,64600,1,0,0:0:0:0:
367,108,64693,1,0,0:0:0:0:
332,109,64785,1,0,0:0:0:0:
298,124,64878,1,0,0:0:0:0:
265,145,64970,1,0,0:0:0:0:
237,172,65063,1,0,0:0:0:0:
32,176,68150,5,0,0:0:0:0:
52,150,68242,1,0,0:0:0:0:
75,127,68335,1,0,0:0:0:0:
101,108,68427,1,0,0:0:0:0:
129,92,68520,1,0,0:0:0:0:
159,79,68612,1,0,0:0:0:0:
190,70,68705,1,0,0:0:0:0:
222,65,68798,1,0,0:0:0:0:
255,64,68890,1,0,0:0:0:0:
287,67,68983,1,0,0:0:0:0:
319,74,69075,1,0,0:0:0:0:
349,85,69168,1,0,0:0:0:0:
378,100,69261,1,0,0:0:0:0:
405,118,69353,1,0,0:0:0:0:
430,139,69446,1,0,0:0:0:0:
452,163,69538,1,0,0:0:0:0:
470,190,69631,1,0,0:0:0:0:
32,208,69724,5,0,0:0:0:0:
52,233,69816,1,0,0:0:0:0:
75,256,69909,1,0,0:0:0:0:
101,275,70001,1,0,0:0:0:0:
129,291,70094,1,0,0:0:0:0:
159,304,70186,1,0,0:0:0:0:
190,313,70279,1,0,0:0:0:0:
222,318,70372,1,0,0:0:0:0:
255,319,70464,1,0,0:0:0:0:
287,316,70557,1,0,0:0:0:0:
319,309,70649,1,0,0:0:0:0:
349,298,70742,1,0,0:0:0:0:
378,283,70835,1,0,0:0:0:0:
405,265,70927,1,0,0:0:0:0:
430,244,71020,1,0,0:0:0:0:
452,220,71112,1,0,0:0:0:0:
470,193,71205,1,0,0:0:0:0:
176,128,71267,6,0,P|208:96|240:96,1,65
336,256,71823,2,0,P|304:288|272:288,1,65
160,272,72471,5,0,0:0:0:0:
256,192,72749,1,0,0:0:0:0:
352,96,73027,1,0,0:0:0:0:
168,176,73490,5,0,0:0:0:0:
147,151,73582,1,0,0:0:0:0:
138,120,73675,1,0,0:0:0:0:
146,89,73767,1,0,0:0:0:0:
169,66,73860,1,0,0:0:0:0:
199,56,73953,1,0,0:0:0:0:
248,40,74045,6,0,P|304:32|360:80,1,130
384,168,74786,5,0,0:0:0:0:
320,288,75156,2,0,B|264:328|216:328|112:264,1,195
48,184,76082,2,0,P|64:144|104:144,1,65
184,160,76453,1,0,0:0:0:0:
288,176,76638,5,0,0:0:0:0:
319,168,76730,1,0,0:0:0:0:
350,173,76823,1,0,0:0:0:0:
377,192,76916,1,0,0:0:0:0:
432,232,77008,2,0,L|472:208,24,32.5
384,144,79507,5,0,0:0:0:0:
359,125,79693,1,0,0:0:0:0:
327,119,79786,1,0,0:0:0:0:
296,126,79879,1,0,0:0:0:0:
232,160,79971,2,0,L|200:192,20,32.5
208,48,82286,5,0,0:0:0:0:
256,88,82656,1,0,0:0:0:0:
304,128,83027,2,0,B|360:104|504:128|424:288|320:256,1,292.5
272,96,84416,6,0,P|272:136|312:144,1,65
336,88,85017,2,0,P|336:128|376:136,1,65
400,80,85573,2,0,P|400:120|440:128,1,65
416,224,85943,5,0,0:0:0:0:
393,265,86036,1,0,0:0:0:0:
355,297,86128,1,0,0:0:0:0:
310,312,86221,1,0,0:0:0:0:
112,248,86544,6,0,L|112:208,3,32.5
155,286,87007,5,0,0:0:0:0:
207,260,87100,1,0,0:0:0:0:
239,219,87192,1,0,0:0:0:0:
254,166,87285,1,0,0:0:0:0:
256,104,87377,5,0,0:0:0:0:
238,76,87470,1,0,0:0:0:0:
212,57,87563,1,0,0:0:0:0:
181,47,87655,1,0,0:0:0:0:
149,46,87748,1,0,0:0:0:0:
117,51,87840,1,0,0:0:0:0:
88,64,87933,1,0,0:0:0:0:
64,80,88026,1,0,0:0:0:0:
32,144,88118,6,0,L|56:168,3,32.5
115,222,88489,5,0,0:0:0:0:
165,258,88581,1,0,0:0:0:0:
224,269,88674,1,0,0:0:0:0:
307,252,88766,2,0,P|355:228|368:160,1,97.5
384,136,89229,6,0,P|430:126|465:157,1,97.50000371933
384,200,89600,2,0,P|430:190|465:221,1,97.50000371933
384,264,89970,6,0,P|348:295|302:285,1,97.50000371933
192,208,90340,1,0,0:0:0:0:
256,272,90758,6,0,L|312:272,3,48.750001859665
368,224,91128,1,0,0:0:0:0:
349,185,91221,1,0,0:0:0:0:
322,153,91313,1,0,0:0:0:0:
286,130,91406,1,0,0:0:0:0:
245,119,91499,1,0,0:0:0:0:
203,124,91591,1,0,0:0:0:0:
165,144,91684,1,0,0:0:0:0:
136,175,91776,1,0,0:0:0:0:
104,280,91869,6,0,P|96:312|144:304,1,97.50000371933
216,296,92192,5,0,0:0:0:0:
261,308,92285,1,0,0:0:0:0:
296,277,92378,1,0,0:0:0:0:
336,216,92470,2,0,L|352:168,1,48.750001859665
336,112,92655,1,0,0:0:0:0:
311,70,92748,1,0,0:0:0:0:
269,47,92841,1,0,0:0:0:0:
221,48,92933,6,0,P|173:40|133:72,1,97.50000371933
152,128,93304,2,0,P|190:100|237:108,1,97.50000371933
256,168,93674,2,0,P|208:160|168:192,1,97.50000371933
328,216,94044,1,0,0:3:0:0:
383,112,94229,1,0,0:3:0:0:
487,167,94414,1,0,0:3:0:0:
431,270,94600,1,0,0:3:0:0:
366,159,94785,6,0,P|406:127|398:87,1,97.50000371933
368,64,95063,1,0,0:0:0:0:
321,51,95155,1,0,0:0:0:0:
273,62,95248,1,0,0:0:0:0:
237,93,95340,1,0,0:0:0:0:
218,138,95433,1,0,0:0:0:0:
215,186,95526,1,0,0:0:0:0:
228,233,95618,1,0,0:0:0:0:
258,273,95711,2,0,L|318:298,2,48.750001859665
200,288,95989,5,0,0:0:0:0:
163,318,96081,1,0,0:0:0:0:
120,312,96174,1,0,0:0:0:0:
89,281,96266,2,0,B|49:240|80:180|75:192,1,97.50000371933
96,144,96544,1,0,0:0:0:0:
125,105,96637,1,0,0:0:0:0:
163,74,96729,1,0,0:0:0:0:
207,52,96822,1,0,0:0:0:0:
254,41,96961,2,0,L|208:0,2,48.750001859665
304,56,97239,5,0,0:0:0:0:
338,89,97332,1,0,0:0:0:0:
355,134,97424,1,0,0:0:0:0:
361,183,97517,1,0,0:0:0:0:
400,152,97610,1,0,0:0:0:0:
440,120,97702,1,0,0:0:0:0:
480,96,97795,6,0,B|448:48|448:48|440:48,2,48.750001859665
488,144,98073,1,0,0:0:0:0:
472,192,98165,2,0,P|488:240|456:264,1,97.50000371933
392,288,98536,2,0,L|344:296,3,48.750001859665
312,296,98906,2,0,L|304:248,3,48.750001859665
280,216,99276,1,0,0:0:0:0:
240,200,99369,1,0,0:0:0:0:
184,192,99461,6,0,P|128:192|120:152,1,97.50000371933
112,112,99739,1,0,0:0:0:0:
128,64,99832,1,0,0:0:0:0:
168,32,99924,1,0,0:0:0:0:
216,32,100017,6,0,P|262:34|281:76,1,97.50000371933
216,88,100387,2,0,P|262:90|281:132,1,97.50000371933
216,144,100758,2,0,P|262:146|281:188,1,97.50000371933
304,232,101036,1,0,0:0:0:0:
344,256,101128,1,0,0:0:0:0:
384,232,101221,1,0,0:0:0:0:
408,176,101313,6,0,P|400:128|360:96,1,97.50000371933
320,80,101591,1,0,0:0:0:0:
280,56,101684,1,0,0:0:0:0:
240,72,101776,1,0,0:0:0:0:
192,104,101869,2,0,P|160:152|120:144,1,97.50000371933
88,96,102147,1,0,0:0:0:0:
88,96,102239,1,0,0:0:0:0:
88,96,102332,1,0,0:0:0:0:
88,96,102424,6,0,P|56:48|16:56,1,97.50000371933
168,96,102933,6,0,B|162:92|250:148,1,97.50000371933
331,200,103303,2,0,P|243:144|243:144,1,97.50000371933
192,232,103674,2,0,B|188:237|244:149,1,97.50000371933
272,112,103952,1,0,0:0:0:0:
296,80,104044,1,0,0:0:0:0:
320,48,104137,1,0,0:0:0:0:
344,24,104229,6,0,P|390:26|409:68,1,97.50000371933
408,128,104507,1,0,0:0:0:0:
408,175,104600,1,0,0:0:0:0:
372,205,104692,1,0,0:0:0:0:
312,208,104785,6,0,P|358:210|377:252,1,97.50000371933
368,296,105063,1,0,0:0:0:0:
344,328,105155,1,0,0:0:0:0:
304,352,105248,1,0,0:0:0:0:
248,352,105340,6,0,P|191:342|155:289,1,97.50000371933
164,155,105711,1,0,0:0:0:0:
264,32,105896,2,0,P|320:41|356:94,1,97.50000371933
400,152,106266,1,0,0:0:0:0:
320,240,106637,6,0,L|280:192,7,48.750001859665
192,240,107424,2,0,L|232:192,7,48.750001859665
256,103,108165,2,0,L|256:152,7,48.750001859665
199,132,108906,2,0,P|262:43|311:140,1,260
256,160,115526,6,0,P|288:120|320:120,1,65
400,96,115896,1,0,0:0:0:0:
400,96,116081,1,0,0:0:0:0:
416,208,116266,2,0,P|387:194|368:160,1,65
288,48,116637,1,0,0:0:0:0:
288,48,116822,1,0,0:0:0:0:
224,64,117007,6,0,P|192:128|256:224,1,195
176,320,117748,2,0,P|147:306|112:272,1,65
64,240,118165,1,0,0:0:0:0:
64,240,118350,1,0,0:0:0:0:
128,160,118536,2,0,P|109:133|112:101,1,65
160,48,118906,6,0,L|240:64,1,65
288,112,119276,1,0,0:0:0:0:
320,192,119461,1,0,0:0:0:0:
320,288,119647,6,0,L|252:333,1,65
112,288,120017,2,0,B|224:224|224:112|64:112|64:192|80:224|144:240|160:256|240:144|256:32,1,487.50001859665
320,240,121128,2,0,L|368:128,1,97.50000371933
128,48,121499,6,0,B|80:80|112:128|128:128,1,97.50000371933
226,83,121869,1,0,0:0:0:0:
364,221,122054,1,0,0:0:0:0:
176,272,122239,2,0,P|207:316|256:315,1,97.50000371933
335,272,122610,2,0,P|303:316|254:315,1,97.50000371933
255,320,122980,2,0,B|223:256|223:256|287:256|287:256|255:176|255:176,1,195.00000743866
176,128,123536,1,0,0:0:0:0:
336,128,123721,1,0,0:0:0:0:
448,64,124091,6,0,P|480:112|432:144,1,97.50000371933
416,192,124461,1,0,0:0:0:0:
400,304,124832,5,0,0:0:0:0:
304,320,125202,2,0,P|240:336|208:320,2,77.999997619629
432,224,125943,6,0,P|464:160|384:128,1,155.999995239258
80,224,126869,5,0,0:0:0:0:
48,160,127054,1,0,0:0:0:0:
104,117,127239,1,0,0:0:0:0:
221,67,127424,2,0,P|261:43|285:91,1,77.999997619629
129,25,127795,5,0,0:0:0:0:
104,117,127980,2,0,P|111:172|137:197,1,77.999997619629
305,279,128536,5,0,0:0:0:0:
464,192,128906,2,0,B|455:142|416:128|416:128|416:128,1,77.999997619629
416,224,129276,2,0,B|407:174|368:160|368:160|368:160,1,77.999997619629
320,128,129647,1,0,0:0:0:0:
176,64,130017,5,0,0:0:0:0:
112,144,130202,1,0,0:0:0:0:
176,224,130387,1,0,0:0:0:0:
256,192,130758,12,0,132980,0:0:0:0:
452,120,133350,5,0,0:0:0:0:
112,48,133721,1,0,0:0:0:0:
248,88,133906,1,0,0:0:0:0:
304,208,134091,1,0,0:0:0:0:
144,248,134461,6,0,P|189:265|180:310,2,77.999997619629
240,224,135017,1,0,0:0:0:0:
290,281,135202,1,0,0:0:0:0:
366,292,135387,1,0,0:0:0:0:
438,255,135573,2,0,P|470:222|458:186,1,77.999997619629
320,56,135943,6,0,P|360:40|392:72,2,77.999997619629
472,144,136684,1,0,0:0:0:0:
364,312,137054,1,0,0:0:0:0:
288,280,137239,1,0,0:0:0:0:
216,240,137424,1,0,0:0:0:0:
128,104,137795,5,0,0:0:0:0:
225,78,138165,2,0,B|259:47|308:73|311:73,1,77.999997619629
227,216,138721,1,0,0:0:0:0:
299,176,138906,1,0,0:0:0:0:
376,136,139091,1,0,0:0:0:0:
327,50,139276,5,0,0:0:0:0:
412,38,139647,2,0,P|447:51|459:87,2,77.999997619629
259,79,140387,2,0,L|187:111,1,77.999997619629
86,222,140758,6,0,B|95:175|95:175|110:194|110:194|140:195,1,77.999997619629
185,209,141128,2,0,B|158:300|270:307|306:300,1,155.999995239258
358,288,141869,5,0,0:0:0:0:
411,229,142054,1,0,0:0:0:0:
424,144,142239,2,0,B|417:91|372:95|373:94,1,77.999997619629
392,176,142610,2,0,B|385:123|340:127|341:126,1,77.999997619629
309,158,142980,2,0,B|308:159|353:155|360:208,2,77.999997619629
176,72,143721,6,0,P|128:64|120:104,1,77.999997619629
80,144,144091,1,0,0:0:0:0:
72,224,144276,2,0,B|80:256|96:280|112:288|128:288,1,77.999997619629
200,304,144647,1,0,0:0:0:0:
296,320,144832,1,0,0:0:0:0:
376,280,145017,1,0,0:0:0:0:
432,208,145202,2,0,P|456:168|432:128,1,77.999997619629
64,104,156313,5,0,0:0:0:0:
98,70,156406,1,0,0:0:0:0:
145,70,156499,1,0,0:0:0:0:
179,104,156591,1,0,0:0:0:0:
214,137,156684,1,0,0:0:0:0:
262,144,156776,1,0,0:0:0:0:
306,126,156869,1,0,0:0:0:0:
335,88,156961,1,0,0:0:0:0:
360,48,157054,6,0,L|416:32,1,48.750001859665
447,59,157239,1,0,0:0:0:0:
459,105,157332,1,0,0:0:0:0:
432,160,157424,1,0,0:0:0:0:
398,191,157517,1,0,0:0:0:0:
398,238,157610,1,0,0:0:0:0:
432,272,157702,1,0,0:0:0:0:
424,320,157795,1,0,0:0:0:0:
390,354,157887,1,0,0:0:0:0:
343,354,157980,1,0,0:0:0:0:
309,320,158073,1,0,0:0:0:0:
280,280,158165,1,0,0:0:0:0:
246,246,158258,1,0,0:0:0:0:
199,246,158350,1,0,0:0:0:0:
160,280,158443,1,0,0:0:0:0:
104,280,158536,6,0,L|136:224,1,48.750001859665
153,195,158721,1,0,0:0:0:0:
178,153,158813,1,0,0:0:0:0:
72,224,158906,6,0,L|104:168,1,48.750001859665
112,144,159091,1,0,0:0:0:0:
136,104,159184,1,0,0:0:0:0:
216,48,159276,6,0,P|320:72|328:256,1,260
432,64,160017,6,0,P|376:104|376:104,1,65
304,104,160387,2,0,L|248:104,3,32.5
224,104,160758,2,0,L|168:104,3,32.5
144,104,161128,2,0,L|88:104,3,32.5
40,104,161499,6,0,B|32:136|48:168|48:168|56:168,1,65
96,216,161684,2,0,L|128:216,4,32.5
208,208,162239,6,0,P|240:240|232:256,1,65
168,240,162610,2,0,P|200:272|192:288,1,65
168,344,162980,1,0,0:0:0:0:
139,329,163072,1,0,0:0:0:0:
119,304,163165,1,0,0:0:0:0:
107,273,163257,1,0,0:0:0:0:
101,242,163350,1,0,0:0:0:0:
101,209,163442,1,0,0:0:0:0:
105,177,163535,1,0,0:0:0:0:
115,146,163628,1,0,0:0:0:0:
129,117,163720,1,0,0:0:0:0:
150,92,163813,1,0,0:0:0:0:
176,72,163905,1,0,0:0:0:0:
207,64,163998,1,0,0:0:0:0:
240,120,164091,5,0,0:0:0:0:
280,168,164184,1,0,0:0:0:0:
320,216,164276,1,0,0:0:0:0:
368,256,164369,1,0,0:0:0:0:
424,296,164461,6,0,P|456:280|464:240,1,65
472,192,164739,1,0,0:0:0:0:
456,163,164831,1,0,0:0:0:0:
436,137,164924,1,0,0:0:0:0:
412,115,165016,1,0,0:0:0:0:
385,98,165109,1,0,0:0:0:0:
355,86,165201,1,0,0:0:0:0:
322,84,165294,1,0,0:0:0:0:
293,96,165387,1,0,0:0:0:0:
274,122,165479,1,0,0:0:0:0:
240,168,165573,5,0,0:0:0:0:
183,141,165666,1,0,0:0:0:0:
132,105,165758,1,0,0:0:0:0:
81,69,165851,1,0,0:0:0:0:
32,88,165943,6,0,L|48:152,1,65
64,336,166684,2,0,L|128:328,1,65
448,48,167424,2,0,P|432:120|432:120,1,65
448,336,168165,2,0,L|392:304,1,65
64,48,168906,5,0,0:0:0:0:
96,45,168998,1,0,0:0:0:0:
126,56,169091,1,0,0:0:0:0:
152,76,169183,1,0,0:0:0:0:
169,103,169276,1,0,0:0:0:0:
175,135,169368,1,0,0:0:0:0:
171,167,169461,1,0,0:0:0:0:
158,197,169554,1,0,0:0:0:0:
141,224,169646,1,0,0:0:0:0:
123,252,169739,1,0,0:0:0:0:
114,282,169831,1,0,0:0:0:0:
136,304,169924,1,0,0:0:0:0:
192,328,170017,6,0,P|174:283|190:238,1,97.50000371933
257,329,170387,2,0,P|239:284|249:230,1,97.50000371933
264,184,170665,5,0,0:0:0:0:
281,152,170757,1,0,0:0:0:0:
288,113,170850,1,0,0:0:0:0:
271,79,170942,1,0,0:0:0:0:
236,63,171035,1,0,0:0:0:0:
197,72,171127,1,0,0:0:0:0:
172,100,171220,1,0,0:0:0:0:
175,139,171313,1,0,0:0:0:0:
195,169,171406,6,0,P|252:208|309:191,1,97.50000371933
304,192,171683,1,0,0:0:0:0:
352,176,171776,1,0,0:0:0:0:
400,192,171869,6,0,P|440:232|424:272,1,97.50000371933
400,320,172239,6,0,L|336:344,2,48.750001859665
112,64,172610,2,0,L|176:40,2,48.750001859665
112,320,172980,2,0,L|176:344,2,48.750001859665
400,64,173350,6,0,P|360:24|320:48,1,97.50000371933
272,96,173721,2,0,L|216:160,2,48.750001859665
112,320,174091,2,0,P|152:360|192:336,1,97.50000371933
240,288,174461,2,0,L|296:224,2,48.750001859665
256,192,174832,6,0,L|312:192,1,48.750001859665
344,160,175017,1,0,0:0:0:0:
304,136,175110,2,0,L|232:136,1,48.750001859665
216,160,175295,1,0,0:0:0:0:
184,136,175387,1,0,0:0:0:0:
168,96,175480,6,0,L|176:48,2,48.750001859665
136,120,175758,1,0,0:0:0:0:
106,157,175850,1,0,0:0:0:0:
96,205,175943,1,0,0:0:0:0:
107,252,176035,1,0,0:0:0:0:
135,291,176128,1,0,0:0:0:0:
175,318,176220,1,0,0:0:0:0:
232,312,176313,6,0,P|280:304|304:264,1,97.50000371933
328,216,176591,1,0,0:0:0:0:
336,168,176684,1,0,0:0:0:0:
328,112,176776,1,0,0:0:0:0:
304,72,176869,6,0,P|264:40|208:56,1,97.50000371933
176,64,177147,1,0,0:0:0:0:
135,90,177239,1,0,0:0:0:0:
106,129,177332,1,0,0:0:0:0:
91,175,177424,1,0,0:0:0:0:
88,224,177517,1,0,0:0:0:0:
98,271,177609,1,0,0:0:0:0:
126,310,177702,1,0,0:0:0:0:
176,336,177795,6,0,B|232:352|296:352|328:344|328:344,1,146.250005578995
336,48,178536,2,0,B|280:32|216:32|184:40|184:40,1,146.250005578995
102,256,179276,2,0,B|104:264|96:232|96:168|112:112,1,146.250005578995
409,127,180017,2,0,B|408:120|416:152|416:216|399:272,1,146.250005578995
376,304,180665,6,0,B|320:344|240:320|248:176|256:136|256:88|208:40|192:48,1,341.250013017655
160,72,181499,2,0,L|120:40,2,48.750001859665
192,112,181776,1,0,0:0:0:0:
218,145,181868,1,0,0:0:0:0:
246,179,181961,1,0,0:0:0:0:
274,213,182053,1,0,0:0:0:0:
301,247,182146,1,0,0:0:0:0:
320,288,182239,2,0,P|128:248|64:144,1,292.50001115799
105,119,182980,5,0,0:0:0:0:
141,141,183072,1,0,0:0:0:0:
177,162,183165,1,0,0:0:0:0:
213,183,183257,1,0,0:0:0:0:
249,204,183350,1,0,0:0:0:0:
285,226,183442,1,0,0:0:0:0:
321,247,183535,1,0,0:0:0:0:
357,269,183628,1,0,0:0:0:0:
400,288,183721,2,0,P|440:256|432:232,1,48.750001859665
48,48,193165,5,0,0:0:0:0:
96,96,193536,1,0,0:0:0:0:
144,144,193906,1,0,0:0:0:0:
176,320,194461,6,0,B|224:208|312:128|432:96|432:96|464:96,1,363.999988891602
360,320,195573,6,0,P|408:288|408:248,1,90.9999972229005
320,280,195943,2,0,P|368:248|368:208,1,90.9999972229005
272,240,196313,2,0,P|320:208|320:168,1,90.9999972229005
224,200,196684,2,0,P|272:168|272:128,1,90.9999972229005
176,160,197054,2,0,P|224:128|224:88,1,90.9999972229005
72,96,197424,5,0,0:0:0:0:
136,96,197795,1,0,0:0:0:0:
104,152,198165,1,0,0:0:0:0:
176,56,198536,6,0,P|192:112|152:152,1,90.9999972229005
144,184,198906,1,0,0:0:0:0:
104,208,199091,2,0,P|47:193|32:139,1,90.9999972229005
24,112,199461,1,0,0:0:0:0:
32,64,199647,2,0,P|72:22|127:36,1,90.9999972229005
152,48,200017,1,0,0:0:0:0:
376,152,200387,6,0,L|288:96,1,90.9999972229005
376,152,200758,2,0,L|312:69,1,90.9999972229005
376,152,201128,2,0,L|344:52,1,90.9999972229005,0|0,0:3|0:3,0:3:0:0:
376,152,201499,2,0,B|384:64|408:24|480:32|472:192,1,272.999991668701
456,256,202239,6,0,P|432:296|384:304,1,90.9999972229005
328,304,202610,2,0,P|256:296|248:272,1,90.9999972229005
88,120,202980,6,0,P|128:168|152:192,1,90.9999972229005
118,83,203350,2,0,P|144:139|161:169,1,90.9999972229005
156,56,203721,2,0,P|166:117|175:150,1,90.9999972229005
200,40,204091,2,0,P|194:102|194:136,1,90.9999972229005
247,24,204461,6,0,P|328:80|214:121,1,272.999991668701
187,200,205202,2,0,P|187:152|219:120,1,90.9999972229005
325,184,205573,2,0,P|325:232|293:264,1,90.9999972229005
248,123,205943,2,0,P|296:123|328:155,1,90.9999972229005
376,208,206313,5,0,0:0:0:0:
416,160,206684,1,0,0:0:0:0:
336,256,207054,1,0,0:0:0:0:
416,112,207424,6,0,L|376:80,3,45.4999986114502
320,32,207795,2,0,L|360:64,3,45.4999986114502
384,160,208165,2,0,L|344:128,3,45.4999986114502
272,72,208536,2,0,L|312:104,3,45.4999986114502
320,152,208906,2,0,P|312:200|256:224,1,90.9999972229005
224,256,209276,6,0,P|232:312|280:336,1,90.9999972229005
255,330,209647,2,0,P|310:339|348:301,1,90.9999972229005
337,325,210017,2,0,P|363:274|338:227,1,90.9999972229005
368,272,210387,2,0,B|437:180|350:76|288:32,2,272.999991668701
169,79,211869,1,0,0:0:0:0:
169,305,212239,1,0,0:0:0:0:
343,305,212610,1,0,0:0:0:0:
432,189,212980,5,0,0:0:0:0:
432,189,213073,1,0,0:0:0:0:
432,189,213165,2,0,B|470:74|326:55|326:54,1,181.999994445801
288,48,213721,2,0,P|240:24|192:56,1,90.9999972229005
207,92,214091,2,0,P|250:80|288:104,1,90.9999972229005
288,168,214461,2,0,P|240:144|192:176,1,90.9999972229005
152,184,214832,2,0,P|128:272|224:320,1,181.999994445801
264,320,215573,6,0,P|248:272|280:240,1,90.9999972229005
328,320,215943,2,0,P|312:272|344:240,1,90.9999972229005
392,320,216313,2,0,P|376:272|408:240,1,90.9999972229005
468,220,216869,2,0,B|460:132|404:60|352:64,1,181.999994445801
240,80,217424,2,0,B|248:168|304:240|416:264,1,272.999991668701
412,261,218165,1,0,0:0:0:0:
240,80,218536,1,0,0:0:0:0:
443,223,218906,1,0,0:0:0:0:
270,45,219276,6,0,P|204:27|153:199,1,272.999991668701
112,231,220017,2,0,P|168:232|191:191,1,90.9999972229005
112,280,220387,2,0,P|168:281|191:240,1,90.9999972229005
112,328,220758,2,0,P|168:329|191:288,1,90.9999972229005
224,256,221128,6,0,L|232:160,1,90.9999972229005
288,224,221499,2,0,L|296:128,1,90.9999972229005
352,192,221869,2,0,L|360:96,1,90.9999972229005
144,56,222239,6,0,P|112:104|128:136,1,90.9999972229005
176,104,222795,1,0,0:0:0:0:
336,280,223350,1,0,0:0:0:0:
80,48,223721,6,0,L|128:48,3,45.4999986114502
160,112,224091,2,0,L|208:112,3,45.4999986114502
264,152,224461,2,0,P|312:184|336:240,2,90.9999972229005
360,264,225202,5,0,0:0:0:0:
152,120,225573,2,0,P|224:72|320:64,1,181.999994445801
184,296,226313,1,0,0:3:0:0:
328,88,226684,2,0,P|376:160|384:256,1,181.999994445801,0|0,0:3|0:3,0:3:0:0:
360,352,227424,1,0,0:0:0:0:
152,32,227795,1,0,0:0:0:0:
416,88,228165,1,0,0:0:0:0:
288,48,228721,6,0,B|240:104|264:136|320:184|240:248,1,181.999994445801
232,280,229276,2,0,P|176:288|152:256,1,90.9999972229005
240,232,229647,2,0,P|184:240|160:208,1,90.9999972229005
248,184,230017,2,0,P|192:192|168:160,1,90.9999972229005
256,128,230387,2,0,P|200:136|176:104,1,90.9999972229005
264,72,230758,2,0,P|208:80|184:48,1,90.9999972229005
232,24,231128,5,0,0:0:0:0:
400,48,231499,6,0,P|432:80|424:128,1,90.9999972229005
368,152,231869,2,0,P|364:195|395:226,2,90.9999972229005
272,96,232610,2,0,B|264:48|264:48|240:104|240:104,1,90.9999972229005
64,328,233350,5,0,0:0:0:0:
72,264,233535,1,0,0:0:0:0:
80,200,233720,1,0,0:0:0:0:
88,136,233905,1,0,0:0:0:0:
120,80,234090,1,0,0:0:0:0:
152,136,234275,1,0,0:0:0:0:
160,200,234461,1,0,0:0:0:0:
168,264,234646,1,0,0:0:0:0:
248,168,234831,5,0,0:0:0:0:
299,193,235016,1,0,0:0:0:0:
351,219,235201,1,0,0:0:0:0:
403,244,235387,1,0,0:0:0:0:
296,104,235573,6,0,P|336:72|384:80,2,90.9999972229005
263,160,236128,1,0,0:0:0:0:
269,228,236313,2,0,L|325:300,2,90.9999972229005
128,120,237054,5,0,0:0:0:0:
176,152,237239,1,0,0:0:0:0:
224,120,237424,1,0,0:0:0:0:
272,88,237610,1,0,0:0:0:0:
320,120,237795,1,0,0:0:0:0:
360,160,237980,1,0,0:0:0:0:
400,120,238165,6,0,P|448:128|432:232,1,181.999994445801
368,264,238721,1,0,0:0:0:0:
320,296,238906,1,0,0:0:0:0:
272,264,239091,1,0,0:0:0:0:
216,240,239276,2,0,P|168:184|184:160,2,90.9999972229005
176,304,239832,5,0,0:0:0:0:
104,344,240017,1,0,0:0:0:0:
32,304,240202,2,0,P|48:256|32:208,1,90.9999972229005
32,152,240572,5,0,0:0:0:0:
480,232,240943,1,0,0:0:0:0:
296,32,241313,1,0,0:0:0:0:
216,352,241684,5,0,0:0:0:0:
176,312,241869,1,0,0:0:0:0:
136,272,242054,1,0,0:0:0:0:
32,160,242239,1,0,0:0:0:0:
480,224,242702,1,0,0:0:0:0:
32,224,243258,2,0,L|64:272,1,45.4999986114502
