osu file format v14

[General]
AudioFilename: Audio.ogg
AudioLeadIn: 0
PreviewTime: 237857
Countdown: 0
SampleSet: Soft
StackLeniency: 0.7
Mode: 0
LetterboxInBreaks: 0
WidescreenStoryboard: 0

[Editor]
DistanceSpacing: 0.4
BeatDivisor: 4
GridSize: 4
TimelineZoom: 1

[Metadata]
Title:Gateways
TitleUnicode:Gateways
Artist:Dimmu Borgir
ArtistUnicode:Dimmu Borgir
Creator:Kyshiro
Version:Undertaker
Source:
Tags:death symphonic black metal rock abrahadabra english
BeatmapID:2992943
BeatmapSetID:1456137

[Difficulty]
HPDrainRate:4.4
CircleSize:3.6
OverallDifficulty:9
ApproachRate:9.6
SliderMultiplier:1.9
SliderTickRate:1

[Events]
//Background and Video events
0,0,"bg.jpg",0,0
//Break Periods
//Storyboard Layer 0 (Background)
//Storyboard Layer 1 (Fail)
//Storyboard Layer 2 (Pass)
//Storyboard Layer 3 (Foreground)
//Storyboard Layer 4 (Overlay)
//Storyboard Sound Samples

[TimingPoints]
651,461.538461538462,4,2,1,65,1,0
651,-312.5,4,2,0,5,0,0
2497,-312.5,4,2,1,10,0,0
4343,-312.5,4,2,1,16,0,0
6189,-312.5,4,2,1,20,0,0
8035,-312.5,4,2,1,30,0,0
9881,-312.5,4,2,1,35,0,0
11727,-312.5,4,2,1,40,0,0
13574,-312.5,4,2,1,45,0,0
15420,-312.5,4,2,1,50,0,0
16343,-312.5,4,2,0,5,0,0
17266,-50,4,2,1,65,0,0
46805,480,4,2,1,65,1,0
46805,-50,4,2,1,65,0,0
47285,-66.6666666666667,4,2,1,65,0,0
50165,-50,4,2,1,65,0,0
50645,-66.6666666666667,4,2,1,65,0,0
52325,-50,4,2,1,65,0,0
53525,-66.6666666666667,4,2,1,65,0,0
54005,-50,4,2,1,65,0,0
54485,-66.6666666666667,4,2,1,65,0,0
57845,-50,4,2,1,65,0,0
58325,-66.6666666666667,4,2,1,65,0,0
59525,-125,4,2,1,65,0,0
60245,-66.6666666666667,4,2,1,65,0,0
61685,-50,4,2,1,65,0,0
62165,-66.6666666666667,4,2,1,65,0,0
65525,-50,4,2,1,65,0,0
67205,-125,4,2,1,65,0,0
67925,-66.6666666666667,4,2,1,65,0,0
70265,-66.6666666666667,4,2,1,5,0,0
70325,-66.6666666666667,4,2,1,65,0,0
70745,-66.6666666666667,4,2,1,5,0,0
70805,-66.6666666666667,4,2,1,65,0,0
76025,-66.6666666666667,4,2,1,5,0,0
76085,-66.6666666666667,4,2,1,65,0,0
76505,-66.6666666666667,4,2,1,5,0,0
76565,-66.6666666666667,4,2,1,65,0,0
81785,-66.6666666666667,4,2,1,5,0,0
81845,-66.6666666666667,4,2,1,65,0,0
82265,-66.6666666666667,4,2,1,5,0,0
82325,-66.6666666666667,4,2,1,65,0,0
87125,-50,4,2,1,65,0,0
87545,-50,4,2,1,5,0,0
87605,-50,4,2,1,65,0,0
88025,-50,4,2,1,5,0,0
88085,-50,4,2,1,65,0,0
92885,363.636363636364,4,2,1,65,1,0
92885,-133.333333333333,4,2,1,65,0,0
95794,-80,4,2,1,65,0,0
98703,-100,4,2,1,65,0,0
101612,-66.6666666666667,4,2,1,65,0,0
104521,-100,4,2,1,65,0,0
107430,-66.6666666666667,4,2,1,65,0,0
108885,-80,4,2,1,65,0,0
114703,-66.6666666666667,4,2,1,65,0,0
116157,-66.6666666666667,4,2,1,65,0,0
126338,-57.1428571428571,4,2,1,65,0,0
127793,-76.9230769230769,4,2,1,65,0,0
137975,-57.1428571428571,4,2,1,65,0,0
142339,375,3,2,1,65,1,0
160339,-100,3,2,1,65,0,0
178339,480,4,2,1,65,1,0
178339,-50,4,2,1,65,0,0
178819,-66.6666666666667,4,2,1,65,0,0
181699,-50,4,2,1,65,0,0
182179,-66.6666666666667,4,2,1,65,0,0
189379,-50,4,2,1,65,0,0
189859,-66.6666666666667,4,2,1,65,0,0
191059,-125,4,2,1,65,0,0
191779,-66.6666666666667,4,2,1,65,0,0
197059,-50,4,2,1,65,0,0
197539,-66.6666666666667,4,2,1,65,0,0
204739,-50,4,2,1,65,0,0
205219,-66.6666666666667,4,2,1,65,0,0
209059,450.0000001125,4,2,1,65,1,0
211759,-66.6666666666667,4,2,1,65,0,0
212659,-50,4,2,1,65,0,1
238759,-100,4,2,1,65,0,0
295534,-100,4,2,2,5,0,0

[Colours]
Combo1 : 255,166,166
Combo2 : 233,180,233
Combo3 : 157,201,255

[HitObjects]
452,268,651,38,0,B|458:301|454:334|454:334|419:337|377:337|377:337|343:337|323:336|301:329|286:300|289:272|297:177|297:177|373:171|431:150|431:150|373:171|297:177|297:177|310:32|310:32|379:21|444:32|444:32|379:21|310:32|310:32|236:46|157:40|157:40|125:36|86:27|86:27|125:36|157:40|157:40|149:91|127:141|127:141|109:173|78:197|78:197|109:173|127:141|127:141|213:144|213:144|211:191|189:257|189:257|156:228|156:228|189:257|189:257|166:332|67:370,1,2067.2
193,121,17266,6,0,L|132:99,5,63.3333333333333,4|0|0|0|0|0,0:0|0:0|0:0|0:0|0:0|0:0,0:0:0:0:
283,170,17727,2,0,L|344:148,5,63.3333333333333,8|0|0|0|0|0,0:0|0:0|0:0|0:0|0:0|0:0,0:0:0:0:
142,225,18189,5,2,0:0:0:0:
275,77,18342,1,0,0:0:0:0:
56,160,18496,1,0,0:0:0:0:
233,291,18650,1,10,0:0:0:0:
51,326,18804,1,0,0:0:0:0:
320,353,18958,1,0,0:0:0:0:
181,159,19112,5,2,0:0:0:0:
161,158,19189,1,0,0:0:0:0:
142,160,19266,1,0,0:0:0:0:
123,164,19342,1,0,0:0:0:0:
105,170,19419,1,0,0:0:0:0:
87,178,19496,1,0,0:0:0:0:
70,187,19573,1,8,0:0:0:0:
254,94,19727,1,0,0:0:0:0:
124,49,19881,1,0,0:0:0:0:
384,144,20035,5,2,0:0:0:0:
377,28,20189,1,0,0:0:0:0:
394,264,20342,1,0,0:0:0:0:
495,189,20496,1,10,0:0:0:0:
293,338,20650,1,0,0:0:0:0:
476,363,20804,1,0,0:0:0:0:
318,165,20958,5,6,0:0:0:0:
309,147,21035,1,0,0:0:0:0:
302,129,21112,1,0,0:0:0:0:
296,110,21189,1,0,0:0:0:0:
291,91,21266,1,0,0:0:0:0:
287,72,21342,1,0,0:0:0:0:
284,53,21419,1,8,0:0:0:0:
417,108,21573,1,0,0:0:0:0:
208,202,21727,1,0,0:0:0:0:
171,62,21881,5,2,0:0:0:0:
322,233,22035,1,0,0:0:0:0:
85,172,22189,1,0,0:0:0:0:
325,49,22342,1,10,0:0:0:0:
337,63,22419,1,0,0:0:0:0:
347,78,22496,1,0,0:0:0:0:
356,94,22573,1,0,0:0:0:0:
364,111,22650,1,0,0:0:0:0:
370,128,22727,1,0,0:0:0:0:
376,145,22804,6,0,P|441:134|491:98,1,126.666666666667,2|0,0:0|0:0,0:0:0:0:
353,290,23112,1,0,0:0:0:0:
219,83,23266,2,0,P|154:94|104:130,1,126.666666666667,8|0,0:0|0:0,0:0:0:0:
397,21,23574,1,0,0:0:0:0:
224,192,23727,5,2,0:0:0:0:
242,187,23804,1,0,0:0:0:0:
261,183,23881,1,0,0:0:0:0:
280,183,23958,1,0,0:0:0:0:
298,186,24035,1,0,0:0:0:0:
316,193,24113,1,0,0:0:0:0:
332,203,24189,1,10,0:0:0:0:
348,214,24267,1,0,0:0:0:0:
364,224,24344,1,0,0:0:0:0:
381,232,24421,1,0,0:0:0:0:
399,237,24498,1,0,0:0:0:0:
418,238,24575,1,0,0:0:0:0:
437,235,24651,6,0,P|493:197|511:143,1,126.666666666667,6|0,0:0|0:0,0:0:0:0:
281,50,24959,1,0,0:0:0:0:
289,281,25113,1,8,0:0:0:0:
371,130,25267,1,0,0:0:0:0:
55,119,25420,1,0,0:0:0:0:
141,243,25574,5,2,0:0:0:0:
151,37,25728,1,0,0:0:0:0:
56,344,25882,1,0,0:0:0:0:
266,245,26036,1,10,0:0:0:0:
21,227,26190,1,0,0:0:0:0:
202,353,26343,1,0,0:0:0:0:
219,103,26497,5,2,0:0:0:0:
204,115,26574,1,0,0:0:0:0:
190,128,26651,1,0,0:0:0:0:
178,142,26728,1,0,0:0:0:0:
167,157,26805,1,0,0:0:0:0:
156,172,26882,1,0,0:0:0:0:
147,189,26959,1,8,0:0:0:0:
90,63,27113,1,0,0:0:0:0:
145,283,27267,1,0,0:0:0:0:
291,162,27420,5,2,0:0:0:0:
51,223,27574,1,0,0:0:0:0:
209,79,27728,1,0,0:0:0:0:
261,279,27882,1,10,0:0:0:0:
173,184,28036,1,0,0:0:0:0:
378,117,28190,1,0,0:0:0:0:
112,38,28343,5,6,0:0:0:0:
99,52,28420,1,0,0:0:0:0:
87,67,28497,1,0,0:0:0:0:
78,84,28574,1,0,0:0:0:0:
70,101,28651,1,0,0:0:0:0:
63,118,28728,1,0,0:0:0:0:
57,136,28805,2,0,P|36:98|16:77,5,63.3333333333333,8|0|0|0|0|0,0:0|0:0|0:0|0:0|0:0|0:0,0:0:0:0:
143,159,29267,5,2,0:0:0:0:
156,173,29344,1,0,0:0:0:0:
168,188,29421,1,0,0:0:0:0:
177,205,29498,1,0,0:0:0:0:
185,222,29575,1,0,0:0:0:0:
192,239,29652,1,0,0:0:0:0:
198,257,29727,2,0,P|219:219|239:198,5,63.3333333333333,8|0|0|0|0|0,0:0|0:0|0:0|0:0|0:0|0:0,0:0:0:0:
71,257,30189,6,0,B|201:220|178:339|308:303,1,253.333333333333,4|0,0:0|0:0,0:0:0:0:
443,192,30651,1,8,0:0:0:0:
425,185,30728,1,0,0:0:0:0:
406,180,30805,1,0,0:0:0:0:
387,178,30882,1,0,0:0:0:0:
367,178,30959,1,0,0:0:0:0:
348,180,31036,1,0,0:0:0:0:
332,183,31112,6,0,B|202:218|283:308|153:344,1,253.333333333333,4|0,0:0|0:0,0:0:0:0:
22,203,31574,1,8,0:0:0:0:
19,184,31651,1,0,0:0:0:0:
18,164,31728,1,0,0:0:0:0:
18,144,31805,1,0,0:0:0:0:
20,125,31882,1,0,0:0:0:0:
23,106,31959,1,0,0:0:0:0:
29,87,32036,6,0,L|97:101,5,63.3333333333333,6|0|0|0|0|0,0:0|0:0|0:0|0:0|0:0|0:0,0:0:0:0:
165,47,32497,2,0,L|227:34,5,63.3333333333333,10|0|0|0|0|0,0:0|0:0|0:0|0:0|0:0|0:0,0:0:0:0:
319,60,32959,5,2,0:0:0:0:
330,75,33036,1,0,0:0:0:0:
339,91,33113,1,0,0:0:0:0:
347,108,33190,1,0,0:0:0:0:
354,125,33267,1,0,0:0:0:0:
359,142,33343,1,0,0:0:0:0:
364,160,33420,1,10,0:0:0:0:
368,178,33497,1,0,0:0:0:0:
371,196,33574,1,0,0:0:0:0:
373,214,33651,1,0,0:0:0:0:
374,232,33728,1,0,0:0:0:0:
374,251,33805,1,0,0:0:0:0:
375,269,33882,6,0,L|442:252,5,63.3333333333333,2|0|0|0|0|0,0:0|0:0|0:0|0:0|0:0|0:0,0:0:0:0:
270,268,34343,2,0,L|287:335,5,63.3333333333333,10|0|0|0|0|0,0:0|0:0|0:0|0:0|0:0|0:0,0:0:0:0:
172,301,34805,5,2,0:0:0:0:
161,284,34882,1,0,0:0:0:0:
153,266,34959,1,0,0:0:0:0:
146,248,35036,1,0,0:0:0:0:
141,229,35113,1,0,0:0:0:0:
137,210,35190,1,0,0:0:0:0:
134,191,35267,2,0,P|80:172|60:170,5,63.3333333333333,10|0|0|0|0|0,0:0|0:0|0:0|0:0|0:0|0:0,0:0:0:0:
184,112,35728,5,6,0:0:0:0:
200,120,35805,1,0,0:0:0:0:
217,126,35882,1,0,0:0:0:0:
235,131,35959,1,0,0:0:0:0:
253,135,36036,1,0,0:0:0:0:
271,137,36113,1,0,0:0:0:0:
289,138,36190,2,0,P|334:128|360:115,5,63.3333333333333,10|0|0|0|0|0,0:0|0:0|0:0|0:0|0:0|0:0,0:0:0:0:
319,34,36651,5,2,0:0:0:0:
301,27,36728,1,0,0:0:0:0:
282,24,36805,1,0,0:0:0:0:
262,24,36882,1,0,0:0:0:0:
243,28,36959,1,0,0:0:0:0:
225,35,37036,1,0,0:0:0:0:
210,46,37113,1,10,0:0:0:0:
193,55,37190,1,0,0:0:0:0:
175,63,37267,1,0,0:0:0:0:
156,66,37343,1,0,0:0:0:0:
136,65,37420,1,0,0:0:0:0:
117,61,37497,1,0,0:0:0:0:
99,54,37574,6,0,P|62:21|55:3,5,63.3333333333333,2|0|0|0|0|0,0:0|0:0|0:0|0:0|0:0|0:0,0:0:0:0:
21,120,38036,2,0,L|29:199,5,63.3333333333333,10|0|0|0|0|0,0:0|0:0|0:0|0:0|0:0|0:0,0:0:0:0:
85,256,38497,5,2,0:0:0:0:
100,245,38573,1,0,0:0:0:0:
117,236,38650,1,0,0:0:0:0:
135,229,38727,1,0,0:0:0:0:
153,226,38804,1,0,0:0:0:0:
172,224,38881,1,0,0:0:0:0:
191,225,38958,1,10,0:0:0:0:
210,229,39035,1,0,0:0:0:0:
228,235,39112,1,0,0:0:0:0:
245,244,39189,1,0,0:0:0:0:
260,254,39266,1,0,0:0:0:0:
275,267,39343,1,0,0:0:0:0:
287,281,39420,6,0,L|278:361,5,63.3333333333333,6|0|0|0|0|0,0:0|0:0|0:0|0:0|0:0|0:0,0:0:0:0:
372,217,39882,2,0,L|381:297,5,63.3333333333333,10|0|0|0|0|0,0:0|0:0|0:0|0:0|0:0|0:0,0:0:0:0:
303,149,40343,5,2,0:0:0:0:
293,132,40420,1,0,0:0:0:0:
286,114,40497,1,0,0:0:0:0:
281,95,40574,1,0,0:0:0:0:
279,76,40651,1,0,0:0:0:0:
279,56,40728,1,0,0:0:0:0:
280,37,40805,2,0,P|336:31|353:32,5,63.3333333333333,10|0|0|0|0|0,0:0|0:0|0:0|0:0|0:0|0:0,0:0:0:0:
202,122,41267,5,2,0:0:0:0:
184,129,41343,1,0,0:0:0:0:
165,133,41420,1,0,0:0:0:0:
146,135,41497,1,0,0:0:0:0:
126,134,41574,1,0,0:0:0:0:
107,131,41651,1,0,0:0:0:0:
88,126,41728,2,0,P|66:182|66:207,5,63.3333333333333,10|0|0|0|0|0,0:0|0:0|0:0|0:0|0:0|0:0,0:0:0:0:
78,30,42190,6,0,L|5:7,5,63.3333333333333,2|0|0|0|0|0,0:0|0:0|0:0|0:0|0:0|0:0,0:0:0:0:
172,71,42651,2,0,L|245:48,5,63.3333333333333,10|0|0|0|0|0,0:0|0:0|0:0|0:0|0:0|0:0,0:0:0:0:
322,7,43113,5,6,0:0:0:0:
331,23,43189,1,0,0:0:0:0:
337,41,43266,1,0,0:0:0:0:
339,60,43343,1,0,0:0:0:0:
336,79,43420,1,0,0:0:0:0:
330,96,43497,1,0,0:0:0:0:
320,112,43574,1,10,0:0:0:0:
307,127,43651,1,0,0:0:0:0:
293,139,43728,1,0,0:0:0:0:
277,150,43805,1,0,0:0:0:0:
261,159,43882,1,0,0:0:0:0:
244,168,43959,1,0,0:0:0:0:
227,177,44036,5,2,0:0:0:0:
210,186,44113,1,0,0:0:0:0:
194,195,44189,1,0,0:0:0:0:
178,206,44266,1,0,0:0:0:0:
163,217,44343,1,0,0:0:0:0:
149,231,44420,1,0,0:0:0:0:
138,246,44497,1,10,0:0:0:0:
130,263,44574,1,0,0:0:0:0:
126,282,44651,1,0,0:0:0:0:
126,301,44728,1,0,0:0:0:0:
130,319,44805,1,0,0:0:0:0:
138,336,44882,1,0,0:0:0:0:
150,350,44958,6,0,B|187:220|68:243|104:113,1,253.333333333333,4|0,0:0|0:0,0:0:0:0:
351,33,45420,1,8,0:0:0:0:
337,46,45497,1,0,0:0:0:0:
322,58,45574,1,0,0:0:0:0:
305,67,45651,1,0,0:0:0:0:
287,74,45728,1,0,0:0:0:0:
268,79,45805,1,0,0:0:0:0:
249,80,45881,6,0,B|379:44|356:163|486:126,1,253.333333333333,4|0,0:0|0:0,0:0:0:0:
270,219,46343,1,8,0:0:0:0:
251,225,46420,1,0,0:0:0:0:
233,233,46497,1,0,0:0:0:0:
217,243,46574,1,0,0:0:0:0:
201,254,46651,1,0,0:0:0:0:
186,266,46728,1,0,0:0:0:0:
177,278,46805,6,0,L|128:271,7,47.5,4|0|0|0|0|0|0|0,0:0|0:0|0:0|0:0|0:0|0:0|0:0|0:0,0:0:0:0:
228,355,47285,2,0,B|288:316|288:316|375:322,1,142.500005435944,8|0,0:0|0:0,0:0:0:0:
463,135,47765,2,0,B|403:174|403:174|316:168,1,142.500005435944,0|0,0:0|0:0,0:0:0:0:
87,61,48245,1,8,0:0:0:0:
87,61,48725,5,0,0:0:0:0:
96,71,48785,1,0,0:0:0:0:
104,82,48845,1,0,0:0:0:0:
110,94,48905,1,0,0:0:0:0:
115,107,48965,1,0,0:0:0:0:
119,120,49025,1,0,0:0:0:0:
121,133,49085,1,0,0:0:0:0:
123,147,49145,1,0,0:0:0:0:
123,161,49205,1,8,0:0:0:0:
222,44,49445,5,0,0:0:0:0:
61,261,49685,2,0,L|209:237,1,142.500005435944,0|0,0:0|0:0,0:0:0:0:
426,128,50165,6,0,P|398:111|359:58,1,95,10|0,0:0|0:0,0:0:0:0:
498,219,50405,2,0,P|497:251|470:312,1,95,10|0,0:0|0:0,0:0:0:0:
362,343,50645,5,0,0:0:0:0:
353,331,50705,1,0,0:0:0:0:
345,318,50765,1,0,0:0:0:0:
338,305,50825,1,0,0:0:0:0:
332,291,50885,1,0,0:0:0:0:
327,277,50945,1,0,0:0:0:0:
323,263,51005,1,0,0:0:0:0:
320,248,51065,1,0,0:0:0:0:
318,233,51125,1,8,0:0:0:0:
357,68,51365,5,0,0:0:0:0:
424,251,51605,1,0,0:0:0:0:
179,141,51845,1,8,0:0:0:0:
179,141,52325,2,0,P|221:111|267:95,1,95
205,250,52565,5,0,0:0:0:0:
181,251,52625,1,0,0:0:0:0:
157,249,52685,1,0,0:0:0:0:
134,244,52745,1,0,0:0:0:0:
112,236,52805,1,0,0:0:0:0:
90,225,52865,1,0,0:0:0:0:
71,212,52925,1,0,0:0:0:0:
53,196,52985,1,0,0:0:0:0:
38,178,53045,1,8,0:0:0:0:
323,142,53285,2,0,L|334:197,3,47.5
236,140,53525,6,0,L|248:58,1,71.2500027179719,8|0,0:0|0:0,0:0:0:0:
416,198,53765,2,0,L|404:280,1,71.2500027179719,0|0,0:0|0:0,0:0:0:0:
161,200,54005,6,0,L|146:97,1,95,10|0,0:0|0:0,0:0:0:0:
493,137,54245,2,0,L|506:230,1,95,10|0,0:0|0:0,0:0:0:0:
303,356,54485,5,0,0:0:0:0:
305,341,54545,1,0,0:0:0:0:
307,326,54605,1,0,0:0:0:0:
309,311,54665,1,0,0:0:0:0:
311,296,54725,1,0,0:0:0:0:
313,281,54785,1,0,0:0:0:0:
315,267,54845,1,0,0:0:0:0:
317,253,54905,1,0,0:0:0:0:
319,239,54965,1,8,0:0:0:0:
177,317,55205,5,0,0:0:0:0:
431,131,55445,2,0,L|444:273,1,142.500005435944,0|0,0:0|0:0,0:0:0:0:
274,27,55925,1,8,0:0:0:0:
274,27,56405,5,0,0:0:0:0:
268,39,56465,1,0,0:0:0:0:
260,50,56525,1,0,0:0:0:0:
251,61,56585,1,0,0:0:0:0:
240,70,56645,1,0,0:0:0:0:
229,79,56705,1,0,0:0:0:0:
216,86,56765,1,0,0:0:0:0:
203,92,56825,1,0,0:0:0:0:
189,97,56885,1,8,0:0:0:0:
357,119,57125,5,0,0:0:0:0:
52,171,57365,2,0,P|138:189|190:227,1,142.500005435944,0|0,0:0|0:0,0:0:0:0:
472,227,57845,6,0,B|447:187|447:187|455:135,1,95,10|0,0:0|0:0,0:0:0:0:
357,263,58085,2,0,B|382:303|382:303|374:355,1,95,10|0,0:0|0:0,0:0:0:0:
280,170,58325,5,0,0:0:0:0:
281,155,58385,1,0,0:0:0:0:
284,141,58445,1,0,0:0:0:0:
288,127,58505,1,0,0:0:0:0:
293,113,58565,1,0,0:0:0:0:
299,100,58625,1,0,0:0:0:0:
307,88,58685,1,0,0:0:0:0:
315,76,58745,1,0,0:0:0:0:
325,66,58805,1,8,0:0:0:0:
391,180,59045,5,0,0:0:0:0:
200,36,59285,1,0,0:0:0:0:
485,100,59525,2,0,B|515:152|515:152|485:250,1,152,8|0,0:0|0:0,0:0:0:0:
224,295,60245,5,0,0:0:0:0:
236,288,60305,1,0,0:0:0:0:
248,281,60365,1,0,0:0:0:0:
260,274,60425,1,0,0:0:0:0:
273,269,60485,1,0,0:0:0:0:
286,263,60545,1,0,0:0:0:0:
299,258,60605,1,0,0:0:0:0:
312,254,60665,1,0,0:0:0:0:
326,251,60725,1,8,0:0:0:0:
135,200,60965,5,0,0:0:0:0:
240,153,61085,1,0,0:0:0:0:
240,153,61145,1,0,0:0:0:0:
240,153,61205,2,0,L|222:303,1,142.500005435944,8|0,0:0|0:0,0:0:0:0:
22,39,61685,6,0,P|47:71|58:132,1,95,10|0,0:0|0:0,0:0:0:0:
100,285,61925,2,0,P|108:238|136:200,1,95,10|0,0:0|0:0,0:0:0:0:
235,39,62165,5,0,0:0:0:0:
234,53,62225,1,0,0:0:0:0:
233,67,62285,1,0,0:0:0:0:
232,81,62345,1,0,0:0:0:0:
231,95,62405,1,0,0:0:0:0:
230,109,62465,1,0,0:0:0:0:
229,123,62525,1,0,0:0:0:0:
228,137,62585,1,0,0:0:0:0:
227,151,62645,1,8,0:0:0:0:
128,41,62885,5,0,0:0:0:0:
348,157,63125,1,0,0:0:0:0:
34,177,63365,1,0,0:0:0:0:
447,115,63605,1,8,0:0:0:0:
447,115,64085,5,0,0:0:0:0:
452,128,64145,1,0,0:0:0:0:
456,141,64205,1,0,0:0:0:0:
459,154,64265,1,0,0:0:0:0:
462,167,64325,1,0,0:0:0:0:
463,181,64385,1,0,0:0:0:0:
464,195,64445,1,0,0:0:0:0:
464,209,64505,1,0,0:0:0:0:
463,223,64565,1,8,0:0:0:0:
276,64,64805,5,0,0:0:0:0:
316,333,65045,2,0,L|339:180,1,142.500005435944,0|0,0:0|0:0,0:0:0:0:
66,213,65525,6,0,P|122:246|167:248,1,95,10|0,0:0|0:0,0:0:0:0:
107,91,65765,2,0,P|68:63|22:54,1,95,10|0,0:0|0:0,0:0:0:0:
212,145,66005,5,0,0:0:0:0:
230,143,66065,1,0,0:0:0:0:
247,139,66125,1,0,0:0:0:0:
263,132,66185,1,0,0:0:0:0:
280,124,66245,1,0,0:0:0:0:
296,115,66305,1,0,0:0:0:0:
310,105,66365,1,0,0:0:0:0:
324,95,66425,1,0,0:0:0:0:
337,82,66485,1,8,0:0:0:0:
125,63,66725,5,0,0:0:0:0:
486,200,66965,2,0,P|445:180|392:177,1,95,0|0,0:0|0:0,0:0:0:0:
347,243,67205,2,0,L|376:88,1,152,8|0,0:0|0:0,0:0:0:0:
236,354,67925,5,0,0:0:0:0:
232,339,67985,1,0,0:0:0:0:
226,324,68045,1,0,0:0:0:0:
221,308,68105,1,0,0:0:0:0:
215,294,68165,1,0,0:0:0:0:
208,280,68225,1,0,0:0:0:0:
200,266,68285,1,0,0:0:0:0:
192,253,68345,1,0,0:0:0:0:
183,240,68405,6,0,L|30:230,1,142.500005435944,8|0,0:0|0:0,0:0:0:0:
193,134,68765,1,0,0:0:0:0:
193,134,68825,1,0,0:0:0:0:
193,134,68885,2,0,L|346:124,1,142.500005435944,8|0,0:0|0:0,0:0:0:0:
37,103,69365,1,10,0:0:0:0:
437,211,69605,1,10,0:0:0:0:
77,305,69845,6,0,B|132:267|138:201|138:201|181:250|252:248,1,249.375009512902,4|0,0:0|0:0,0:0:0:0:
252,156,70325,2,0,P|252:69|226:152,1,249.375009512902,4|0,0:0|0:0,0:0:0:0:
107,143,70805,6,0,P|72:128|16:117,1,71.2500027179719,4|0,0:0|0:0,0:0:0:0:
388,232,71045,2,0,P|422:223|455:208,1,71.2500027179719,4|0,0:0|0:0,0:0:0:0:
297,6,71285,2,0,L|290:83,1,71.2500027179719,4|0,0:0|0:0,0:0:0:0:
197,352,71525,2,0,L|190:281,1,71.2500027179719,4|0,0:0|0:0,0:0:0:0:
148,28,71765,1,4,0:0:0:0:
44,220,72245,5,0,0:0:0:0:
46,226,72305,1,0,0:0:0:0:
48,232,72365,1,0,0:0:0:0:
50,238,72425,1,0,0:0:0:0:
52,244,72485,1,0,0:0:0:0:
54,250,72545,1,0,0:0:0:0:
56,256,72605,1,0,0:0:0:0:
58,262,72665,1,0,0:0:0:0:
60,268,72725,1,8,0:0:0:0:
202,112,73205,5,0,0:0:0:0:
200,118,73265,1,0,0:0:0:0:
198,124,73325,1,0,0:0:0:0:
196,130,73385,1,0,0:0:0:0:
194,136,73445,1,0,0:0:0:0:
192,142,73505,1,0,0:0:0:0:
190,148,73565,1,0,0:0:0:0:
188,154,73625,1,0,0:0:0:0:
186,160,73685,1,8,0:0:0:0:
330,273,74165,5,0,0:0:0:0:
336,271,74225,1,0,0:0:0:0:
342,269,74285,1,0,0:0:0:0:
348,267,74345,1,0,0:0:0:0:
354,265,74405,1,0,0:0:0:0:
360,263,74465,1,0,0:0:0:0:
366,261,74525,1,0,0:0:0:0:
372,259,74585,1,0,0:0:0:0:
378,257,74645,1,8,0:0:0:0:
204,233,74885,5,8,0:0:0:0:
483,339,75125,1,8,0:0:0:0:
129,330,75365,1,8,0:0:0:0:
270,102,75605,6,0,B|347:98|347:98|414:147|414:147|505:139,1,249.375009512902,4|0,0:0|0:0,0:0:0:0:
413,8,76085,2,0,L|343:258,1,249.375009512902,4|0,0:0|0:0,0:0:0:0:
468,302,76565,6,0,P|458:254|439:219,1,71.2500027179719,4|0,0:0|0:0,0:0:0:0:
195,164,76805,2,0,P|241:179|281:180,1,71.2500027179719,4|0,0:0|0:0,0:0:0:0:
304,318,77045,2,0,P|334:279|348:242,1,71.2500027179719,4|0,0:0|0:0,0:0:0:0:
234,20,77285,2,0,P|252:65|276:96,1,71.2500027179719,4|0,0:0|0:0,0:0:0:0:
446,50,77525,1,4,0:0:0:0:
446,50,78005,5,8,0:0:0:0:
388,103,78125,1,8,0:0:0:0:
424,172,78245,1,8,0:0:0:0:
471,234,78365,1,8,0:0:0:0:
413,287,78485,1,8,0:0:0:0:
110,336,78965,5,8,0:0:0:0:
184,311,79085,1,8,0:0:0:0:
184,233,79205,1,8,0:0:0:0:
109,209,79325,1,8,0:0:0:0:
63,272,79445,1,8,0:0:0:0:
314,65,79925,5,8,0:0:0:0:
252,113,80045,1,8,0:0:0:0:
173,117,80165,1,8,0:0:0:0:
101,84,80285,1,8,0:0:0:0:
63,15,80405,1,8,0:0:0:0:
364,157,80645,5,8,0:0:0:0:
118,227,80885,1,8,0:0:0:0:
461,254,81125,1,8,0:0:0:0:
235,38,81365,6,0,B|205:82|190:155|279:155|264:228|235:272,1,249.375009512902,4|0,0:0|0:0,0:0:0:0:
137,206,81845,2,0,B|184:146|184:146|291:166|291:166|332:112,1,249.375009512902,4|0,0:0|0:0,0:0:0:0:
227,55,82325,6,0,L|137:36,1,71.2500027179719,4|0,0:0|0:0,0:0:0:0:
242,257,82565,2,0,L|332:276,1,71.2500027179719,4|0,0:0|0:0,0:0:0:0:
102,122,82805,2,0,L|12:141,1,71.2500027179719,4|0,0:0|0:0,0:0:0:0:
378,191,83045,2,0,L|468:172,1,71.2500027179719,4|0,0:0|0:0,0:0:0:0:
249,155,83285,1,4,0:0:0:0:
249,155,83765,5,0,2:0:0:0:
246,165,83825,1,0,0:0:0:0:
244,175,83885,1,0,0:0:0:0:
242,185,83945,1,0,0:0:0:0:
240,195,84005,1,0,0:0:0:0:
238,205,84065,1,0,0:0:0:0:
236,215,84125,1,0,0:0:0:0:
234,225,84185,1,0,0:0:0:0:
232,235,84245,1,8,0:0:0:0:
345,102,84725,5,0,0:0:0:0:
338,94,84785,1,0,0:0:0:0:
330,87,84845,1,0,0:0:0:0:
322,81,84905,1,0,0:0:0:0:
315,74,84965,1,0,0:0:0:0:
307,67,85025,1,0,0:0:0:0:
300,61,85085,1,0,0:0:0:0:
292,54,85145,1,0,0:0:0:0:
284,47,85205,1,8,0:0:0:0:
343,203,85685,5,0,0:0:0:0:
353,200,85745,1,0,0:0:0:0:
363,197,85805,1,0,0:0:0:0:
372,193,85865,1,0,0:0:0:0:
382,191,85925,1,0,0:0:0:0:
392,187,85985,1,0,0:0:0:0:
401,184,86045,1,0,0:0:0:0:
411,181,86105,1,0,0:0:0:0:
421,177,86165,1,8,0:0:0:0:
284,47,86405,5,8,0:0:0:0:
232,235,86645,1,8,0:0:0:0:
421,177,86885,1,8,0:0:0:0:
187,124,87125,6,0,B|132:99|108:41|108:41|94:127|34:168|34:168|74:158|110:169,1,332.5,4|0,0:0|0:0,0:0:0:0:
172,212,87605,2,0,B|230:218|262:171|262:171|299:205|295:258|237:285|237:285|285:288|315:319,1,332.5,4|0,0:0|0:0,0:0:0:0:
152,294,88085,6,0,P|118:317|82:363,1,95,4|0,0:0|0:0,0:0:0:0:
368,250,88325,2,0,P|402:227|438:181,1,95,4|0,0:0|0:0,0:0:0:0:
232,80,88565,2,0,B|217:127|217:127|235:185,1,95,4|0,0:0|0:0,0:0:0:0:
498,68,88805,2,0,L|368:78,1,95,4|0,0:0|0:0,0:0:0:0:
79,100,89045,1,4,0:0:0:0:
79,100,89525,5,8,0:0:0:0:
98,95,89585,1,0,0:0:0:0:
116,89,89645,1,0,0:0:0:0:
135,83,89705,1,0,0:0:0:0:
154,77,89765,1,0,0:0:0:0:
173,71,89825,1,0,0:0:0:0:
191,66,89885,1,0,0:0:0:0:
210,60,89945,1,0,0:0:0:0:
229,54,90005,1,8,0:0:0:0:
422,209,90485,5,8,0:0:0:0:
403,204,90545,1,0,0:0:0:0:
385,198,90605,1,0,0:0:0:0:
366,192,90665,1,0,0:0:0:0:
347,186,90725,1,0,0:0:0:0:
328,180,90785,1,0,0:0:0:0:
310,175,90845,1,0,0:0:0:0:
291,169,90905,1,0,0:0:0:0:
272,163,90965,1,8,0:0:0:0:
18,240,91445,5,8,0:0:0:0:
36,234,91505,1,0,0:0:0:0:
54,232,91565,1,0,0:0:0:0:
72,232,91625,1,0,0:0:0:0:
90,235,91685,1,0,0:0:0:0:
108,240,91745,1,0,0:0:0:0:
124,248,91805,1,0,0:0:0:0:
139,258,91865,1,0,0:0:0:0:
154,269,91925,1,8,0:0:0:0:
422,209,92165,5,8,0:0:0:0:
163,282,92405,1,8,0:0:0:0:
512,292,92645,1,8,0:0:0:0:
167,62,92885,6,0,L|118:53,7,35.625001358986,6|0|0|0|0|0|0|0,0:0|0:0|0:0|0:0|0:0|0:0|0:0|0:0,0:0:0:0:
218,137,93612,1,8,0:0:0:0:
242,121,93703,1,0,0:0:0:0:
269,111,93794,1,0,0:0:0:0:
297,106,93885,1,0,0:0:0:0:
325,104,93975,1,0,0:0:0:0:
353,105,94066,1,0,0:0:0:0:
381,110,94157,1,0,0:0:0:0:
408,118,94248,1,0,0:0:0:0:
434,129,94339,6,0,L|446:175,3,35.625001358986,2|0|0|0,0:0|0:0|0:0|0:0,0:0:0:0:
366,197,94703,2,0,L|378:243,3,35.625001358986
329,317,95066,1,8,0:0:0:0:
304,273,95157,1,0,0:0:0:0:
258,252,95248,1,0,0:0:0:0:
208,259,95339,1,0,0:0:0:0:
177,298,95430,1,8,0:0:0:0:
138,329,95521,1,8,0:0:0:0:
88,326,95612,1,8,0:0:0:0:
54,288,95703,1,8,0:0:0:0:
48,238,95794,6,0,B|104:169|104:169|193:183,1,178.125,6|0,0:0|0:0,0:0:0:0:
287,35,96157,2,0,B|231:104|231:104|142:90,1,178.125
281,176,96521,2,0,L|347:166,3,59.375,8|0|0|0,0:0|0:0|0:0|0:0,0:0:0:0:
251,276,96885,2,0,L|185:266,3,59.375
326,350,97248,5,2,0:0:0:0:
359,337,97339,1,0,0:0:0:0:
384,311,97430,1,0,0:0:0:0:
396,277,97521,1,0,0:0:0:0:
394,241,97612,1,0,0:0:0:0:
376,209,97703,1,0,0:0:0:0:
345,189,97794,1,0,0:0:0:0:
322,161,97885,1,0,0:0:0:0:
316,126,97975,1,8,0:0:0:0:
326,91,98066,1,0,0:0:0:0:
347,62,98157,1,0,0:0:0:0:
380,50,98248,1,0,0:0:0:0:
415,48,98339,1,0,0:0:0:0:
445,67,98430,1,0,0:0:0:0:
469,93,98521,1,0,0:0:0:0:
475,127,98612,1,0,0:0:0:0:
463,160,98703,6,0,L|298:135,1,142.5,6|0,0:0|0:0,0:0:0:0:
296,250,99066,2,0,B|229:226|229:226|197:158,1,142.5
104,224,99430,2,0,P|87:143|120:81,1,142.5,8|0,0:0|0:0,0:0:0:0:
183,12,99794,2,0,L|200:63,3,47.5
327,102,100157,2,0,L|274:91,3,47.5,2|0|0|0,0:0|0:0|0:0|0:0,0:0:0:0:
177,185,100521,2,0,L|212:144,3,47.5
303,191,100885,5,8,0:0:0:0:
332,227,100975,1,0,0:0:0:0:
330,274,101066,1,0,0:0:0:0:
296,308,101157,1,0,0:0:0:0:
248,311,101248,1,8,0:0:0:0:
213,278,101339,1,8,0:0:0:0:
169,259,101430,1,8,0:0:0:0:
125,278,101521,1,8,0:0:0:0:
108,322,101612,6,0,P|73:273|45:258,3,71.2500027179719,6|0|0|0,0:0|0:0|0:0|0:0,0:0:0:0:
105,195,101975,2,0,P|47:176|16:181,3,71.2500027179719
171,136,102339,1,8,0:0:0:0:
192,154,102430,1,0,0:0:0:0:
217,165,102521,1,0,0:0:0:0:
244,172,102612,1,0,0:0:0:0:
272,173,102703,1,0,0:0:0:0:
299,167,102794,1,0,0:0:0:0:
325,155,102885,1,0,0:0:0:0:
347,138,102975,1,0,0:0:0:0:
366,116,103066,6,0,L|354:42,1,71.2500027179719,14|0,0:0|0:0,0:0:0:0:
455,217,103248,2,0,L|443:287,1,71.2500027179719,14|0,0:0|0:0,0:0:0:0:
443,287,103612,6,0,P|481:278|520:257,1,71.2500027179719,14|0,0:0|0:0,0:0:0:0:
289,325,103794,2,0,P|251:316|212:295,1,71.2500027179719,14|0,0:0|0:0,0:0:0:0:
222,301,104157,6,0,B|193:322|193:322|176:352,1,71.2500027179719,14|0,0:0|0:0,0:0:0:0:
340,219,104339,2,0,B|323:189|323:189|294:168,1,71.2500027179719,14|0,0:0|0:0,0:0:0:0:
222,106,104521,5,6,0:0:0:0:
202,127,104612,1,0,0:0:0:0:
176,140,104703,1,0,0:0:0:0:
148,148,104794,1,0,0:0:0:0:
119,150,104885,1,0,0:0:0:0:
91,144,104975,1,0,0:0:0:0:
72,121,105066,1,0,0:0:0:0:
72,92,105157,1,0,0:0:0:0:
92,71,105248,1,8,0:0:0:0:
120,68,105339,1,0,0:0:0:0:
139,88,105430,1,0,0:0:0:0:
146,115,105521,1,0,0:0:0:0:
140,142,105612,1,0,0:0:0:0:
126,166,105703,1,0,0:0:0:0:
104,184,105794,1,0,0:0:0:0:
86,206,105885,1,0,0:0:0:0:
73,231,105975,6,0,P|63:263|61:289,3,47.5,2|0|0|0,0:0|0:0|0:0|0:0,0:0:0:0:
157,299,106339,2,0,P|169:329|185:351,3,47.5
263,289,106703,1,8,0:0:0:0:
289,249,106794,1,0,0:0:0:0:
333,233,106885,1,0,0:0:0:0:
379,239,106975,1,0,0:0:0:0:
417,267,107066,1,8,0:0:0:0:
374,288,107157,1,8,0:0:0:0:
327,280,107248,1,8,0:0:0:0:
289,249,107339,1,8,0:0:0:0:
269,205,107430,6,0,P|275:159|294:124,3,71.2500027179719,6|0|0|0,0:0|0:0|0:0|0:0,0:0:0:0:
356,45,107794,2,0,P|369:77|372:113,3,71.2500027179719
200,147,108157,1,8,0:0:0:0:
179,142,108248,1,0,0:0:0:0:
159,133,108339,1,0,0:0:0:0:
141,121,108430,1,0,0:0:0:0:
125,106,108521,1,0,0:0:0:0:
110,90,108612,1,0,0:0:0:0:
98,71,108703,1,0,0:0:0:0:
87,52,108794,1,0,0:0:0:0:
80,31,108885,6,0,B|115:98|88:162|88:162|41:142,1,178.125,2|0,0:0|0:0,0:0:0:0:
60,241,109248,2,0,B|22:225|22:225|-5:289|30:356,1,178.125
148,364,109612,1,8,0:0:0:0:
165,347,109703,1,0,0:0:0:0:
180,329,109794,1,0,0:0:0:0:
192,308,109885,1,0,0:0:0:0:
201,286,109975,1,0,0:0:0:0:
208,263,110066,1,0,0:0:0:0:
212,239,110157,1,0,0:0:0:0:
213,215,110248,1,0,0:0:0:0:
211,191,110339,5,6,0:0:0:0:
227,207,110430,1,0,0:0:0:0:
247,218,110521,1,0,0:0:0:0:
269,225,110612,1,0,0:0:0:0:
292,230,110703,1,0,0:0:0:0:
315,231,110794,1,0,0:0:0:0:
338,229,110885,1,0,0:0:0:0:
361,225,110975,1,0,0:0:0:0:
384,219,111066,2,0,P|428:195|446:178,7,59.375,8|0|0|0|0|0|0|0,0:0|0:0|0:0|0:0|0:0|0:0|0:0|0:0,0:0:0:0:
348,311,111794,6,0,P|283:216|308:155,1,178.125,2|0,0:0|0:0,0:0:0:0:
227,80,112157,2,0,B|312:55|312:55|398:100,1,178.125
453,194,112521,1,8,0:0:0:0:
422,230,112612,1,0,0:0:0:0:
377,246,112703,1,0,0:0:0:0:
329,238,112794,1,0,0:0:0:0:
294,205,112885,1,8,0:0:0:0:
251,185,112975,1,8,0:0:0:0:
203,184,113066,1,8,0:0:0:0:
160,205,113157,1,8,0:0:0:0:
130,242,113248,6,0,L|135:311,3,59.375,6|0|0|0,0:0|0:0|0:0|0:0,0:0:0:0:
62,174,113612,2,0,L|57:105,3,59.375
114,37,113975,1,8,0:0:0:0:
142,29,114066,1,0,0:0:0:0:
171,29,114157,1,0,0:0:0:0:
200,34,114248,1,0,0:0:0:0:
227,44,114339,1,0,0:0:0:0:
252,59,114430,1,0,0:0:0:0:
274,78,114521,1,0,0:0:0:0:
292,101,114612,1,0,0:0:0:0:
306,126,114703,6,0,L|398:111,1,71.2500027179719,14|0,0:0|0:0,0:0:0:0:
177,191,114885,2,0,L|85:176,1,71.2500027179719,14|0,0:0|0:0,0:0:0:0:
451,218,115248,6,0,P|468:259|470:302,1,71.2500027179719,14|0,0:0|0:0,0:0:0:0:
376,114,115430,2,0,P|381:78|395:46,1,71.2500027179719,14|0,0:0|0:0,0:0:0:0:
268,269,115794,6,0,B|232:266|232:266|202:242,1,71.2500027179719,14|0,0:0|0:0,0:0:0:0:
417,327,115976,2,0,B|437:297|437:297|473:283,1,71.2500027179719,14|0,0:0|0:0,0:0:0:0:
376,114,116157,6,0,L|356:273,1,142.500005435944,4|8,0:0|0:0,0:0:0:0:
229,57,116520,1,0,0:0:0:0:
233,85,116611,1,0,0:0:0:0:
237,113,116702,1,8,0:0:0:0:
102,47,116884,1,2,0:0:0:0:
332,42,117066,1,8,0:0:0:0:
160,188,117247,1,0,0:0:0:0:
131,183,117338,1,0,0:0:0:0:
102,179,117429,1,8,0:0:0:0:
280,258,117612,6,0,P|343:230|415:236,1,142.500005435944,2|8,0:0|0:0,0:0:0:0:
156,355,117975,1,0,0:0:0:0:
146,328,118066,1,0,0:0:0:0:
136,300,118157,1,8,0:0:0:0:
169,51,118339,2,0,B|202:114|202:114|188:187,1,142.500005435944,2|8,0:0|0:0,0:0:0:0:
343,333,118703,2,0,B|310:270|310:270|324:197,1,142.500005435944,0|8,0:0|0:0,0:0:0:0:
448,47,119066,6,0,L|284:79,1,142.500005435944,2|8,0:0|0:0,0:0:0:0:
94,176,119429,1,0,0:0:0:0:
122,179,119520,1,0,0:0:0:0:
150,182,119611,1,8,0:0:0:0:
205,73,119793,5,2,0:0:0:0:
21,241,119975,1,8,0:0:0:0:
305,154,120157,1,0,0:0:0:0:
277,159,120247,1,0,0:0:0:0:
248,164,120338,1,8,0:0:0:0:
299,273,120520,5,2,0:0:0:0:
408,87,120702,1,8,0:0:0:0:
459,244,120884,1,0,0:0:0:0:
466,271,120975,1,0,0:0:0:0:
473,298,121066,1,8,0:0:0:0:
272,69,121247,5,2,0:0:0:0:
505,51,121429,1,8,0:0:0:0:
360,184,121611,1,0,0:0:0:0:
147,47,121793,1,8,0:0:0:0:
347,35,121975,6,0,L|420:25,7,71.2500027179719,6|0|8|0|0|0|8|0,0:0|0:0|0:0|0:0|0:0|0:0|0:0|0:0,0:0:0:0:
286,116,122703,2,0,L|214:106,7,71.2500027179719,2|0|8|0|0|0|8|0,0:0|0:0|0:0|0:0|0:0|0:0|0:0|0:0,0:0:0:0:
381,177,123429,5,2,0:0:0:0:
377,190,123520,1,0,0:0:0:0:
374,203,123611,1,8,0:0:0:0:
371,216,123702,1,0,0:0:0:0:
368,229,123793,1,0,0:0:0:0:
365,242,123884,1,0,0:0:0:0:
362,256,123975,1,8,0:0:0:0:
359,270,124066,1,0,0:0:0:0:
356,284,124157,2,0,P|437:291|494:257,1,142.500005435944,2|8,0:0|0:0,0:0:0:0:
246,187,124521,2,0,B|206:247|206:247|222:335,1,142.500005435944,0|8,0:0|0:0,0:0:0:0:
200,82,124884,6,0,B|346:41|320:174|466:133,1,285.000010871888,2|0,0:0|0:0,0:0:0:0:
421,19,125429,1,8,0:0:0:0:
246,187,125612,2,0,L|100:171,1,142.500005435944,2|8,0:0|0:0,0:0:0:0:
355,305,125975,2,0,L|501:289,1,142.500005435944,0|8,0:0|0:0,0:0:0:0:
393,97,126339,6,0,P|371:143|370:187,1,83.1250007927418,14|0,0:0|0:0,0:0:0:0:
258,358,126521,2,0,P|252:316|233:280,1,83.1250007927418,14|0,0:0|0:0,0:0:0:0:
25,76,126884,6,0,L|120:63,1,83.1250007927418,14|0,0:0|0:0,0:0:0:0:
286,159,127066,2,0,L|191:146,1,83.1250007927418,14|0,0:0|0:0,0:0:0:0:
453,30,127430,6,0,B|471:68|471:68|468:112,1,83.1250007927418,14|0,0:0|0:0,0:0:0:0:
421,296,127612,2,0,B|403:258|403:258|406:214,1,83.1250007927418,14|0,0:0|0:0,0:0:0:0:
333,64,127793,5,12,0:0:0:0:
311,50,127884,1,0,0:0:0:0:
286,44,127975,1,0,0:0:0:0:
261,45,128066,1,0,0:0:0:0:
237,53,128157,1,8,0:0:0:0:
219,70,128247,1,0,0:0:0:0:
208,92,128338,1,0,0:0:0:0:
208,116,128429,1,0,0:0:0:0:
205,140,128520,1,8,0:0:0:0:
194,162,128611,1,0,0:0:0:0:
173,175,128702,1,0,0:0:0:0:
148,179,128793,1,0,0:0:0:0:
124,172,128884,1,8,0:0:0:0:
109,151,128975,1,0,0:0:0:0:
109,126,129066,1,0,0:0:0:0:
121,104,129157,1,0,0:0:0:0:
144,96,129247,5,8,0:0:0:0:
168,95,129338,1,0,0:0:0:0:
189,106,129429,1,0,0:0:0:0:
207,122,129520,1,0,0:0:0:0:
228,135,129611,1,8,0:0:0:0:
251,143,129702,1,0,0:0:0:0:
275,144,129793,1,0,0:0:0:0:
299,139,129884,1,0,0:0:0:0:
322,131,129975,2,0,P|359:97|371:76,3,61.7499971733095,8|0|0|0,0:0|0:0|0:0|0:0,0:0:0:0:
391,193,130339,2,0,P|409:217|434:236,3,61.7499971733095,8|0|0|0,0:0|0:0|0:0|0:0,0:0:0:0:
490,339,130702,5,8,0:0:0:0:
460,328,130793,1,0,0:0:0:0:
429,325,130884,1,0,0:0:0:0:
398,327,130975,1,0,0:0:0:0:
368,337,131066,1,8,0:0:0:0:
339,348,131157,1,0,0:0:0:0:
309,353,131247,1,0,0:0:0:0:
278,352,131338,1,0,0:0:0:0:
248,344,131429,1,8,0:0:0:0:
221,327,131520,1,0,0:0:0:0:
200,303,131611,1,0,0:0:0:0:
184,276,131702,1,0,0:0:0:0:
177,245,131793,1,8,0:0:0:0:
178,214,131884,1,0,0:0:0:0:
183,183,131975,1,0,0:0:0:0:
197,155,132066,1,0,0:0:0:0:
214,129,132157,6,0,L|286:120,3,61.7499971733095,10|0|0|0,0:0|0:0|0:0|0:0,0:0:0:0:
137,72,132521,2,0,L|65:63,3,61.7499971733095,10|0|0|0,0:0|0:0|0:0|0:0,0:0:0:0:
11,141,132884,1,8,0:0:0:0:
19,189,132975,1,0,0:0:0:0:
48,228,133066,1,0,0:0:0:0:
89,254,133157,1,0,0:0:0:0:
137,254,133247,1,8,0:0:0:0:
182,235,133338,1,0,0:0:0:0:
231,235,133429,1,0,0:0:0:0:
277,252,133520,1,0,0:0:0:0:
310,288,133611,5,12,0:0:0:0:
309,263,133702,1,0,0:0:0:0:
316,239,133793,1,0,0:0:0:0:
324,215,133884,1,0,0:0:0:0:
336,193,133975,1,8,0:0:0:0:
351,173,134066,1,0,0:0:0:0:
370,157,134157,1,0,0:0:0:0:
389,142,134247,1,0,0:0:0:0:
410,129,134338,1,8,0:0:0:0:
385,132,134429,1,0,0:0:0:0:
360,133,134520,1,0,0:0:0:0:
335,131,134611,1,0,0:0:0:0:
310,125,134702,1,8,0:0:0:0:
286,117,134793,1,0,0:0:0:0:
263,106,134884,1,0,0:0:0:0:
241,93,134975,1,0,0:0:0:0:
222,77,135066,6,0,L|205:142,3,61.7499971733095,8|0|0|0,0:0|0:0|0:0|0:0,0:0:0:0:
280,201,135430,2,0,L|297:266,3,61.7499971733095,8|0|0|0,0:0|0:0|0:0|0:0,0:0:0:0:
235,339,135793,1,8,0:0:0:0:
191,363,135884,1,0,0:0:0:0:
141,356,135975,1,0,0:0:0:0:
107,319,136066,1,0,0:0:0:0:
110,269,136157,1,8,0:0:0:0:
143,233,136247,1,0,0:0:0:0:
151,184,136338,1,0,0:0:0:0:
129,139,136429,1,0,0:0:0:0:
86,114,136520,5,8,0:0:0:0:
72,134,136611,1,0,0:0:0:0:
60,155,136702,1,0,0:0:0:0:
54,179,136793,1,0,0:0:0:0:
54,204,136884,1,8,0:0:0:0:
59,228,136975,1,0,0:0:0:0:
69,251,137066,1,0,0:0:0:0:
84,270,137157,1,0,0:0:0:0:
103,286,137248,1,8,0:0:0:0:
125,297,137338,1,0,0:0:0:0:
149,303,137429,1,0,0:0:0:0:
174,303,137521,1,0,0:0:0:0:
198,298,137612,1,8,0:0:0:0:
220,288,137703,1,0,0:0:0:0:
240,273,137794,1,0,0:0:0:0:
255,253,137885,1,0,0:0:0:0:
267,235,137975,6,0,P|236:206|189:186,1,83.1250007927418,14|0,0:0|0:0,0:0:0:0:
385,267,138157,2,0,P|422:249|452:220,1,83.1250007927418,14|0,0:0|0:0,0:0:0:0:
372,98,138338,5,0,0:0:0:0:
356,92,138429,1,0,0:0:0:0:
340,86,138521,2,0,L|349:190,1,83.1250007927418,14|0,0:0|0:0,0:0:0:0:
259,317,138703,2,0,L|266:234,1,83.1250007927418,14|0,0:0|0:0,0:0:0:0:
204,53,138884,5,0,0:0:0:0:
208,68,138975,1,0,0:0:0:0:
212,83,139066,2,0,P|162:83|121:68,1,83.1250007927418,14|0,0:0|0:0,0:0:0:0:
0,184,139248,2,0,P|39:172|81:174,1,83.1250007927418,14|0,0:0|0:0,0:0:0:0:
166,364,139430,6,0,B|146:328|146:328|148:286,1,83.1250007927418,14|0,0:0|0:0,0:0:0:0:
324,179,139612,2,0,B|302:214|302:214|265:233,1,83.1250007927418,14|0,0:0|0:0,0:0:0:0:
371,56,139793,5,0,0:0:0:0:
386,50,139884,1,0,0:0:0:0:
401,44,139975,2,0,L|420:142,1,83.1250007927418,14|0,0:0|0:0,0:0:0:0:
481,269,140157,2,0,L|496:187,1,83.1250007927418,14|0,0:0|0:0,0:0:0:0:
370,305,140338,5,0,0:0:0:0:
373,321,140429,1,0,0:0:0:0:
377,337,140521,2,0,P|326:358|294:360,1,83.1250007927418,14|0,0:0|0:0,0:0:0:0:
139,261,140703,2,0,P|180:266|217:284,1,83.1250007927418,14|0,0:0|0:0,0:0:0:0:
50,341,140884,6,0,L|31:248,1,83.1250007927418,8|0,0:0|0:0,0:0:0:0:
174,159,141066,1,0,0:0:0:0:
162,173,141157,2,0,B|120:175|120:175|81:153,1,83.1250007927418,8|0,0:0|0:0,0:0:0:0:
16,45,141338,1,8,0:0:0:0:
40,53,141430,2,0,L|135:36,1,83.1250007927418,8|0,0:0|0:0,0:0:0:0:
290,28,141611,5,8,0:0:0:0:
305,75,141702,1,8,0:0:0:0:
305,124,141793,1,8,0:0:0:0:
291,172,141884,1,8,0:0:0:0:
257,208,141975,1,8,0:3:0:0:
236,193,142066,1,8,0:3:0:0:
220,173,142157,1,8,0:3:0:0:
208,151,142247,1,8,0:3:0:0:
200,125,142339,6,0,L|247:107,4,47.5,4|0|0|0|0,0:0|0:0|0:0|0:0|0:0,0:0:0:0:
389,98,143089,1,0,0:0:0:0:
385,111,143182,1,0,0:0:0:0:
381,124,143276,1,0,0:0:0:0:
276,204,143464,1,8,0:0:0:0:
279,217,143557,1,0,0:0:0:0:
282,230,143651,1,0,0:0:0:0:
285,243,143745,1,0,0:0:0:0:
288,256,143839,1,0,0:0:0:0:
182,62,144214,1,0,0:0:0:0:
80,197,144589,5,0,0:0:0:0:
82,210,144682,1,0,0:0:0:0:
85,223,144776,1,0,0:0:0:0:
88,236,144870,1,0,0:0:0:0:
91,249,144964,1,0,0:0:0:0:
182,62,145339,1,0,0:0:0:0:
180,76,145432,1,0,0:0:0:0:
178,90,145526,1,0,0:0:0:0:
281,179,145714,1,8,0:0:0:0:
283,192,145807,1,0,0:0:0:0:
285,206,145901,1,0,0:0:0:0:
287,220,145995,1,0,0:0:0:0:
289,234,146089,1,0,0:0:0:0:
396,83,146464,1,0,0:0:0:0:
475,229,146839,5,0,0:0:0:0:
474,243,146932,1,0,0:0:0:0:
473,257,147026,1,0,0:0:0:0:
472,271,147120,1,0,0:0:0:0:
471,285,147214,1,0,0:0:0:0:
320,132,147589,1,0,0:0:0:0:
321,145,147682,1,0,0:0:0:0:
323,159,147776,1,0,0:0:0:0:
215,228,147964,1,8,0:0:0:0:
213,242,148057,1,0,0:0:0:0:
211,256,148151,1,0,0:0:0:0:
209,270,148245,1,0,0:0:0:0:
207,284,148339,1,0,0:0:0:0:
143,122,148714,1,0,0:0:0:0:
337,268,149089,5,0,0:0:0:0:
338,282,149182,1,0,0:0:0:0:
339,296,149276,1,0,0:0:0:0:
341,310,149370,1,0,0:0:0:0:
343,324,149464,1,0,0:0:0:0:
233,120,149839,1,0,0:0:0:0:
231,134,149932,1,0,0:0:0:0:
229,148,150026,1,0,0:0:0:0:
341,27,150214,1,8,0:0:0:0:
343,40,150307,1,0,0:0:0:0:
345,54,150401,1,0,0:0:0:0:
347,68,150495,1,0,0:0:0:0:
349,82,150589,1,0,0:0:0:0:
215,226,150964,1,0,0:0:0:0:
115,48,151339,5,0,0:0:0:0:
113,62,151432,1,0,0:0:0:0:
111,76,151526,1,0,0:0:0:0:
109,90,151620,1,0,0:0:0:0:
107,104,151714,1,0,0:0:0:0:
39,208,152089,1,0,0:0:0:0:
42,221,152182,1,0,0:0:0:0:
46,234,152276,1,0,0:0:0:0:
208,240,152464,1,8,0:0:0:0:
206,254,152557,1,0,0:0:0:0:
204,268,152651,1,0,0:0:0:0:
202,282,152745,1,0,0:0:0:0:
201,296,152839,1,0,0:0:0:0:
141,123,153214,1,0,0:0:0:0:
361,177,153589,5,0,0:0:0:0:
363,190,153682,1,0,0:0:0:0:
365,204,153776,1,0,0:0:0:0:
367,218,153870,1,0,0:0:0:0:
369,232,153964,1,0,0:0:0:0:
478,50,154339,1,0,0:0:0:0:
477,64,154432,1,0,0:0:0:0:
476,78,154526,1,0,0:0:0:0:
262,94,154714,1,8,0:0:0:0:
264,107,154807,1,0,0:0:0:0:
266,121,154901,1,0,0:0:0:0:
268,135,154995,1,0,0:0:0:0:
270,149,155089,1,0,0:0:0:0:
91,44,155464,1,0,0:0:0:0:
172,174,155839,5,0,0:0:0:0:
169,187,155932,1,0,0:0:0:0:
166,201,156026,1,0,0:0:0:0:
164,215,156120,1,0,0:0:0:0:
162,229,156214,1,0,0:0:0:0:
312,241,156589,1,0,0:0:0:0:
314,254,156682,1,0,0:0:0:0:
316,268,156776,1,0,0:0:0:0:
452,271,156964,1,8,0:0:0:0:
450,285,157057,1,0,0:0:0:0:
448,299,157151,1,0,0:0:0:0:
446,313,157245,1,0,0:0:0:0:
445,327,157339,1,0,0:0:0:0:
406,125,157714,1,0,0:0:0:0:
218,232,158089,5,0,0:0:0:0:
220,245,158182,1,0,0:0:0:0:
222,259,158276,1,0,0:0:0:0:
224,273,158370,1,0,0:0:0:0:
226,287,158464,1,0,0:0:0:0:
323,131,158839,1,0,0:0:0:0:
322,145,158933,1,0,0:0:0:0:
321,159,159027,1,0,0:0:0:0:
122,234,159214,1,8,0:0:0:0:
116,221,159307,1,8,0:0:0:0:
110,207,159401,1,0,0:0:0:0:
106,193,159495,1,0,0:0:0:0:
103,179,159589,1,8,0:0:0:0:
101,164,159682,1,8,0:0:0:0:
99,149,159776,1,0,0:0:0:0:
98,134,159870,1,0,0:0:0:0:
98,119,159964,1,8,0:0:0:0:
99,104,160057,1,8,0:0:0:0:
100,89,160151,1,0,0:0:0:0:
102,74,160245,1,0,0:0:0:0:
104,59,160339,6,0,L|212:44,2,95,4|0|2,0:0|0:0|0:0,0:0:0:0:
377,149,160901,2,0,L|269:134,2,95,0|0|2,0:0|0:0|0:0,0:0:0:0:
185,215,161464,2,0,P|132:236|94:264,1,95,8|0,0:0|0:0,0:0:0:0:
311,283,161839,1,2,0:0:0:0:
37,151,162026,1,0,0:0:0:0:
190,61,162214,2,0,P|243:82|281:110,1,95,2|0,0:0|0:0,0:0:0:0:
463,201,162589,5,0,0:0:0:0:
461,224,162682,1,0,0:0:0:0:
459,247,162776,1,0,0:0:0:0:
457,270,162870,1,0,0:0:0:0:
455,293,162964,2,0,P|396:293|352:276,1,95,2|0,0:0|0:0,0:0:0:0:
173,299,163339,1,0,0:0:0:0:
176,275,163432,1,0,0:0:0:0:
179,251,163526,1,2,0:0:0:0:
248,31,163714,1,8,0:0:0:0:
252,54,163807,1,0,0:0:0:0:
254,77,163901,1,0,0:0:0:0:
253,100,163995,1,0,0:0:0:0:
250,123,164089,2,0,L|373:108,1,95,2|0,0:0|0:0,0:0:0:0:
138,174,164464,2,0,L|15:159,1,95,2|0,0:0|0:0,0:0:0:0:
293,295,164839,5,0,0:0:0:0:
316,291,164932,1,0,0:0:0:0:
339,285,165026,1,0,0:0:0:0:
361,277,165120,1,0,0:0:0:0:
382,266,165214,2,0,L|401:370,1,95,2|0,0:0|0:0,0:0:0:0:
188,220,165589,1,0,0:0:0:0:
164,215,165682,1,0,0:0:0:0:
141,206,165776,1,2,0:0:0:0:
278,48,165964,1,8,0:0:0:0:
287,69,166057,1,0,0:0:0:0:
294,91,166151,1,0,0:0:0:0:
298,114,166245,1,0,0:0:0:0:
300,137,166339,2,0,L|400:122,1,95,2|0,0:0|0:0,0:0:0:0:
392,346,166714,2,0,P|369:280|367:247,1,95,2|0,0:0|0:0,0:0:0:0:
113,280,167089,5,0,0:0:0:0:
133,291,167182,1,0,0:0:0:0:
155,298,167276,1,0,0:0:0:0:
178,304,167370,1,0,0:0:0:0:
201,308,167464,2,0,L|219:202,1,95,2|0,0:0|0:0,0:0:0:0:
143,45,167839,1,0,0:0:0:0:
138,68,167932,1,0,0:0:0:0:
133,91,168026,1,2,0:0:0:0:
390,200,168214,1,8,0:0:0:0:
383,177,168307,1,0,0:0:0:0:
373,155,168401,1,0,0:0:0:0:
362,133,168495,1,0,0:0:0:0:
350,112,168589,2,0,L|251:121,1,95,2|0,0:0|0:0,0:0:0:0:
471,299,168964,2,0,P|493:238|493:190,1,95,2|0,0:0|0:0,0:0:0:0:
305,352,169339,5,0,0:0:0:0:
281,355,169432,1,0,0:0:0:0:
257,355,169526,1,0,0:0:0:0:
233,350,169620,1,0,0:0:0:0:
210,341,169714,2,0,L|196:229,1,95,2|0,0:0|0:0,0:0:0:0:
329,138,170089,1,0,0:0:0:0:
339,159,170182,1,0,0:0:0:0:
347,181,170276,1,2,0:0:0:0:
85,221,170464,1,8,0:0:0:0:
86,197,170557,1,0,0:0:0:0:
91,173,170651,1,0,0:0:0:0:
98,150,170745,1,0,0:0:0:0:
107,128,170839,2,0,L|205:147,1,95,2|0,0:0|0:0,0:0:0:0:
420,253,171214,2,0,P|351:283|319:280,1,95,2|0,0:0|0:0,0:0:0:0:
253,47,171589,5,0,0:0:0:0:
276,48,171682,1,0,0:0:0:0:
299,51,171776,1,0,0:0:0:0:
322,57,171870,1,0,0:0:0:0:
344,65,171964,2,0,P|359:117|364:170,1,95,2|0,0:0|0:0,0:0:0:0:
185,229,172339,1,0,0:0:0:0:
161,224,172432,1,0,0:0:0:0:
138,216,172526,1,2,0:0:0:0:
289,326,172714,1,8,0:0:0:0:
310,315,172807,1,0,0:0:0:0:
332,306,172901,1,0,0:0:0:0:
354,299,172995,1,0,0:0:0:0:
377,297,173089,2,0,P|426:303|484:321,1,95,2|0,0:0|0:0,0:0:0:0:
181,309,173464,2,0,P|135:321|88:327,1,95,2|0,0:0|0:0,0:0:0:0:
65,77,173839,5,0,0:0:0:0:
79,95,173932,1,0,0:0:0:0:
90,115,174026,1,0,0:0:0:0:
99,136,174120,1,0,0:0:0:0:
106,158,174214,2,0,L|214:131,1,95,2|0,0:0|0:0,0:0:0:0:
369,45,174589,1,0,0:0:0:0:
356,64,174682,1,0,0:0:0:0:
346,85,174776,1,2,0:0:0:0:
259,203,174964,1,8,0:0:0:0:
272,222,175057,1,0,0:0:0:0:
284,242,175151,1,0,0:0:0:0:
293,263,175245,1,0,0:0:0:0:
301,285,175339,2,0,L|201:266,1,95,2|0,0:0|0:0,0:0:0:0:
422,212,175714,2,0,P|468:178|489:135,1,95,2|0,0:0|0:0,0:0:0:0:
194,84,176089,5,0,0:0:0:0:
170,81,176182,1,0,0:0:0:0:
146,76,176276,1,0,0:0:0:0:
123,68,176370,1,0,0:0:0:0:
101,56,176464,1,2,0:0:0:0:
70,244,176839,1,0,0:0:0:0:
92,220,176932,1,0,0:0:0:0:
120,202,177026,1,2,0:0:0:0:
150,188,177120,1,0,0:0:0:0:
181,178,177214,1,8,0:0:0:0:
194,183,177307,1,8,0:0:0:0:
206,189,177401,1,0,0:0:0:0:
239,187,177495,1,0,0:0:0:0:
270,177,177589,1,10,0:0:0:0:
283,181,177682,1,8,0:0:0:0:
295,188,177776,1,0,0:0:0:0:
327,181,177870,1,0,0:0:0:0:
356,165,177964,1,10,0:0:0:0:
368,171,178057,1,8,0:0:0:0:
380,178,178151,1,8,0:0:0:0:
391,185,178245,1,8,0:0:0:0:
401,193,178339,6,0,L|455:174,7,47.5,4|0|0|0|0|0|0|0,0:0|0:0|0:0|0:0|0:0|0:0|0:0|0:0,0:0:0:0:
423,51,178819,6,0,B|387:91|387:91|287:81,1,142.500005435944,8|0,0:0|0:0,0:0:0:0:
60,56,179299,2,0,B|96:16|96:16|196:26,1,142.500005435944,0|0,0:0|0:0,0:0:0:0:
263,251,179779,1,8,0:0:0:0:
263,251,180259,5,0,0:0:0:0:
248,248,180319,1,0,0:0:0:0:
234,243,180379,1,0,0:0:0:0:
220,237,180439,1,0,0:0:0:0:
207,230,180499,1,0,0:0:0:0:
195,221,180559,1,0,0:0:0:0:
184,211,180619,1,0,0:0:0:0:
173,201,180679,1,0,0:0:0:0:
163,190,180739,1,8,0:0:0:0:
318,131,180979,5,0,0:0:0:0:
68,120,181219,2,0,P|43:214|61:258,1,142.500005435944,0|0,0:0|0:0,0:0:0:0:
326,278,181699,6,0,L|224:255,1,95,10|0,0:0|0:0,0:0:0:0:
440,172,181939,2,0,L|463:274,1,95,10|0,0:0|0:0,0:0:0:0:
318,160,182179,5,0,0:0:0:0:
307,150,182239,1,0,0:0:0:0:
298,138,182299,1,0,0:0:0:0:
290,126,182359,1,0,0:0:0:0:
283,113,182419,1,0,0:0:0:0:
277,100,182479,1,0,0:0:0:0:
271,86,182539,1,0,0:0:0:0:
266,72,182599,1,0,0:0:0:0:
262,58,182659,1,8,0:0:0:0:
425,109,182899,5,0,0:0:0:0:
174,162,183139,2,0,L|88:150,1,71.2500027179719,0|0,0:0|0:0,0:0:0:0:
30,53,183379,1,8,0:0:0:0:
263,219,183859,2,0,L|295:299,1,71.2500027179719
391,217,184099,1,0,0:0:0:0:
396,203,184159,1,0,0:0:0:0:
402,190,184219,1,0,0:0:0:0:
409,177,184279,1,0,0:0:0:0:
417,165,184339,1,0,0:0:0:0:
425,153,184399,1,0,0:0:0:0:
434,142,184459,1,0,0:0:0:0:
444,132,184519,1,0,0:0:0:0:
455,123,184579,1,8,0:0:0:0:
267,100,184819,5,0,0:0:0:0:
252,100,184879,1,0,0:0:0:0:
237,99,184939,1,0,0:0:0:0:
223,96,184999,1,0,0:0:0:0:
209,91,185059,1,8,0:0:0:0:
378,29,185299,1,8,0:0:0:0:
112,139,185539,1,10,0:0:0:0:
310,182,185779,1,10,0:0:0:0:
14,86,186019,5,4,0:0:0:0:
18,99,186079,1,0,0:0:0:0:
22,112,186139,1,0,0:0:0:0:
25,125,186199,1,0,0:0:0:0:
28,138,186259,1,0,0:0:0:0:
30,151,186319,1,0,0:0:0:0:
32,165,186379,1,0,0:0:0:0:
34,179,186439,1,0,0:0:0:0:
35,193,186499,1,8,0:0:0:0:
138,41,186739,5,0,0:0:0:0:
328,150,186979,2,0,B|267:187|267:187|185:171,1,142.500005435944,0|0,0:0|0:0,0:0:0:0:
467,276,187459,1,8,0:0:0:0:
467,276,187939,5,0,0:0:0:0:
468,261,187999,1,0,0:0:0:0:
469,246,188059,1,0,0:0:0:0:
470,231,188119,1,0,0:0:0:0:
471,216,188179,1,0,0:0:0:0:
472,201,188239,1,0,0:0:0:0:
473,186,188299,1,0,0:0:0:0:
474,171,188359,1,0,0:0:0:0:
475,156,188419,1,8,0:0:0:0:
335,27,188659,5,0,0:0:0:0:
224,183,188899,1,0,0:0:0:0:
483,66,189139,1,0,0:0:0:0:
155,88,189379,6,0,L|46:70,1,95,10|0,0:0|0:0,0:0:0:0:
252,179,189619,2,0,L|361:161,1,95,10|0,0:0|0:0,0:0:0:0:
131,203,189859,5,0,0:0:0:0:
124,215,189919,1,0,0:0:0:0:
118,227,189979,1,0,0:0:0:0:
112,240,190039,1,0,0:0:0:0:
106,253,190099,1,0,0:0:0:0:
101,266,190159,1,0,0:0:0:0:
97,279,190219,1,0,0:0:0:0:
93,292,190279,1,0,0:0:0:0:
89,305,190339,1,8,0:0:0:0:
29,141,190579,5,0,0:0:0:0:
215,294,190819,2,0,L|286:281,1,71.2500027179719,0|0,0:0|0:0,0:0:0:0:
351,338,191059,2,0,B|363:257|293:279|305:199,1,152,8|0,0:0|0:0,0:0:0:0:
411,32,191779,5,0,0:0:0:0:
417,44,191839,1,0,0:0:0:0:
422,57,191899,1,0,0:0:0:0:
426,70,191959,1,0,0:0:0:0:
429,83,192019,1,0,0:0:0:0:
432,96,192079,1,0,0:0:0:0:
434,110,192139,1,0,0:0:0:0:
435,124,192199,1,0,0:0:0:0:
435,138,192259,1,8,0:0:0:0:
232,119,192499,5,0,0:0:0:0:
242,109,192559,1,0,0:0:0:0:
253,100,192619,1,0,0:0:0:0:
265,93,192679,1,0,0:0:0:0:
277,87,192739,1,8,0:0:0:0:
325,265,192979,1,8,0:0:0:0:
114,39,193219,1,10,0:0:0:0:
408,172,193459,1,10,0:0:0:0:
156,326,193699,5,12,0:0:0:0:
129,315,193819,1,8,0:0:0:0:
102,304,193939,1,8,0:0:0:0:
75,293,194059,1,8,0:0:0:0:
48,281,194179,1,8,0:0:0:0:
287,222,194419,1,8,0:0:0:0:
314,211,194539,1,8,0:0:0:0:
341,200,194659,1,8,0:0:0:0:
368,189,194779,1,8,0:0:0:0:
395,177,194899,1,8,0:0:0:0:
421,166,195019,1,8,0:0:0:0:
447,155,195139,1,8,0:0:0:0:
152,40,195619,6,8,L|145:127,1,71.2500027179719
205,319,195859,2,8,L|212:232,1,71.2500027179719
23,137,196099,1,8,0:0:0:0:
26,165,196219,1,8,0:0:0:0:
29,193,196339,1,8,0:0:0:0:
33,221,196459,1,8,0:0:0:0:
37,249,196579,2,8,P|76:246|116:233,1,71.2500027179719
307,164,196819,2,8,P|272:154|237:152,1,71.2500027179719
250,309,197059,6,0,B|289:337|289:337|344:330,1,95,14|0,0:0|0:0,0:0:0:0:
490,180,197299,2,0,B|446:199|446:199|424:250,1,95,14|0,0:0|0:0,0:0:0:0:
200,230,197539,5,8,0:0:0:0:
172,237,197659,1,8,0:0:0:0:
144,244,197779,1,8,0:0:0:0:
116,251,197899,1,8,0:0:0:0:
88,258,198019,2,8,L|5:246,1,71.2500027179719
83,67,198259,2,8,L|97:138,1,71.2500027179719
245,153,198499,1,8,0:0:0:0:
273,157,198619,1,8,0:0:0:0:
301,161,198739,1,8,0:0:0:0:
329,165,198859,1,8,0:0:0:0:
357,169,198979,1,8,0:0:0:0:
222,345,199459,6,8,P|204:308|201:266,1,71.2500027179719
291,100,199699,2,8,P|267:134|233:157,1,71.2500027179719
111,176,199939,1,8,0:0:0:0:
90,156,200059,1,8,0:0:0:0:
69,136,200179,1,8,0:0:0:0:
48,116,200299,1,8,0:0:0:0:
27,96,200419,1,12,0:0:0:0:
297,240,200659,1,8,0:0:0:0:
90,289,200899,1,14,0:0:0:0:
168,81,201139,1,14,0:0:0:0:
183,199,201379,5,4,0:0:0:0:
182,209,201439,1,0,0:0:0:0:
181,219,201499,1,0,0:0:0:0:
180,229,201559,1,0,0:0:0:0:
179,239,201619,1,0,0:0:0:0:
178,249,201679,1,0,0:0:0:0:
177,259,201739,1,0,0:0:0:0:
176,269,201799,1,0,0:0:0:0:
175,279,201859,1,8,0:0:0:0:
273,115,202099,5,0,0:0:0:0:
51,188,202339,1,0,0:0:0:0:
234,360,202579,1,0,0:0:0:0:
139,78,202819,1,8,0:0:0:0:
419,212,203299,5,0,0:0:0:0:
416,201,203359,1,0,0:0:0:0:
414,190,203419,1,0,0:0:0:0:
412,179,203479,1,0,0:0:0:0:
410,168,203539,1,0,0:0:0:0:
407,157,203599,1,0,0:0:0:0:
405,146,203659,1,0,0:0:0:0:
403,135,203719,1,0,0:0:0:0:
401,124,203779,1,8,0:0:0:0:
323,295,204019,5,0,0:0:0:0:
315,75,204259,2,0,B|374:32|374:32|452:37,1,142.500005435944,0|0,0:0|0:0,0:0:0:0:
251,271,204739,6,0,B|211:298|211:298|160:297,1,95,10|0,0:0|0:0,0:0:0:0:
86,126,204979,2,0,B|126:98|126:98|177:99,1,95,10|0,0:0|0:0,0:0:0:0:
344,228,205219,5,0,0:0:0:0:
352,234,205279,1,0,0:0:0:0:
359,241,205339,1,0,0:0:0:0:
366,248,205399,1,0,0:0:0:0:
372,256,205459,1,0,0:0:0:0:
378,264,205519,1,0,0:0:0:0:
384,272,205579,1,0,0:0:0:0:
389,281,205639,1,0,0:0:0:0:
394,290,205699,1,8,0:0:0:0:
444,86,205939,5,0,0:0:0:0:
239,235,206179,2,0,P|231:186|218:154,1,71.2500027179719,0|0,0:0|0:0,0:0:0:0:
161,301,206419,1,8,0:0:0:0:
161,301,207139,5,0,0:0:0:0:
161,290,207199,1,0,0:0:0:0:
161,279,207259,1,0,0:0:0:0:
162,268,207319,1,0,0:0:0:0:
163,257,207379,1,0,0:0:0:0:
165,246,207439,1,0,0:0:0:0:
167,235,207499,1,0,0:0:0:0:
169,224,207559,1,0,0:0:0:0:
172,213,207619,1,8,0:0:0:0:
75,107,207859,5,0,0:0:0:0:
78,117,207919,1,0,0:0:0:0:
81,127,207979,1,0,0:0:0:0:
83,137,208039,1,0,0:0:0:0:
85,147,208099,1,8,0:0:0:0:
216,52,208339,1,8,0:0:0:0:
47,278,208579,1,10,0:0:0:0:
35,27,208819,1,10,0:0:0:0:
221,317,209059,5,4,0:0:0:0:
229,323,209959,5,4,0:0:0:0:
236,327,210859,5,4,0:0:0:0:
244,333,211759,6,0,L|298:320,5,47.5000018119813,4|0|0|0|0|0,0:0|0:0|0:0|0:0|0:0|0:0,0:0:0:0:
143,281,212209,2,0,L|89:268,5,47.5000018119813,4|0|0|0|0|0,0:0|0:0|0:0|0:0|0:0|0:0,0:0:0:0:
236,224,212659,5,12,0:0:0:0:
252,215,212734,1,0,0:0:0:0:
270,209,212809,1,0,0:0:0:0:
288,206,212884,1,0,0:0:0:0:
306,206,212959,1,0,0:0:0:0:
324,208,213034,1,0,0:0:0:0:
342,212,213109,1,8,0:0:0:0:
360,215,213184,1,0,0:0:0:0:
378,216,213259,1,0,0:0:0:0:
396,215,213334,1,0,0:0:0:0:
414,211,213409,1,0,0:0:0:0:
431,203,213484,1,0,0:0:0:0:
447,194,213559,2,0,P|472:168|482:144,5,63.3333333333333,8|0|0|0|0|0,0:0|0:0|0:0|0:0|0:0|0:0,0:0:0:0:
390,109,214009,2,0,L|378:37,5,63.3333333333333,8|0|0|0|0|0,0:0|0:0|0:0|0:0|0:0|0:0,0:0:0:0:
301,126,214459,5,8,0:0:0:0:
279,138,214534,1,0,0:0:0:0:
255,146,214609,1,0,0:0:0:0:
230,150,214684,1,0,0:0:0:0:
204,151,214759,1,0,0:0:0:0:
178,149,214834,1,0,0:0:0:0:
153,143,214909,1,8,0:0:0:0:
128,135,214984,1,0,0:0:0:0:
107,120,215059,1,0,0:0:0:0:
87,103,215134,1,0,0:0:0:0:
70,83,215209,1,0,0:0:0:0:
56,61,215284,1,0,0:0:0:0:
45,38,215359,1,8,0:0:0:0:
66,51,215434,1,0,0:0:0:0:
80,72,215509,1,0,0:0:0:0:
90,95,215584,1,0,0:0:0:0:
98,120,215659,1,0,0:0:0:0:
103,146,215734,1,0,0:0:0:0:
103,171,215809,1,8,0:0:0:0:
102,198,215884,1,0,0:0:0:0:
93,222,215959,1,0,0:0:0:0:
82,246,216034,1,0,0:0:0:0:
67,267,216109,1,0,0:0:0:0:
49,286,216184,1,0,0:0:0:0:
32,305,216259,6,0,L|8:233,5,63.3333333333333,12|0|0|0|0|0,0:0|0:0|0:0|0:0|0:0|0:0,0:0:0:0:
113,365,216709,2,0,L|181:374,5,63.3333333333333,8|0|0|0|0|0,0:0|0:0|0:0|0:0|0:0|0:0,0:0:0:0:
167,275,217159,1,8,0:0:0:0:
195,260,217234,1,0,0:0:0:0:
226,254,217309,1,0,0:0:0:0:
257,258,217384,1,0,0:0:0:0:
284,273,217459,1,0,0:0:0:0:
306,295,217534,1,0,0:0:0:0:
334,309,217609,1,8,0:0:0:0:
365,313,217684,1,0,0:0:0:0:
396,311,217759,1,0,0:0:0:0:
424,296,217834,1,0,0:0:0:0:
445,272,217909,1,0,0:0:0:0:
463,245,217984,1,0,0:0:0:0:
464,213,218059,5,8,0:0:0:0:
439,233,218134,1,0,0:0:0:0:
407,239,218209,1,0,0:0:0:0:
375,233,218284,1,0,0:0:0:0:
348,214,218359,1,0,0:0:0:0:
332,186,218434,1,0,0:0:0:0:
324,155,218509,1,8,0:0:0:0:
305,129,218584,1,0,0:0:0:0:
280,109,218659,1,0,0:0:0:0:
250,97,218734,1,0,0:0:0:0:
218,97,218809,1,0,0:0:0:0:
187,106,218884,1,0,0:0:0:0:
164,128,218959,2,0,L|181:200,5,63.3333333333333,8|0|0|0|0|0,0:0|0:0|0:0|0:0|0:0|0:0,0:0:0:0:
75,177,219409,2,0,L|3:194,5,63.3333333333333,8|0|0|0|0|0,0:0|0:0|0:0|0:0|0:0|0:0,0:0:0:0:
76,78,219859,5,12,0:0:0:0:
96,53,219934,1,0,0:0:0:0:
124,38,220009,1,0,0:0:0:0:
154,30,220084,1,0,0:0:0:0:
185,28,220159,1,0,0:0:0:0:
216,33,220234,1,0,0:0:0:0:
244,46,220309,1,8,0:0:0:0:
265,68,220384,1,0,0:0:0:0:
280,95,220459,1,0,0:0:0:0:
287,125,220534,1,0,0:0:0:0:
301,153,220609,1,0,0:0:0:0:
321,176,220684,1,0,0:0:0:0:
348,191,220759,1,8,0:0:0:0:
378,199,220834,1,0,0:0:0:0:
409,196,220909,1,0,0:0:0:0:
438,184,220984,1,0,0:0:0:0:
461,163,221059,1,0,0:0:0:0:
469,132,221134,1,0,0:0:0:0:
455,103,221209,1,8,0:0:0:0:
425,90,221284,1,0,0:0:0:0:
396,103,221359,1,0,0:0:0:0:
382,131,221434,1,0,0:0:0:0:
386,162,221509,1,0,0:0:0:0:
405,186,221584,1,0,0:0:0:0:
422,212,221659,5,12,0:0:0:0:
425,243,221734,1,0,0:0:0:0:
423,274,221809,1,0,0:0:0:0:
410,303,221884,1,0,0:0:0:0:
385,323,221959,1,0,0:0:0:0:
354,329,222034,1,0,0:0:0:0:
322,322,222109,1,8,0:0:0:0:
297,301,222184,1,0,0:0:0:0:
280,273,222259,1,0,0:0:0:0:
253,256,222334,1,0,0:0:0:0:
222,248,222409,1,0,0:0:0:0:
191,256,222484,1,0,0:0:0:0:
166,275,222559,2,0,P|149:317|151:351,5,63.3333333333333,12|0|0|0|0|0,0:0|0:0|0:0|0:0|0:0|0:0,0:0:0:0:
90,211,223009,2,0,P|86:179|72:151,5,63.3333333333333,8|0|0|0|0|0,0:0|0:0|0:0|0:0|0:0|0:0,0:0:0:0:
27,59,223459,5,12,0:0:0:0:
55,71,223534,1,0,0:0:0:0:
86,76,223609,1,0,0:0:0:0:
117,76,223684,1,0,0:0:0:0:
148,69,223759,1,0,0:0:0:0:
177,58,223834,1,0,0:0:0:0:
202,39,223909,1,10,0:0:0:0:
231,27,223984,1,0,0:0:0:0:
262,25,224059,1,0,0:0:0:0:
293,26,224134,1,0,0:0:0:0:
322,36,224209,1,0,0:0:0:0:
350,49,224284,1,0,0:0:0:0:
373,69,224359,1,10,0:0:0:0:
386,97,224434,1,0,0:0:0:0:
393,127,224509,1,0,0:0:0:0:
395,158,224584,1,0,0:0:0:0:
391,189,224659,1,0,0:0:0:0:
378,217,224734,1,0,0:0:0:0:
356,240,224809,1,10,0:0:0:0:
325,246,224884,1,0,0:0:0:0:
294,236,224959,1,0,0:0:0:0:
272,212,225034,1,0,0:0:0:0:
268,180,225109,1,0,0:0:0:0:
280,150,225184,1,0,0:0:0:0:
305,131,225259,6,0,L|376:116,3,63.3333333333333,10|0|0|0,0:0|0:0|0:0|0:0,0:0:0:0:
241,64,225559,2,0,L|170:49,3,63.3333333333333,10|0|0|0,0:0|0:0|0:0|0:0,0:0:0:0:
336,26,225859,1,10,0:0:0:0:
367,20,225934,1,0,0:0:0:0:
398,23,226009,1,0,0:0:0:0:
427,34,226084,1,0,0:0:0:0:
449,55,226159,2,0,P|472:120|472:131,3,63.3333333333333,10|0|0|0,0:0|0:0|0:0|0:0,0:0:0:0:
396,163,226459,2,0,P|373:228|373:239,3,63.3333333333333,10|0|0|0,0:0|0:0|0:0|0:0,0:0:0:0:
455,260,226759,1,10,0:0:0:0:
459,278,226834,1,0,0:0:0:0:
463,296,226909,1,0,0:0:0:0:
468,314,226984,1,0,0:0:0:0:
472,332,227059,5,12,0:0:0:0:
444,316,227134,1,0,0:0:0:0:
413,309,227209,1,0,0:0:0:0:
381,307,227284,1,0,0:0:0:0:
350,315,227359,1,0,0:0:0:0:
323,332,227434,1,0,0:0:0:0:
299,353,227509,1,10,0:0:0:0:
268,361,227584,1,0,0:0:0:0:
236,356,227659,1,0,0:0:0:0:
212,334,227734,1,0,0:0:0:0:
203,303,227809,1,0,0:0:0:0:
208,271,227884,1,0,0:0:0:0:
227,246,227959,1,10,0:0:0:0:
256,233,228034,1,0,0:0:0:0:
287,232,228109,1,0,0:0:0:0:
317,238,228184,1,0,0:0:0:0:
348,236,228259,1,0,0:0:0:0:
375,219,228334,1,0,0:0:0:0:
388,190,228409,1,10,0:0:0:0:
389,158,228484,1,0,0:0:0:0:
373,130,228559,1,0,0:0:0:0:
346,111,228634,1,0,0:0:0:0:
314,108,228709,1,0,0:0:0:0:
284,119,228784,1,0,0:0:0:0:
263,143,228859,6,0,P|233:162|198:173,5,63.3333333333333,14|0|0|0|0|0,0:0|0:0|0:0|0:0|0:0|0:0,0:0:0:0:
188,76,229309,2,0,P|153:71|118:57,5,63.3333333333333,10|0|0|0|0|0,0:0|0:0|0:0|0:0|0:0|0:0,0:0:0:0:
30,35,229759,1,14,0:0:0:0:
46,61,229834,1,0,0:0:0:0:
57,90,229909,1,0,0:0:0:0:
63,120,229984,1,0,0:0:0:0:
64,151,230059,1,0,0:0:0:0:
57,182,230134,1,0,0:0:0:0:
45,211,230209,2,0,L|64:288,5,63.3333333333333,10|0|0|0|0|0,0:0|0:0|0:0|0:0|0:0|0:0,0:0:0:0:
79,360,230659,5,12,0:0:0:0:
103,340,230734,1,0,0:0:0:0:
132,329,230809,1,0,0:0:0:0:
163,325,230884,1,0,0:0:0:0:
194,329,230959,1,0,0:0:0:0:
223,340,231034,1,0,0:0:0:0:
254,344,231109,1,10,0:0:0:0:
285,342,231184,1,0,0:0:0:0:
315,332,231259,1,0,0:0:0:0:
339,312,231334,1,0,0:0:0:0:
354,284,231409,1,0,0:0:0:0:
361,253,231484,1,0,0:0:0:0:
359,221,231559,1,10,0:0:0:0:
337,243,231634,1,0,0:0:0:0:
327,273,231709,1,0,0:0:0:0:
329,304,231784,1,0,0:0:0:0:
344,331,231859,1,0,0:0:0:0:
368,351,231934,1,0,0:0:0:0:
398,360,232009,1,10,0:0:0:0:
429,354,232084,1,0,0:0:0:0:
457,340,232159,1,0,0:0:0:0:
475,314,232234,1,0,0:0:0:0:
485,284,232309,1,0,0:0:0:0:
486,252,232384,1,0,0:0:0:0:
474,222,232459,6,0,P|471:186|478:144,1,63.3333333333333,10|0,0:0|0:0,0:0:0:0:
332,83,232609,1,0,0:0:0:0:
332,83,232684,1,0,0:0:0:0:
332,83,232759,2,0,L|393:127,1,63.3333333333333,10|0,0:0|0:0,0:0:0:0:
248,159,232909,1,0,0:0:0:0:
248,159,232984,1,0,0:0:0:0:
248,159,233059,2,0,L|278:229,1,63.3333333333333,10|0,0:0|0:0,0:0:0:0:
129,165,233209,1,0,0:0:0:0:
129,165,233284,1,0,0:0:0:0:
129,165,233359,2,0,L|94:232,1,63.3333333333333,10|0,0:0|0:0,0:0:0:0:
74,59,233509,1,0,0:0:0:0:
74,59,233584,1,0,0:0:0:0:
74,59,233659,2,0,L|0:76,1,63.3333333333333,10|0,0:0|0:0,0:0:0:0:
189,54,233809,1,0,0:0:0:0:
207,51,233884,1,0,0:0:0:0:
225,46,233959,1,10,0:0:0:0:
243,41,234034,1,0,0:0:0:0:
261,35,234109,1,0,0:0:0:0:
279,29,234184,1,0,0:0:0:0:
296,21,234259,5,12,0:0:0:0:
282,56,234334,1,0,0:0:0:0:
279,93,234409,1,0,0:0:0:0:
289,129,234484,1,0,0:0:0:0:
310,160,234559,1,0,0:0:0:0:
341,181,234634,1,0,0:0:0:0:
378,183,234709,1,10,0:0:0:0:
410,163,234784,1,0,0:0:0:0:
428,129,234859,1,0,0:0:0:0:
422,91,234934,1,0,0:0:0:0:
392,67,235009,1,0,0:0:0:0:
354,63,235084,1,0,0:0:0:0:
321,82,235159,1,10,0:0:0:0:
303,115,235234,1,0,0:0:0:0:
289,150,235309,1,0,0:0:0:0:
262,177,235384,1,0,0:0:0:0:
229,196,235459,1,0,0:0:0:0:
192,207,235534,1,0,0:0:0:0:
154,208,235609,1,10,0:0:0:0:
118,194,235684,1,0,0:0:0:0:
97,162,235759,1,0,0:0:0:0:
99,124,235834,1,0,0:0:0:0:
125,96,235909,1,0,0:0:0:0:
162,91,235984,1,0,0:0:0:0:
195,107,236059,6,0,P|235:116|276:108,5,63.3333333333333,12|0|0|0|0|0,2:2|2:2|2:2|2:2|2:2|2:2,2:2:0:0:
358,156,236509,6,0,L|370:86,5,63.3333333333333,12|0|0|0|0|0,2:2|2:2|2:2|2:2|2:2|2:2,2:2:0:0:
273,213,236959,5,8,2:2:0:0:
277,231,237034,1,8,2:2:0:0:
281,249,237109,1,8,2:2:0:0:
285,267,237184,1,8,2:2:0:0:
290,285,237259,1,8,2:2:0:0:
295,303,237334,1,8,2:2:0:0:
298,321,237409,5,8,2:3:0:0:
266,316,237484,1,8,2:3:0:0:
234,315,237559,1,8,2:3:0:0:
202,318,237634,1,8,2:3:0:0:
172,329,237709,1,8,2:3:0:0:
144,344,237784,1,8,2:3:0:0:
120,365,237859,1,12,2:2:0:0:
29,143,238759,6,0,L|66:150,6,31.6666666666667,8|0|0|0|0|0|0,0:0|0:0|0:0|0:0|0:0|0:0|0:0,0:0:0:0:
290,323,239659,1,0,0:0:0:0:
167,220,240109,5,0,0:0:0:0:
181,217,240184,1,0,0:0:0:0:
195,214,240259,1,0,0:0:0:0:
209,211,240334,1,0,0:0:0:0:
223,208,240409,1,0,0:0:0:0:
237,205,240484,1,0,0:0:0:0:
251,202,240559,2,0,P|337:215|374:231,2,126.666666666667,8|0|0,0:0|0:0|0:0,0:0:0:0:
402,350,241459,6,0,P|458:317|415:115,1,285,4|0,0:0|0:0,0:0:0:0:
280,19,242359,1,8,0:0:0:0:
271,32,242434,1,0,0:0:0:0:
263,45,242509,1,0,0:0:0:0:
256,59,242584,1,0,0:0:0:0:
251,74,242659,1,0,0:0:0:0:
246,89,242734,1,0,0:0:0:0:
242,104,242809,1,0,0:0:0:0:
179,240,243259,6,0,B|116:208|107:150|107:150|84:183|35:192,1,190,0|0,0:0|0:0,0:0:0:0:
128,344,243934,1,0,0:0:0:0:
141,351,244009,1,0,0:0:0:0:
155,356,244084,1,0,0:0:0:0:
170,358,244159,2,0,P|207:353|248:333,2,63.3333333333333,8|2|2,0:0|0:0|0:0,0:0:0:0:
179,240,244609,2,0,L|325:258,1,126.666666666667,0|0,0:0|0:0,0:0:0:0:
416,301,245059,6,0,B|451:152|318:183|354:34,1,285,4|0,0:0|0:0,0:0:0:0:
151,104,245959,1,8,0:0:0:0:
165,109,246034,1,0,0:0:0:0:
179,114,246109,1,0,0:0:0:0:
193,119,246184,1,0,0:0:0:0:
207,124,246259,1,0,0:0:0:0:
221,129,246334,1,0,0:0:0:0:
235,135,246409,1,0,0:0:0:0:
47,195,246859,5,0,0:0:0:0:
317,254,247309,1,0,0:0:0:0:
301,251,247384,1,0,0:0:0:0:
285,251,247459,1,0,0:0:0:0:
269,254,247534,1,0,0:0:0:0:
254,259,247609,1,0,0:0:0:0:
240,267,247684,1,0,0:0:0:0:
228,277,247759,2,0,B|179:273|179:273|148:260|148:260|102:258,2,126.666666666667,8|0|0,0:0|0:0|0:0,0:0:0:0:
75,115,248659,6,0,B|142:113|200:174|200:174|225:108|305:87,1,285,4|0,0:0|0:0,0:0:0:0:
439,184,249559,1,8,0:0:0:0:
437,199,249634,1,0,0:0:0:0:
435,214,249709,1,0,0:0:0:0:
433,229,249784,1,0,0:0:0:0:
431,244,249859,1,0,0:0:0:0:
429,259,249934,1,0,0:0:0:0:
427,274,250009,1,0,0:0:0:0:
251,53,250459,6,0,P|297:98|332:164,2,126.666666666667,0|0|0,0:0|0:0|0:0,0:0:0:0:
102,187,251359,1,8,0:0:0:0:
117,187,251434,1,0,0:0:0:0:
132,186,251509,1,0,0:0:0:0:
147,183,251584,1,0,0:0:0:0:
162,179,251659,1,0,0:0:0:0:
177,174,251734,1,0,0:0:0:0:
191,168,251809,1,0,0:0:0:0:
469,270,252259,6,0,B|374:259|374:259|312:300|312:300|191:285,1,285,4|0,0:0|0:0,0:0:0:0:
270,82,253159,1,8,0:0:0:0:
273,97,253234,1,0,0:0:0:0:
276,112,253309,1,0,0:0:0:0:
279,127,253384,1,0,0:0:0:0:
282,142,253459,1,0,0:0:0:0:
285,157,253534,1,0,0:0:0:0:
288,172,253609,1,0,0:0:0:0:
391,38,254059,5,0,0:0:0:0:
173,271,254509,1,0,0:0:0:0:
176,256,254584,1,0,0:0:0:0:
179,241,254659,1,0,0:0:0:0:
182,226,254734,1,0,0:0:0:0:
185,211,254809,1,0,0:0:0:0:
188,196,254884,1,0,0:0:0:0:
191,181,254959,2,0,B|137:149|137:149|65:151,2,126.666666666667,8|0|0,0:0|0:0|0:0,0:0:0:0:
261,27,255859,6,0,B|339:80|337:178|337:178|350:119|406:92,1,285,4|0,0:0|0:0,0:0:0:0:
470,212,256759,1,8,0:0:0:0:
468,227,256834,1,0,0:0:0:0:
466,242,256909,1,0,0:0:0:0:
464,257,256984,1,0,0:0:0:0:
462,272,257059,1,0,0:0:0:0:
460,287,257134,1,0,0:0:0:0:
458,302,257209,1,0,0:0:0:0:
199,323,257659,6,0,P|193:252|295:283,1,190
401,130,258334,1,0,0:0:0:0:
387,138,258409,1,0,0:0:0:0:
371,143,258484,1,0,0:0:0:0:
355,145,258559,2,0,P|317:146|270:133,2,63.3333333333333,8|2|2,0:0|0:0|0:0,0:0:0:0:
338,43,259009,2,0,L|199:56,1,126.666666666667,0|0,0:0|0:0,0:0:0:0:
90,22,259459,6,0,B|54:168|187:137|152:286,1,285,4|0,0:0|0:0,0:0:0:0:
277,189,260359,1,8,0:0:0:0:
289,179,260434,1,0,0:0:0:0:
301,169,260509,1,0,0:0:0:0:
314,161,260584,1,0,0:0:0:0:
328,154,260659,1,0,0:0:0:0:
342,147,260734,1,0,0:0:0:0:
356,141,260809,1,0,0:0:0:0:
41,241,261259,5,0,0:0:0:0:
93,30,261709,1,0,0:0:0:0:
104,40,261784,1,0,0:0:0:0:
114,51,261859,1,0,0:0:0:0:
123,63,261934,1,0,0:0:0:0:
131,76,262009,1,0,0:0:0:0:
138,89,262084,1,0,0:0:0:0:
144,103,262159,2,0,P|189:53|255:15,2,126.666666666667,8|0|0,0:0|0:0|0:0,0:0:0:0:
36,277,263059,6,0,P|93:203|252:259,1,285,4|0,0:0|0:0,0:0:0:0:
426,334,263959,1,8,0:0:0:0:
420,319,264034,1,0,0:0:0:0:
415,303,264109,1,0,0:0:0:0:
411,287,264184,1,0,0:0:0:0:
408,271,264259,1,0,0:0:0:0:
406,255,264334,1,0,0:0:0:0:
405,239,264409,1,0,0:0:0:0:
376,39,264859,6,0,B|301:84|259:167|259:167|237:114|188:83,1,285,4|0,0:0|0:0,0:0:0:0:
31,175,265759,1,8,0:0:0:0:
40,187,265834,1,0,0:0:0:0:
48,200,265909,1,0,0:0:0:0:
56,213,265984,1,0,0:0:0:0:
63,226,266059,1,0,0:0:0:0:
70,240,266134,1,0,0:0:0:0:
76,254,266209,1,0,0:0:0:0:
222,72,266659,6,0,P|276:38|345:25,2,126.666666666667,14|2|0,0:0|0:0|0:0,0:0:0:0:
505,214,267559,2,0,P|451:180|382:167,2,126.666666666667,10|2|0,0:0|0:0|0:0,0:0:0:0:
235,261,268459,5,8,0:0:0:0:
235,261,269359,1,8,0:0:0:0:
80,113,270259,6,0,P|64:208|37:256,2,126.666666666667,14|2|0,0:0|0:0|0:0,0:0:0:0:
156,318,271159,1,10,0:0:0:0:
237,108,271459,1,2,0:0:0:0:
298,248,271759,1,0,0:0:0:0:
29,154,272059,6,0,B|98:139|98:139|144:193|144:193|167:125|167:125|236:107,1,285,14|0,0:0|0:0,0:0:0:0:
505,294,272959,2,0,B|436:276|436:276|413:208|413:208|367:262|367:262|284:245,1,285,10|0,0:0|0:0,0:0:0:0:
350,102,273859,6,0,P|418:82|471:97,2,126.666666666667,14|2|0,0:0|0:0|0:0,0:0:0:0:
190,194,274759,1,10,0:0:0:0:
419,235,275059,1,2,0:0:0:0:
119,312,275359,1,0,0:0:0:0:
72,66,275659,5,8,0:0:0:0:
72,66,276559,1,8,0:0:0:0:
241,82,277009,2,0,L|214:213,1,126.666666666667
157,313,277459,6,12,P|231:281|300:286,2,126.666666666667,14|2|0,0:0|0:0|0:0,0:0:0:0:
482,245,278359,2,0,P|408:213|339:218,2,126.666666666667,10|2|0,0:0|0:0|0:0,0:0:0:0:
49,199,279259,6,0,P|89:206|218:130,1,190,14|0,0:0|0:0,0:0:0:0:
342,21,279934,1,0,0:0:0:0:
341,36,280009,1,0,0:0:0:0:
341,51,280084,1,0,0:0:0:0:
342,66,280159,1,8,0:0:0:0:
103,82,280609,1,8,0:0:0:0:
444,235,281059,5,14,0:0:0:0:
184,278,281359,1,10,0:0:0:0:
491,322,281659,1,8,0:0:0:0:
101,218,281959,1,14,0:0:0:0:
490,152,282259,1,10,0:0:0:0:
32,289,282559,1,8,0:0:0:0:
396,364,282859,6,0,L|253:328,2,126.666666666667,14|10|8,0:0|0:0|0:0,0:0:0:0:
156,164,283759,1,8,0:0:0:0:
156,164,284209,2,0,P|232:151|286:126,1,126.666666666667
396,199,284659,6,0,L|375:330,2,126.666666666667,14|10|8,0:0|0:0|0:0,0:0:0:0:
248,304,285559,1,10,0:0:0:0:
499,236,285859,1,10,0:0:0:0:
321,49,286159,1,8,0:0:0:0:
177,266,286459,6,0,P|263:254|311:232,2,126.666666666667,14|10|8,0:0|0:0|0:0,0:0:0:0:
35,105,287359,2,0,B|64:173|64:173|38:287,1,190,10|0,0:0|0:0,0:0:0:0:
478,67,288259,5,14,0:0:0:0:
268,117,288559,1,10,0:0:0:0:
396,157,288859,1,8,0:0:0:0:
133,68,289159,1,14,0:0:0:0:
208,227,289459,1,10,0:0:0:0:
311,28,289759,1,8,0:0:0:0:
84,186,290059,5,14,0:0:0:0:
327,266,290359,1,10,0:0:0:0:
173,337,290659,1,8,0:0:0:0:
251,121,290959,1,8,0:0:0:0:
466,216,291409,2,0,L|448:350,1,126.666666666667
330,367,291859,6,0,P|304:316|306:231,2,126.666666666667,14|10|8,0:0|0:0|0:0,0:0:0:0:
207,77,292759,2,0,B|211:142|211:142|167:216,2,126.666666666667,14|10|8,0:0|0:0|0:0,0:0:0:0:
71,112,293659,1,14,0:0:0:0:
362,142,293959,1,10,0:0:0:0:
27,247,294259,1,8,0:0:0:0:
461,76,294559,5,12,0:0:0:0:
15,50,295009,5,12,0:0:0:0:
224,259,295459,5,12,0:0:0:0:
256,192,295534,12,0,306259,0:0:0:0:
