osu file format v14

[General]
AudioFilename: audio.mp3
AudioLeadIn: 0
PreviewTime: 48317
Countdown: 0
SampleSet: Normal
StackLeniency: 0.6
Mode: 0
LetterboxInBreaks: 0
WidescreenStoryboard: 0

[Editor]
Bookmarks: 20170,31464,35346,36581,45581,82287,93581
DistanceSpacing: 1.7
BeatDivisor: 8
GridSize: 4
TimelineZoom: 1.9

[Metadata]
Title:To Adventures
TitleUnicode:To Adventures
Artist:Dima Elmo
ArtistUnicode:Dima Elmo
Creator:xChorse
Version:Insane
Source:
Tags:edm techno dnb d&b drum and bass cut short ver time to wake up ep cheesecake cool c00l for
BeatmapID:1187922
BeatmapSetID:508968

[Difficulty]
HPDrainRate:5
CircleSize:4
OverallDifficulty:8
ApproachRate:9
SliderMultiplier:1.5
SliderTickRate:1

[Events]
//Background and Video events
0,0,"bg.jpg",0,0
//Break Periods
//Storyboard Layer 0 (Background)
//Storyboard Layer 1 (Fail)
//Storyboard Layer 2 (Pass)
//Storyboard Layer 3 (Foreground)
//Storyboard Sound Samples

[TimingPoints]
3229,352.941176470588,4,2,1,100,1,0
20170,-100,4,2,1,15,0,0
20523,-100,4,2,1,20,0,0
20876,-100,4,2,1,25,0,0
21228,-100,4,2,1,30,0,0
21581,-100,4,2,1,35,0,0
21934,-100,4,2,1,40,0,0
22287,-100,4,2,1,45,0,0
22640,-100,4,2,1,50,0,0
22993,-100,4,2,1,55,0,0
23346,-100,4,2,1,60,0,0
23699,-100,4,2,1,65,0,0
24052,-100,4,2,1,70,0,0
24405,-100,4,2,1,75,0,0
30934,-66.6666666666667,4,2,1,75,0,0
31464,-100,4,2,1,75,0,0
35346,-66.6666666666667,4,2,1,100,0,0
35699,-100,4,2,1,80,0,0
42228,-66.6666666666667,4,2,1,100,0,0
42758,-100,4,2,1,90,0,0
45581,-100,4,2,1,80,0,0
46640,-100,4,2,1,70,0,0
47346,-100,4,2,1,60,0,0
47523,-100,4,2,1,55,0,0
47699,-100,4,2,1,50,0,0
47876,-100,4,2,1,55,0,0
47964,-100,4,2,1,60,0,0
48052,-100,4,2,1,65,0,0
48140,-100,4,2,1,70,0,0
48228,-100,4,2,1,75,0,0
48317,-100,4,2,1,85,0,0
48405,-66.6666666666667,4,1,1,100,0,0
49111,-133.333333333333,4,1,1,100,0,0
49640,-66.6666666666667,4,1,1,100,0,0
49993,-100,4,1,1,100,0,0
51228,-66.6666666666667,4,1,1,100,0,0
51581,-100,4,1,1,100,0,0
51934,-133.333333333333,4,1,1,100,0,0
52464,-100,4,1,1,100,0,0
54052,-66.6666666666667,4,1,1,100,0,0
54405,-100,4,1,1,100,0,0
55287,-66.6666666666667,4,1,1,100,0,0
55993,-133.333333333333,4,1,1,100,0,0
56876,-66.6666666666667,4,1,1,100,0,0
57228,-100,4,1,1,100,0,0
58287,-66.6666666666667,4,1,1,100,0,0
59346,-100,4,1,1,100,0,0
59699,-66.6666666666667,4,1,1,100,0,0
60052,-100,4,1,1,100,0,0
60405,-66.6666666666667,4,1,1,100,0,0
60581,-80,4,1,1,100,0,0
60934,-66.6666666666667,4,1,1,100,0,0
62523,-66.6666666666667,4,1,1,100,0,0
62876,-100,4,1,1,100,0,0
63228,-133.333333333333,4,1,1,100,0,0
63758,-66.6666666666667,4,1,1,100,0,0
64111,-100,4,1,1,100,0,0
65346,-66.6666666666667,4,1,1,100,0,0
65699,-100,4,1,1,100,0,0
66052,-111.111111111111,4,1,1,100,0,0
66581,-66.6666666666667,4,1,1,100,0,0
67287,-133.333333333333,4,1,1,100,0,0
68170,-66.6666666666667,4,1,1,100,0,0
68523,-100,4,1,1,100,0,0
69581,-66.6666666666667,4,1,1,100,0,0
70640,-133.333333333333,4,1,1,90,0,0
70817,-100,4,1,1,80,0,0
70993,-166.666666666667,4,1,1,70,0,0
72405,-200,4,1,1,70,0,0
75581,-100,4,1,1,70,0,0
76640,-200,4,1,1,70,0,0
77699,-100,4,1,1,80,0,0
79464,-100,4,1,1,90,0,0
82287,-66.6666666666667,4,1,1,100,0,0
82640,-100,4,1,1,100,0,0
92346,-100,4,1,1,80,0,0
92434,-100,4,1,1,90,0,0
92523,-100,4,1,1,100,0,0
92876,-100,4,1,1,80,0,0
92964,-100,4,1,1,85,0,0
93052,-100,4,1,1,90,0,0
93140,-100,4,1,1,95,0,0
93581,-100,4,1,1,100,0,1
104170,-133.333333333333,4,1,1,100,0,1
104523,-100,4,1,1,100,0,1
114758,-200,4,1,1,75,0,1
115287,-200,4,1,1,85,0,1
115817,-200,4,1,1,95,0,1
116170,-100,4,1,1,60,0,0

[Colours]
Combo1 : 248,135,52
Combo2 : 196,49,49
Combo3 : 78,55,104
Combo4 : 37,50,71
Combo5 : 36,124,176

[HitObjects]
256,192,20170,12,8,24405,0:0:0:0:
163,178,25817,6,0,B|207:174|207:174|267:186|267:186|343:178,1,150,4|8,0:0|0:0,0:0:0:0:
434,145,26346,1,0,0:0:0:0:
433,183,26434,1,0,0:0:0:0:
432,220,26522,1,0,0:0:0:0:
430,258,26610,1,0,0:0:0:0:
430,295,26698,1,8,0:0:0:0:
345,335,26876,2,0,L|307:340,3,37.5
255,297,27228,6,0,L|217:291,3,37.5
308,253,27581,2,0,P|318:209|302:164,1,75,8|0,0:0|0:0,0:0:0:0:
235,99,27934,1,0,0:0:0:0:
311,180,28111,2,0,P|346:190|383:183,1,75,8|0,0:0|0:0,0:0:0:0:
396,71,28464,1,0,0:0:0:0:
235,99,28640,5,0,0:0:0:0:
199,109,28728,1,0,0:0:0:0:
162,105,28816,1,0,0:0:0:0:
130,86,28904,1,0,0:0:0:0:
108,56,28993,2,0,P|111:100|86:152,1,75,8|0,0:0|0:0,0:0:0:0:
53,230,29346,2,0,L|90:235,1,37.5
157,221,29523,2,0,L|231:210,1,75,8|0,0:0|0:0,0:0:0:0:
328,169,29876,6,0,P|349:139|356:102,1,75
266,104,30228,1,0,0:0:0:0:
354,75,30405,1,8,0:0:0:0:
204,37,30581,2,0,P|182:67|176:104,1,75
244,208,30934,1,10,0:0:0:0:
266,104,31111,1,2,0:0:0:0:
136,232,31287,1,2,0:0:0:0:
350,185,31464,6,0,P|402:235|388:313,1,150,4|8,0:0|0:0,0:0:0:0:
288,351,31993,1,0,0:0:0:0:
251,351,32081,1,0,0:0:0:0:
213,349,32169,1,0,0:0:0:0:
176,348,32257,1,0,0:0:0:0:
138,347,32346,1,8,0:0:0:0:
60,264,32523,2,0,L|65:226,3,37.5
109,174,32875,6,0,L|103:136,3,37.5
175,192,33228,2,0,P|219:202|264:186,1,75,8|0,0:0|0:0,0:0:0:0:
323,112,33581,1,0,0:0:0:0:
261,222,33758,1,8,0:0:0:0:
213,117,33934,1,0,0:0:0:0:
261,222,34111,1,0,0:0:0:0:
213,117,34287,5,4,0:0:0:0:
178,102,34376,1,0,0:0:0:0:
141,101,34463,1,0,0:0:0:0:
106,114,34551,1,0,0:0:0:0:
78,139,34640,2,0,P|88:174|81:211,1,75,8|0,0:0|0:0,0:0:0:0:
44,317,34993,1,0,0:0:0:0:
146,269,35170,1,8,0:0:0:0:
299,324,35346,6,0,B|335:337|379:327|379:327|310:366,1,112.500004291535,6|0,0:0|0:0,0:0:0:0:
214,354,35699,5,0,0:0:0:0:
261,222,35876,1,0,0:0:0:0:
184,367,36052,1,8,0:0:0:0:
299,324,36228,2,0,P|336:319|372:327,1,75
486,353,36581,1,8,0:0:0:0:
487,251,36758,1,0,0:0:0:0:
456,366,36934,1,0,0:0:0:0:
477,214,37111,6,0,B|490:119|490:119|470:143|438:149,1,150,6|8,0:3|0:0,0:0:0:0:
333,162,37640,1,0,0:0:0:0:
296,162,37728,1,0,0:0:0:0:
258,160,37816,1,0,0:0:0:0:
221,159,37904,1,0,0:0:0:0:
183,158,37992,1,8,0:0:0:0:
82,210,38170,2,0,P|79:238|86:280,3,37.5
107,311,38523,6,0,P|110:339|103:381,3,37.5
178,358,38876,2,0,L|252:347,1,75,8|0,0:0|0:0,0:0:0:0:
324,251,39228,1,0,0:0:0:0:
205,237,39405,1,8,0:0:0:0:
252,346,39581,1,0,0:0:0:0:
324,251,39758,1,0,0:0:0:0:
254,139,39934,5,0,0:0:0:0:
219,125,40022,1,0,0:0:0:0:
182,124,40110,1,0,0:0:0:0:
147,137,40198,1,0,0:0:0:0:
119,161,40287,2,0,P|129:117|113:72,1,75,8|0,0:0|0:0,0:0:0:0:
13,118,40640,2,0,L|50:123,1,37.5
122,88,40817,2,0,L|196:77,1,75,8|0,0:0|0:0,0:0:0:0:
202,188,41170,6,0,P|195:224|173:254,1,75
112,190,41522,1,0,0:0:0:0:
151,275,41699,1,8,0:0:0:0:
22,189,41875,2,0,P|28:152|50:122,1,75
158,82,42228,1,10,0:0:0:0:
285,84,42405,1,2,0:0:0:0:
112,190,42581,1,2,0:0:0:0:
285,84,42758,6,0,P|350:117|349:197,1,150,0|8,0:0|0:0,0:0:0:0:
264,255,43287,2,0,B|222:274|185:255|185:255|142:231|88:261,1,150,0|8,0:0|0:0,0:0:0:0:
225,180,43817,2,0,P|237:119|227:88,1,75
39,217,44170,6,0,P|52:299|129:331,1,150,0|8,0:0|0:0,0:0:0:0:
209,287,44699,1,0,0:0:0:0:
119,247,44876,1,0,0:0:0:0:
181,359,45052,2,0,P|222:363|258:347,1,75,8|0,0:0|0:0,0:0:0:0:
119,247,45581,6,0,L|114:162,1,75,8|0,0:0|0:0,0:0:0:0:
225,180,45934,1,8,0:0:0:0:
225,180,46111,2,0,P|264:189|307:178,1,75,8|0,0:0|0:0,0:0:0:0:
373,99,46464,1,8,0:0:0:0:
268,93,46640,1,8,0:0:0:0:
268,93,46728,1,8,0:0:0:0:
268,93,46817,1,8,0:0:0:0:
214,191,46993,6,0,L|218:265,1,75,8|0,0:0|0:0,0:0:0:0:
329,286,47346,1,8,0:0:0:0:
197,282,47523,2,0,P|185:334|201:374,1,75,8|0,0:0|0:0,0:0:0:0:
329,286,47876,1,8,0:0:0:0:
329,286,47964,1,8,0:0:0:0:
329,286,48052,2,8,L|331:248,1,37.5
375,136,48228,2,8,L|372:98,1,37.5
256,155,48405,6,0,P|219:161|146:110,1,112.500004291535,6|0,0:3|0:0,0:0:0:0:
84,38,48758,2,0,L|80:150,1,112.500004291535,8|0,0:0|0:0,0:0:0:0:
157,234,49111,1,0,0:0:0:0:
225,76,49287,1,4,0:0:0:0:
157,234,49464,1,8,0:0:0:0:
245,66,49640,6,0,B|305:62|305:62|381:74,1,112.500004291535,6|0,0:0|0:0,0:0:0:0:
447,137,49993,5,4,0:0:0:0:
459,24,50170,1,8,0:0:0:0:
362,159,50346,2,0,L|366:233,1,75
418,333,50699,1,4,0:0:0:0:
287,311,50876,1,8,0:0:0:0:
378,223,51052,1,4,0:0:0:0:
287,311,51228,6,0,P|229:311|177:245,1,112.500004291535,6|0,0:0|0:0,0:0:0:0:
85,148,51581,6,0,L|159:152,1,75,8|0,0:0|0:0,0:0:0:0:
260,231,51934,1,0,0:0:0:0:
255,146,52111,1,4,0:0:0:0:
188,277,52287,1,8,0:0:0:0:
255,146,52464,6,0,L|250:71,1,75,6|0,0:0|0:0,0:0:0:0:
144,33,52817,1,4,0:0:0:0:
277,96,52993,2,0,P|322:107|375:88,1,75,8|0,0:0|0:0,0:0:0:0:
454,60,53346,1,0,0:0:0:0:
451,97,53434,1,0,0:0:0:0:
448,134,53523,1,4,0:0:0:0:
445,172,53610,1,0,0:0:0:0:
442,209,53698,1,8,0:0:0:0:
361,288,53876,2,0,L|324:283,1,37.5
260,231,54052,6,0,L|148:247,1,112.500004291535,6|0,0:0|0:0,0:0:0:0:
337,203,54405,6,0,P|313:165|263:151,1,75,8|0,0:0|0:0,0:0:0:0:
71,274,54758,2,0,P|95:312|145:326,1,75,0|4,0:0|0:0,0:0:0:0:
260,231,55111,1,8,0:0:0:0:
86,192,55287,6,0,P|63:144|108:55,1,112.500004291535,6|0,0:0|0:0,0:0:0:0:
179,37,55640,1,4,0:0:0:0:
166,132,55817,1,8,0:0:0:0:
255,96,55993,1,0,0:0:0:0:
179,37,56170,1,0,0:0:0:0:
166,132,56346,1,4,0:0:0:0:
203,227,56523,2,0,L|277:231,1,56.2500021457673,8|4,0:0|0:0,0:0:0:0:
157,322,56876,6,0,L|44:328,1,112.500004291535,6|0,0:0|0:0,0:0:0:0:
86,192,57228,1,8,0:0:0:0:
236,304,57405,1,0,0:0:0:0:
216,166,57581,1,0,0:0:0:0:
140,347,57758,1,4,0:0:0:0:
335,323,57934,2,0,L|409:318,1,75,8|0,0:0|0:0,0:0:0:0:
345,218,58287,6,0,P|310:152|393:192,1,225.000008583069,6|8,0:0|0:0,0:0:0:0:
257,245,58817,2,0,P|241:127|355:53,1,225.000008583069,6|8,0:0|0:0,0:0:0:0:
404,71,59346,2,0,L|398:130,1,37.5,4|0,0:0|0:0,0:0:0:0:
447,199,59523,2,0,L|441:258,1,37.5
318,172,59699,6,0,L|311:59,1,112.500004291535,6|0,0:3|0:0,0:0:0:0:
211,109,60052,6,0,P|166:118|112:89,1,75,8|0,0:0|0:0,0:0:0:0:
45,47,60405,1,0,0:0:0:0:
136,27,60581,1,4,0:0:0:0:
21,155,60758,1,8,0:0:0:0:
233,97,60934,6,0,B|310:79|310:79|289:105,1,112.500004291535,6|0,0:0|0:0,0:0:0:0:
220,217,61287,5,4,0:0:0:0:
138,110,61464,1,8,0:0:0:0:
295,179,61640,2,0,P|302:242|256:293,1,112.500004291535
163,285,61993,1,4,0:0:0:0:
220,217,62170,1,8,0:0:0:0:
133,202,62346,1,4,0:0:0:0:
276,280,62523,6,0,B|353:298|353:298|329:266,1,112.500004291535,6|0,0:0|0:0,0:0:0:0:
430,262,62876,6,0,P|438:298|430:334,1,75,8|0,0:0|0:0,0:0:0:0:
353,298,63228,1,0,0:0:0:0:
361,214,63405,1,4,0:0:0:0:
430,262,63581,1,8,0:0:0:0:
276,280,63758,6,0,L|163:286,1,112.500004291535,6|0,0:0|0:0,0:0:0:0:
62,336,64111,5,4,0:0:0:0:
174,269,64287,2,0,P|182:221|161:177,1,75,8|0,0:0|0:0,0:0:0:0:
127,94,64640,1,0,0:0:0:0:
164,97,64728,1,0,0:0:0:0:
201,100,64817,1,4,0:0:0:0:
239,103,64904,1,0,0:0:0:0:
276,106,64993,1,8,0:0:0:0:
361,214,65170,2,0,L|398:219,1,37.5
276,280,65346,6,0,L|163:286,1,112.500004291535,6|0,0:0|0:0,0:0:0:0:
260,176,65699,6,0,P|276:143|276:106,1,75,8|0,0:0|0:0,0:0:0:0:
127,94,66052,1,0,0:0:0:0:
174,196,66228,1,4,0:0:0:0:
210,27,66405,1,8,0:0:0:0:
52,217,66581,6,0,P|29:265|74:354,1,112.500004291535,6|0,0:0|0:0,0:0:0:0:
145,372,66934,1,4,0:0:0:0:
132,277,67111,1,8,0:0:0:0:
221,313,67287,1,0,0:0:0:0:
145,372,67464,1,0,0:0:0:0:
132,277,67640,1,4,0:0:0:0:
174,196,67817,2,0,L|248:200,1,56.2500021457673,8|4,0:0|0:0,0:0:0:0:
333,307,68170,6,0,L|220:313,1,112.500004291535,6|0,0:0|0:0,0:0:0:0:
321,201,68523,1,8,0:0:0:0:
336,167,68611,1,0,0:0:0:0:
340,130,68699,1,0,0:0:0:0:
332,93,68787,1,0,0:0:0:0:
313,62,68876,2,0,P|368:72|409:50,1,75,0|4,0:0|0:0,0:0:0:0:
491,32,69228,2,0,L|480:131,1,75,8|0,0:0|0:0,0:0:0:0:
376,230,69581,6,0,B|364:283|296:305|296:305|289:231|321:201,1,225.000008583069,6|8,0:0|0:0,0:0:0:0:
465,215,70111,2,0,P|433:302|376:230,1,225.000008583069,6|8,0:0|0:0,0:0:0:0:
403,148,70641,1,2,0:0:0:0:
417,123,70728,1,0,0:0:0:0:
423,96,70817,1,2,0:0:0:0:
419,68,70904,1,0,0:0:0:0:
407,43,70993,6,0,B|361:57|323:42|323:42|282:54|282:54|214:11|142:57,1,269.999991760254,6|4,0:3|0:0,0:0:0:0:
57,173,72405,6,0,B|50:214|50:214|61:256|61:256|58:291,2,112.5,8|4|4,0:0|0:0|0:0,0:0:0:0:
134,301,73817,6,0,B|186:326|236:284|236:284|281:332|353:300,1,225,6|0,0:3|0:0,0:0:0:0:
424,228,75228,5,8,0:0:0:0:
432,211,75316,1,0,0:0:0:0:
436,193,75404,1,0,0:0:0:0:
436,174,75492,1,0,0:0:0:0:
431,156,75581,2,0,P|429:128|437:88,1,37.5
456,73,75758,2,0,P|394:91|318:42,1,150,4|0,0:0|0:0,0:0:0:0:
211,36,76287,2,0,P|188:34|157:39,1,37.5,2|0,0:0|0:0,0:0:0:0:
63,56,76464,2,0,P|82:58|101:57,1,37.5,2|0,0:0|0:0,0:0:0:0:
157,108,76640,6,0,B|183:140|230:167|230:167|174:166|129:195,1,187.5,6|0,0:3|0:0,0:0:0:0:
81,235,77699,6,0,B|77:262|77:262|78:311,2,50,4|0|0,0:0|0:0|0:0,0:0:0:0:
151,263,78052,6,0,P|213:240|318:267,1,150,8|0,0:0|0:0,0:0:0:0:
355,296,78581,2,0,P|395:329|397:250,1,150,4|0,0:0|0:0,0:0:0:0:
379,197,79111,2,0,P|373:145|392:99,1,75,4|0,0:0|0:0,0:0:0:0:
457,42,79464,5,4,0:0:0:0:
457,42,79640,1,0,0:0:0:0:
355,137,79817,2,0,P|307:144|272:132,1,75,8|0,0:0|0:0,0:0:0:0:
207,52,80170,1,0,0:0:0:0:
282,137,80346,1,4,0:0:0:0:
188,46,80523,2,0,L|114:41,1,75,8|0,0:0|0:0,0:0:0:0:
173,136,80876,2,0,P|182:177|162:229,1,75,4|0,0:0|0:0,0:0:0:0:
119,306,81228,6,0,B|160:313|160:313|218:305,1,75,8|0,0:0|0:0,0:0:0:0:
247,292,81493,2,0,B|280:287|280:287|321:294,1,75,8|8,0:0|0:0,0:0:0:0:
377,289,81758,2,0,L|372:252,1,37.5,4|4,0:0|0:0,0:0:0:0:
397,207,81934,2,0,L|403:102,1,75,8|4,0:0|0:0,0:0:0:0:
320,53,82287,6,0,P|260:65|188:37,1,112.500004291535,6|0,0:3|0:0,0:0:0:0:
103,17,82640,1,8,0:0:0:0:
31,104,82817,2,0,L|35:178,1,75
139,136,83170,1,4,0:0:0:0:
25,207,83346,2,0,P|16:248|36:300,1,75,8|0,0:0|0:0,0:0:0:0:
117,341,83699,1,0,0:0:0:0:
23,279,83876,5,4,0:0:0:0:
117,341,84052,2,0,L|191:336,1,75,8|0,0:0|0:0,0:0:0:0:
258,245,84405,1,0,0:0:0:0:
191,336,84581,1,4,0:0:0:0:
187,185,84758,1,8,0:0:0:0:
273,325,84934,1,4,0:0:0:0:
187,185,85111,6,0,P|179:148|188:112,1,75,4|0,0:0|0:0,0:0:0:0:
284,51,85464,1,8,0:0:0:0:
374,117,85640,2,0,L|369:191,1,75
265,145,85993,1,4,0:0:0:0:
378,220,86170,2,0,P|387:261|367:313,1,75,8|0,0:0|0:0,0:0:0:0:
273,325,86523,1,0,0:0:0:0:
379,292,86699,5,4,0:0:0:0:
253,343,86876,2,0,L|179:338,1,75,8|0,0:0|0:0,0:0:0:0:
99,252,87228,1,0,0:0:0:0:
208,225,87405,1,4,0:0:0:0:
103,328,87581,1,8,0:0:0:0:
119,178,87758,1,0,0:0:0:0:
119,178,87846,1,0,0:0:0:0:
119,178,87934,6,0,L|124:104,1,75,4|0,0:0|0:0,0:0:0:0:
226,54,88287,1,8,0:0:0:0:
320,116,88464,2,0,P|356:123|392:114,1,75
472,34,88817,1,4,0:0:0:0:
387,136,88993,2,0,L|392:210,1,75,8|0,0:0|0:0,0:0:0:0:
419,320,89346,1,0,0:0:0:0:
500,241,89523,5,4,0:0:0:0:
392,210,89699,2,0,L|318:215,1,75,8|0,0:0|0:0,0:0:0:0:
244,301,90052,1,0,0:0:0:0:
325,333,90228,1,4,0:0:0:0:
235,221,90405,1,8,0:0:0:0:
325,333,90581,1,4,0:0:0:0:
218,204,90758,6,0,L|144:209,1,75,4|0,0:0|0:0,0:0:0:0:
100,313,91111,1,8,0:0:0:0:
292,237,91287,2,0,P|298:192|286:161,1,75
213,80,91640,1,4,0:0:0:0:
310,25,91817,2,0,P|346:15|382:23,1,75,8|0,0:0|0:0,0:0:0:0:
469,95,92170,5,4,0:0:0:0:
347,110,92346,2,0,L|348:92,4,18.75,8|0|8|0|8,0:0|0:0|0:0|0:0|0:0,0:0:0:0:
316,214,92699,1,4,0:0:0:0:
437,203,92876,1,2,0:0:0:0:
437,203,92964,1,2,0:0:0:0:
437,203,93052,1,2,0:0:0:0:
437,203,93140,1,2,0:0:0:0:
437,203,93228,1,0,0:0:0:0:
475,287,93581,6,0,P|438:296|387:280,1,75,6|0,2:3|2:1,2:1:0:0:
316,214,93934,1,8,2:1:0:0:
401,313,94111,1,0,2:1:0:0:
285,203,94287,2,0,L|211:208,1,75,0|4,2:1|2:1,2:1:0:0:
125,282,94640,1,8,2:1:0:0:
235,306,94817,1,0,2:1:0:0:
285,203,94993,6,0,P|292:166|283:130,1,75,4|0,2:1|2:1,2:1:0:0:
184,75,95346,1,8,2:1:0:0:
283,130,95523,1,4,2:1:0:0:
353,42,95699,1,0,2:1:0:0:
283,130,95876,1,4,2:1:0:0:
157,64,96052,2,0,L|83:69,1,75,8|0,2:1|2:1,2:1:0:0:
15,170,96405,5,4,2:1:0:0:
66,65,96581,1,0,2:1:0:0:
208,169,96758,1,8,2:1:0:0:
157,64,96934,1,0,2:1:0:0:
208,169,97111,2,0,L|213:243,1,75,0|4,2:1|2:1,2:1:0:0:
324,268,97464,1,8,2:1:0:0:
214,244,97640,1,0,2:1:0:0:
249,352,97817,5,4,2:1:0:0:
283,192,97993,1,0,2:1:0:0:
249,352,98170,2,0,P|212:360|176:353,1,75,8|0,2:1|2:1,2:1:0:0:
91,292,98523,1,0,2:1:0:0:
81,256,98611,1,0,2:1:0:0:
85,219,98699,1,4,2:1:0:0:
104,187,98787,1,0,2:1:0:0:
134,164,98876,2,0,L|208:169,1,75,8|0,2:1|2:1,2:1:0:0:
302,230,99228,5,6,2:3:0:0:
307,117,99405,1,0,2:1:0:0:
374,250,99581,1,8,2:1:0:0:
431,152,99758,1,0,2:1:0:0:
367,267,99934,2,0,L|362:341,1,75,0|4,2:1|2:1,2:1:0:0:
260,292,100287,2,0,P|223:285|187:293,1,75,8|0,2:1|2:1,2:1:0:0:
86,344,100640,5,4,2:1:0:0:
52,236,100817,1,0,2:1:0:0:
187,292,100993,1,8,2:1:0:0:
153,184,101170,1,4,2:1:0:0:
161,363,101346,1,0,2:1:0:0:
80,170,101523,1,4,2:1:0:0:
265,217,101699,2,0,L|260:291,1,75,8|0,2:1|2:1,2:1:0:0:
368,324,102052,6,0,P|404:330|440:322,1,75,4|0,2:1|2:1,2:1:0:0:
490,221,102405,1,8,2:1:0:0:
473,109,102581,2,0,L|468:35,1,75,0|0,2:1|2:1,2:1:0:0:
365,82,102934,1,4,2:1:0:0:
264,30,103111,2,0,P|227:23|191:31,1,75,8|0,2:1|2:1,2:1:0:0:
91,85,103464,5,0,2:1:0:0:
182,147,103640,1,4,2:1:0:0:
191,30,103817,1,8,2:1:0:0:
68,61,103993,1,0,2:1:0:0:
31,180,104170,6,0,B|28:213|28:213|30:256,2,56.2500021457673,4|0|8,2:1|2:1|2:1,2:1:0:0:
116,253,104699,1,0,2:1:0:0:
116,253,104787,1,0,2:1:0:0:
116,253,104876,6,0,P|152:259|188:251,1,75,6|0,2:3|2:1,2:1:0:0:
285,189,105228,1,8,2:1:0:0:
270,54,105405,1,0,2:1:0:0:
357,218,105581,1,0,2:1:0:0:
447,97,105758,1,4,2:1:0:0:
357,218,105934,2,0,P|349:254|355:290,1,75,8|0,2:1|2:1,2:1:0:0:
499,336,106287,5,4,2:1:0:0:
355,290,106464,1,4,2:1:0:0:
487,221,106640,1,8,2:1:0:0:
339,315,106817,2,0,L|265:310,1,75,4|0,2:1|2:1,2:1:0:0:
203,208,107170,1,4,2:1:0:0:
271,347,107346,1,8,2:1:0:0:
357,218,107523,1,4,2:1:0:0:
271,347,107699,6,0,L|197:342,1,75,4|0,2:1|2:1,2:1:0:0:
96,348,108052,1,8,2:1:0:0:
203,208,108228,1,0,2:1:0:0:
184,356,108405,1,0,2:1:0:0:
65,266,108581,1,4,2:1:0:0:
203,208,108758,2,0,L|277:203,1,75,8|0,2:1|2:1,2:1:0:0:
271,347,109111,5,4,2:1:0:0:
357,218,109287,1,4,2:1:0:0:
382,211,109376,1,0,2:1:0:0:
407,204,109464,1,8,2:1:0:0:
364,312,109640,1,0,2:1:0:0:
260,184,109817,2,0,P|253:147|261:111,1,75,0|4,2:1|2:1,2:1:0:0:
419,35,110170,1,8,2:1:0:0:
396,144,110346,1,0,2:1:0:0:
396,144,110434,1,0,2:1:0:0:
396,144,110523,5,6,2:3:0:0:
260,111,110699,1,0,2:1:0:0:
396,144,110876,2,0,L|470:139,1,75,8|0,2:1|2:1,2:1:0:0:
357,218,111228,2,0,L|283:213,1,75,0|4,2:1|2:1,2:1:0:0:
165,287,111581,1,8,2:1:0:0:
320,292,111758,1,0,2:1:0:0:
203,208,111934,6,0,P|196:171|204:135,1,75,4|0,2:1|2:1,2:1:0:0:
288,40,112287,1,8,2:1:0:0:
182,148,112464,2,0,P|145:154|109:146,1,75,4|0,2:1|2:1,2:1:0:0:
33,63,112817,1,4,2:1:0:0:
109,171,112993,2,0,L|104:245,1,75,8|4,2:1|2:1,2:1:0:0:
175,333,113346,6,0,P|211:340|247:334,1,75,4|0,2:1|2:1,2:1:0:0:
320,292,113699,2,0,P|356:284|392:290,1,75,8|0,2:1|2:1,2:1:0:0:
469,321,114052,1,0,2:1:0:0:
469,321,114228,1,4,2:1:0:0:
492,241,114405,2,0,L|487:167,1,75,8|0,2:1|2:1,2:1:0:0:
366,193,114758,6,0,P|308:186|273:139,2,112.5,4|4|4,2:1|2:1|2:1,2:1:0:0:
347,119,116170,5,6,2:3:0:0:
