osu file format v14

[General]
AudioFilename: audio.mp3
AudioLeadIn: 0
PreviewTime: 48317
Countdown: 0
SampleSet: Normal
StackLeniency: 0.7
Mode: 0
LetterboxInBreaks: 0
WidescreenStoryboard: 0

[Editor]
Bookmarks: 20170,116170
DistanceSpacing: 1
BeatDivisor: 4
GridSize: 4
TimelineZoom: 1.9

[Metadata]
Title:To Adventures
TitleUnicode:To Adventures
Artist:Dima Elmo
ArtistUnicode:Dima Elmo
Creator:xChorse
Version:Cheesecake's Easy
Source:
Tags:edm techno dnb d&b drum and bass cut short ver time to wake up ep cheesecake cool c00l for
BeatmapID:1187920
BeatmapSetID:508968

[Difficulty]
HPDrainRate:3
CircleSize:2.5
OverallDifficulty:2
ApproachRate:3
SliderMultiplier:0.9
SliderTickRate:1

[Events]
//Background and Video events
0,0,"bg.jpg",0,0
//Break Periods
//Storyboard Layer 0 (Background)
//Storyboard Layer 1 (Fail)
//Storyboard Layer 2 (Pass)
//Storyboard Layer 3 (Foreground)
//Storyboard Sound Samples

[TimingPoints]
3229,352.941176470588,4,2,1,100,1,0
20170,-100,4,2,1,15,0,0
20523,-100,4,2,1,20,0,0
20876,-100,4,2,1,25,0,0
21228,-100,4,2,1,30,0,0
21581,-100,4,2,1,35,0,0
21934,-100,4,2,1,40,0,0
22287,-100,4,2,1,45,0,0
22640,-100,4,2,1,50,0,0
22993,-100,4,2,1,55,0,0
23346,-100,4,2,1,60,0,0
23699,-100,4,2,1,65,0,0
24052,-100,4,2,1,70,0,0
24405,-100,4,2,1,75,0,0
35346,-100,4,2,1,100,0,0
35699,-100,4,2,1,80,0,0
42228,-100,4,2,1,100,0,0
42758,-100,4,2,1,90,0,0
45581,-100,4,2,1,80,0,0
46640,-100,4,2,1,70,0,0
47523,-100,4,2,1,55,0,0
48052,-100,4,2,1,65,0,0
48405,-100,4,1,1,100,0,0
70640,-100,4,1,1,90,0,0
70993,-100,4,1,1,70,0,0
77699,-100,4,1,1,80,0,0
79464,-100,4,1,1,90,0,0
82287,-100,4,1,1,100,0,0
92876,-100,4,1,1,80,0,0
93581,-100,4,1,1,100,0,1
114758,-100,4,1,1,75,0,1
115287,-100,4,1,1,85,0,1
115817,-100,4,1,1,95,0,1
116170,-100,4,1,1,60,0,0

[Colours]
Combo1 : 248,135,52
Combo2 : 196,49,49
Combo3 : 78,55,104
Combo4 : 37,50,71
Combo5 : 36,124,176

[HitObjects]
256,192,20170,12,8,24405,0:0:0:0:
327,95,25817,5,4,0:0:0:0:
362,177,26170,2,0,B|368:212|362:245|362:245|356:278|362:321,2,135,8|8|0,0:0|0:0|0:0,0:0:0:0:
448,151,27581,2,0,B|468:106|468:64|468:64|497:60|524:70,2,135,8|8|0,0:0|0:0|0:0,0:0:0:0:
362,177,28993,2,0,B|330:188|299:185|273:178|273:178|244:184|221:182,2,135,8|8|0,0:0|0:0|0:0,0:0:0:0:
380,265,30405,2,0,B|410:282|430:310|430:310|449:282|478:264,1,135,8|10,0:0|0:0,0:0:0:0:
466,129,31464,5,4,0:0:0:0:
397,70,31817,2,0,B|309:65|335:87|252:80,2,135,8|8|0,0:0|0:0|0:0,0:0:0:0:
381,158,33228,2,0,B|351:158|328:167|328:167|337:202|325:257,1,135,8|8,0:0|0:0,0:0:0:0:
225,340,34287,1,4,0:0:0:0:
186,258,34640,2,0,B|97:242|109:278|97:242|85:278|97:242|8:258,1,180,8|6,0:0|0:0,0:0:0:0:
48,83,36052,2,0,B|91:72|91:72|113:77|135:85|135:85|182:77,1,135,8|8,0:0|0:0,0:0:0:0:
314,72,37111,5,6,0:3:0:0:
355,151,37464,2,0,B|354:190|360:241|360:241|335:256|302:256,2,135,8|8|0,0:0|0:0|0:0,0:0:0:0:
314,72,38876,2,0,B|362:62|397:38|397:38|422:50|438:55,2,135,8|8|0,0:0|0:0|0:0,0:0:0:0:
265,148,40287,2,0,B|247:167|237:184|237:184|203:151|180:92,2,135,8|8|0,0:0|0:0|0:0,0:0:0:0:
355,151,41699,2,0,B|366:228|344:205|355:287,1,135,8|10,0:0|0:0,0:0:0:0:
485,249,42758,6,0,B|495:206|495:206|485:161|485:161|492:138|494:118,2,135
465,337,44170,2,0,B|442:330|424:318|424:318|403:337|362:348|334:333,2,135
485,249,45581,2,0,P|429:225|363:251,1,135,8|8,0:0|0:0,0:0:0:0:
239,307,46640,1,8,0:0:0:0:
221,218,46993,2,0,P|280:196|337:146,1,135,8|8,0:0|0:0,0:0:0:0:
255,40,48052,1,8,0:0:0:0:
164,39,48405,6,0,P|119:42|68:43,1,90,6|8,0:3|0:0,0:0:0:0:
66,132,49111,2,0,B|40:131|22:121|22:121|6:163|6:213,2,135,0|6|8,0:0|0:0|0:0,0:0:0:0:
157,132,50523,2,0,P|204:130|251:136,1,90,0|8,0:0|0:0,0:0:0:0:
335,123,51228,2,0,B|348:79|342:32,1,90,6|8,0:0|0:0,0:0:0:0:
432,37,51934,2,0,B|442:57|442:83|442:83|428:125|441:172,1,135,0|6,0:0|0:0,0:0:0:0:
369,285,52993,2,0,P|324:292|272:290,1,90,8|0,0:0|0:0,0:0:0:0:
201,248,53699,1,8,0:0:0:0:
115,219,54052,6,0,P|66:212|27:220,1,90,6|8,0:0|0:0,0:0:0:0:
27,129,54758,2,0,B|46:123|66:108|66:108|107:128|156:133,2,135,0|6|8,0:0|0:0|0:0,0:0:0:0:
26,219,56170,2,0,B|32:263|32:263|25:314,1,90,0|8,0:0|0:0,0:0:0:0:
109,342,56876,1,6,0:1:0:0:
181,288,57228,2,0,P|220:282|273:286,1,90,8|0,0:0|0:0,0:0:0:0:
355,315,57934,1,8,0:0:0:0:
429,263,58287,2,0,B|431:241|429:217|429:217|442:175|442:175|441:148|443:127,2,135,6|6|4,0:1|0:1|0:0,0:0:0:0:
355,315,59699,6,0,B|339:281|339:281|340:249|339:220,1,90,6|8,0:3|0:0,0:0:0:0:
289,153,60405,2,0,B|265:151|241:156|241:156|206:172|155:160,2,135,0|6|8,0:0|0:1|0:0,0:0:0:0:
340,79,61817,2,0,P|295:65|234:73,1,90,0|8,0:0|0:0,0:0:0:0:
162,70,62523,2,0,P|109:77|59:75,1,90,6|8,0:0|0:0,0:0:0:0:
39,159,63228,2,0,B|40:196|53:226|53:226|43:260|44:299,1,135,0|6,0:0|0:1,0:0:0:0:
177,269,64287,2,0,P|225:261|270:266,1,90,8|0,0:0|0:0,0:0:0:0:
354,279,64993,1,8,0:0:0:0:
440,253,65346,6,0,P|450:200|450:156,1,90,6|8,0:1|0:0,0:0:0:0:
365,134,66052,2,0,B|320:144|264:129|264:129|237:133|224:138,2,135,0|6|8,0:0|0:1|0:0,0:0:0:0:
450,164,67464,2,0,P|417:209|371:224,1,90,0|8,0:0|0:0,0:0:0:0:
296,229,68170,2,0,B|283:226|263:223|263:223|238:231|203:236,1,90,6|8,0:1|0:0,0:0:0:0:
124,200,68876,2,0,B|131:154|123:103,1,90,0|8,0:0|0:0,0:0:0:0:
205,74,69581,2,0,B|215:106|241:131|241:131|275:124|323:140,2,135,6|6|2,0:0|0:0|0:0,0:0:0:0:
124,110,70993,6,0,P|38:119|125:199,1,270,6|4,0:3|0:0,0:0:0:0:
196,253,72405,2,0,B|234:241|256:221|256:221|278:241|316:253,2,135,10|4|4,0:0|0:0|0:0,0:0:0:0:
192,343,73817,2,0,B|224:343|256:326|256:326|297:345|340:354|340:354|391:335|452:334,1,270,6|0,0:3|0:0,0:0:0:0:
496,256,75228,2,0,B|504:233|496:211|496:211|504:191|496:169|496:169|504:151|496:124,1,135,8|4,0:0|0:0,0:0:0:0:
391,37,76287,1,2,0:0:0:0:
317,89,76640,6,0,B|255:86|217:41|217:41|135:40|76:97,1,270,6|4,0:3|0:0,0:0:0:0:
86,186,78052,2,0,B|104:264|80:239|90:326,2,135,10|4|4,0:0|0:0|0:0,0:0:0:0:
164,143,79464,1,4,0:0:0:0:
254,148,79817,2,0,B|300:147|341:127|341:127|351:172|344:228,1,180,8|8,0:0|0:0,0:0:0:0:
314,301,80876,2,0,P|273:298|216:303,1,90,4|8,0:3|0:0,0:0:0:0:
168,233,81581,2,0,L|164:143,1,90,0|8,0:0|0:0,0:0:0:0:
237,90,82287,6,0,B|269:86|288:76|288:76|326:92|378:85,2,135,6|0|8,0:3|0:0|0:0,0:0:0:0:
62,134,84052,2,0,P|71:180|68:229,1,90,8|0,0:0|0:0,0:0:0:0:
58,312,84758,1,8,0:0:0:0:
141,277,85111,2,0,B|176:290|209:282|209:282|242:290|278:285,2,135,4|0|8,0:0|0:0|0:0,0:0:0:0:
146,94,86876,2,0,P|191:88|236:89,1,90,8|0,0:0|0:0,0:0:0:0:
315,133,87581,1,8,0:0:0:0:
396,94,87934,6,0,B|415:79|427:61|427:61|472:65|516:86,2,135,4|0|8,0:0|0:0|0:0,0:0:0:0:
293,242,89699,2,0,P|298:286|291:336,1,90,8|0,0:0|0:0,0:0:0:0:
203,349,90405,1,8,0:0:0:0:
135,289,90758,2,0,B|92:279|92:279|47:291|47:291|24:284|-4:283,2,135,4|0|8,0:0|0:0|0:0,0:0:0:0:
131,198,92170,2,0,B|88:190|88:190|41:201,1,90,4|8,0:0|0:0,0:0:0:0:
4,118,92876,2,0,L|-1:24,1,90,2|0,0:0|0:0,0:0:0:0:
87,45,93581,6,0,P|140:52|184:50,1,90,6|8,2:3|2:1,0:0:0:0:
265,35,94287,2,0,P|318:28|362:30,1,90,0|8,2:1|2:1,0:0:0:0:
427,82,94993,2,0,B|432:136|425:115|427:174,2,90,4|8|0,2:1|2:1|2:1,0:0:0:0:
354,29,96052,1,8,2:1:0:0:
331,116,96405,2,0,B|330:136|324:160|324:160|331:206|331:206|327:252,2,135,4|0|8,2:1|2:1|2:1,0:0:0:0:
240,114,97817,2,0,P|193:120|146:116,1,90,4|8,2:1|2:1,0:0:0:0:
82,175,98523,2,0,P|84:227|78:267,1,90,0|8,2:1|2:1,0:0:0:0:
156,308,99228,6,0,B|214:315|214:315|252:296,2,90,6|8|0,2:3|2:1|2:1,0:0:0:0:
78,264,100287,1,8,2:1:0:0:
152,213,100640,2,0,P|195:203|239:209,1,90,4|8,2:1|2:1,0:0:0:0:
318,252,101346,2,0,P|363:262|412:253,1,90,0|8,2:1|2:1,0:0:0:0:
469,192,102052,2,0,B|469:106|457:145|462:49,2,135,4|0|8,2:1|2:1|2:1,0:0:0:0:
492,279,103464,2,0,P|496:310|494:371,2,90,0|8|4,2:1|2:1|2:1,0:0:0:0:
469,192,104523,1,8,2:1:0:0:
389,149,104876,6,0,P|333:149|296:142,1,90,6|8,2:3|2:1,0:0:0:0:
239,209,105581,2,0,P|194:201|149:202,1,90,0|8,2:1|2:1,0:0:0:0:
68,163,106287,2,0,L|63:73,2,90,4|8|0,2:1|2:1|2:1,0:0:0:0:
75,252,107346,1,8,2:1:0:0:
149,202,107699,2,0,B|202:195|233:171|233:171|262:178|276:190,2,135,4|0|8,2:1|2:1|2:1,0:0:0:0:
154,292,109111,2,0,P|203:286|251:266,1,90,4|8,2:1|2:1,0:0:0:0:
330,270,109817,2,0,P|373:286|417:290,1,90,0|8,2:1|2:1,0:0:0:0:
470,218,110523,6,0,P|478:175|469:125,2,90,6|8|0,2:3|2:1|2:1,0:0:0:0:
417,290,111581,1,8,2:1:0:0:
331,271,111934,2,0,P|329:222|333:177,1,90,4|8,2:1|2:1,0:0:0:0:
269,116,112640,2,0,P|222:120|175:118,1,90,0|8,2:1|2:1,0:0:0:0:
133,40,113346,2,0,B|43:54|83:32|-20:54,2,135,4|0|8,2:1|2:1|2:1,0:0:0:0:
223,35,114758,6,0,B|293:61|355:46|355:46|346:108|364:181|364:181|417:172|462:183,1,360,4|6,2:1|2:3,0:0:0:0:
