osu file format v14

[General]
AudioFilename: audio.mp3
AudioLeadIn: 0
PreviewTime: 6058
Countdown: 1
SampleSet: Normal
StackLeniency: 0.7
Mode: 0
LetterboxInBreaks: 0
WidescreenStoryboard: 1

[Editor]
Bookmarks: 10469
DistanceSpacing: 2.2
BeatDivisor: 4
GridSize: 16
TimelineZoom: 1

[Metadata]
Title:degenerative art
TitleUnicode:degenerative art
Artist:Dima Bamberg
ArtistUnicode:Dima Bamberg
Creator:iVeLes
Version:Normal
Source:
Tags:
BeatmapID:1930837
BeatmapSetID:923815

[Difficulty]
HPDrainRate:3
CircleSize:3
OverallDifficulty:3
ApproachRate:4
SliderMultiplier:1.30000000596046
SliderTickRate:1

[Events]
//Background and Video events
0,0,"osu1.png",0,0
//Break Periods
2,58493,62974
2,113553,118033
2,147081,161797
//Storyboard Layer 0 (Background)
//Storyboard Layer 1 (Fail)
//Storyboard Layer 2 (Pass)
//Storyboard Layer 3 (Foreground)
//Storyboard Sound Samples

[TimingPoints]
5000,352.941550621001,4,1,0,100,1,0
10294,-133.333333333333,4,1,0,100,0,0
33852,-200,4,1,0,100,0,0
67823,-133.333333333333,4,1,0,100,0,0
90676,-200,4,1,0,100,0,0
123147,-133.333333333333,4,1,0,100,0,0
168323,-133.333333333333,4,1,0,100,0,0

[HitObjects]
256,192,6764,12,0,9588,0:0:0:0:
64,67,10294,6,0,P|71:178|217:212,1,268.125011457502
277,212,11705,2,0,P|336:201|373:241,1,97.5000041663645
386,259,12411,6,0,P|346:301|296:304,1,97.5000041663645
210,289,13117,2,0,P|147:266|136:225,1,97.5000041663645
109,149,13823,1,0,0:0:0:0:
187,88,14176,1,0,0:0:0:0:
281,89,14529,2,0,P|334:132|319:162,1,97.5000041663645
266,234,15235,5,0,0:0:0:0:
166,262,15588,2,0,P|106:222|115:188,1,97.5000041663645
141,103,16294,6,0,P|204:81|237:113,1,97.5000041663645
298,147,17000,1,0,0:0:0:0:
261,228,17352,1,0,0:0:0:0:
172,249,17705,1,0,0:0:0:0:
95,209,18058,2,0,P|80:174|107:123,1,97.5000041663645
185,99,18764,1,0,0:0:0:0:
268,101,19117,1,0,0:0:0:0:
341,153,19470,1,0,0:0:0:0:
369,246,19823,6,0,P|359:297|304:314,2,97.5000041663645
319,154,20882,1,0,0:0:0:0:
239,96,21235,1,0,0:0:0:0:
151,130,21941,6,0,P|86:172|130:279,1,195.000008332729
195,304,23000,1,0,0:0:0:0:
276,285,23352,1,0,0:0:0:0:
336,218,23705,2,0,L|429:191,1,97.5000041663645
460,271,24411,1,0,0:0:0:0:
396,333,24764,2,0,P|338:335|287:327,1,97.5000041663645
178,316,25470,6,0,B|71:289|74:290,2,97.5000041663645
186,218,26529,2,0,P|229:167|263:183,1,97.5000041663645
326,221,27235,2,0,P|375:255|362:286,2,97.5000041663645
247,169,28294,1,0,0:0:0:0:
156,137,28647,1,0,0:0:0:0:
95,205,29000,1,0,0:0:0:0:
103,299,29352,2,0,P|161:327|205:332,2,97.5000041663645
92,210,30411,2,0,P|128:186|200:194,1,97.5000041663645
273,193,31117,1,0,0:0:0:0:
307,108,31470,6,0,L|190:86,1,97.5000041663645
126,78,32176,1,0,0:0:0:0:
50,126,32529,1,0,0:0:0:0:
68,216,33235,6,0,L|180:206,1,97.5000041663645
241,102,33941,2,0,P|293:169|271:212,1,130.000000596046
182,290,35000,1,0,0:0:0:0:
81,230,35352,1,0,0:0:0:0:
71,98,35705,2,0,L|69:61,2,32.5000001490115
97,215,36411,2,0,P|144:288|187:314,1,130.000000596046
296,325,37470,1,0,0:0:0:0:
413,274,37823,2,0,P|465:235|450:171,1,130.000000596046
356,91,38882,1,0,0:0:0:0:
117,33,39588,1,0,0:0:0:0:
133,191,40294,6,0,P|141:251|204:275,1,130.000000596046
300,193,41352,1,0,0:0:0:0:
266,73,41705,2,0,P|227:83|207:107,2,65.000000298023
392,74,42764,2,0,L|446:110,2,65.000000298023
261,41,43823,1,0,0:0:0:0:
141,97,44176,1,0,0:0:0:0:
164,213,44529,2,0,P|171:250|196:276,2,65.000000298023
244,151,45588,5,0,0:0:0:0:
352,126,45941,1,0,0:0:0:0:
290,33,46294,1,0,0:0:0:0:
187,48,46647,2,0,B|135:58|54:82,1,130.000000596046
26,188,47705,1,0,0:0:0:0:
26,188,48058,1,0,0:0:0:0:
124,263,48411,6,0,P|154:296|186:303,1,65.000000298023
292,294,49117,2,0,P|334:286|361:265,1,65.000000298023
380,161,49823,2,0,P|362:123|338:100,1,65.000000298023
257,46,50529,1,0,0:0:0:0:
257,46,50882,1,0,0:0:0:0:
154,85,51235,6,0,P|125:114|112:145,1,65.000000298023
127,218,51941,1,0,0:0:0:0:
201,260,52294,1,0,0:0:0:0:
284,254,52647,2,0,P|313:229|310:167,2,97.5000004470345
202,269,54058,1,0,0:0:0:0:
137,218,54411,1,0,0:0:0:0:
129,139,54764,2,0,P|173:119|196:125,1,65.000000298023
264,148,55470,1,0,0:0:0:0:
329,199,55823,2,0,P|348:261|305:309,1,130.000000596046
227,327,56882,1,0,0:0:0:0:
151,290,57235,2,0,P|120:242|120:223,3,65.000000298023
256,192,64294,12,0,66764,0:0:0:0:
204,65,68000,6,0,P|127:85|86:154,1,146.250006249547
95,214,68882,1,0,0:0:0:0:
146,275,69235,2,0,P|200:278|240:256,1,97.5000041663645
272,185,69941,2,0,P|259:129|220:111,2,97.5000041663645
263,257,71000,1,0,0:0:0:0:
206,204,71353,1,0,0:0:0:0:
192,130,71705,1,0,0:0:0:0:
241,79,72058,6,0,P|308:94|330:134,1,97.5000041663645
332,189,72764,1,0,0:0:0:0:
277,242,73117,1,0,0:0:0:0:
203,258,73470,2,0,P|143:239|117:202,2,97.5000041663645
301,259,74529,5,0,0:0:0:0:
335,175,74882,2,0,P|333:125|278:93,1,97.5000041663645
212,70,75588,2,0,L|101:103,1,97.5000041663645
43,156,76294,1,0,0:0:0:0:
61,240,76647,2,0,P|105:263|161:265,1,97.5000041663645
229,233,77353,1,0,0:0:0:0:
282,167,77705,1,0,0:0:0:0:
303,91,78058,6,0,P|246:53|201:67,1,97.5000041663645
136,85,78764,1,0,0:0:0:0:
87,153,79117,2,0,P|80:217|105:255,2,97.5000041663645
149,92,80176,2,0,L|267:89,1,97.5000041663645
334,94,80882,1,0,0:0:0:0:
381,167,81235,1,0,0:0:0:0:
339,236,81588,1,0,0:0:0:0:
267,278,81941,2,0,P|196:279|178:264,2,97.5000041663645
332,216,83000,2,0,P|362:173|340:121,1,97.5000041663645
302,68,83705,2,0,P|243:46|188:55,2,97.5000041663645
387,145,84764,5,0,0:0:0:0:
387,145,85117,1,0,0:0:0:0:
387,145,85470,1,0,0:0:0:0:
348,255,85823,6,0,P|298:281|171:243,1,195.000008332729
139,167,86882,2,0,P|171:130|312:133,1,195.000008332729
360,185,87941,1,0,0:0:0:0:
339,262,88294,2,0,P|272:275|231:268,2,97.5000041663645
331,101,89705,2,0,P|263:96|223:101,1,97.5000041663645
118,148,90764,6,0,P|113:193|177:244,1,130.000000596046
300,254,91823,6,0,P|345:259|396:195,1,130.000000596046
379,77,92882,2,0,P|336:68|249:75,1,130.000000596046
142,99,93941,2,0,P|78:120|64:176,1,130.000000596046
69,298,95000,1,0,0:0:0:0:
188,300,95353,2,0,P|235:299|252:284,3,65.000000298023
263,250,97117,6,0,P|276:214|295:182,1,65.000000298023
295,108,97823,1,0,0:0:0:0:
235,46,98176,2,0,B|206:88|195:107,2,65.000000298023
155,36,99235,2,0,P|112:120|177:181,1,195.000000894069
253,197,100647,1,0,0:0:0:0:
329,178,101000,1,0,0:0:0:0:
356,112,101353,6,0,P|357:68|340:60,1,65.000000298023
251,57,102058,1,0,0:0:0:0:
188,127,102411,2,0,L|216:190,2,65.000000298023
118,71,103470,1,0,0:0:0:0:
220,67,103823,6,0,L|299:67,1,65.000000298023
363,106,104529,1,0,0:0:0:0:
361,192,104882,2,0,P|342:229|309:237,2,65.000000298023
429,132,105941,1,0,0:0:0:0:
463,221,106294,6,0,P|445:294|334:308,1,195.000000894069
266,263,107705,1,0,0:0:0:0:
235,184,108058,2,0,P|188:132|135:153,1,130.000000596046
76,214,109117,2,0,P|68:271|130:305,1,130.000000596046
204,315,110176,2,0,P|246:307|263:289,2,65.000000298023
147,255,111235,1,0,0:0:0:0:
132,175,111588,1,0,0:0:0:0:
192,108,111941,2,0,P|228:85|262:81,2,65.000000298023
121,159,113000,1,0,0:0:0:0:
121,159,113353,1,0,0:0:0:0:
256,192,119353,12,0,122529,0:0:0:0:
350,191,123235,6,0,P|390:150|299:77,1,195.000008332729
222,92,124294,1,0,0:0:0:0:
149,132,124647,2,0,P|122:188|134:230,1,97.5000041663645
201,267,125353,1,0,0:0:0:0:
289,289,125706,1,0,0:0:0:0:
369,231,126058,6,0,P|394:186|364:146,2,97.5000041663645
295,307,127117,1,0,0:0:0:0:
189,285,127470,2,0,P|141:233|153:194,1,97.5000041663645
198,131,128176,1,0,0:0:0:0:
280,80,128529,1,0,0:0:0:0:
370,113,128882,1,0,0:0:0:0:
387,212,129235,2,0,P|359:300|342:308,1,97.5000041663645
263,324,129941,2,0,P|173:316|156:306,2,97.5000041663645
349,273,131000,6,0,P|366:222|334:184,1,97.5000041663645
268,120,131706,1,0,0:0:0:0:
177,86,132058,1,0,0:0:0:0:
102,147,132411,1,0,0:0:0:0:
61,236,132764,2,0,P|63:282|109:311,2,97.5000041663645
103,144,133823,1,0,0:0:0:0:
103,144,134176,1,0,0:0:0:0:
199,112,134529,6,0,P|315:119|362:197,1,195.000008332729
352,267,135588,1,0,0:0:0:0:
286,329,135941,2,0,P|218:328|180:307,1,97.5000041663645
134,254,136647,1,0,0:0:0:0:
126,165,137000,1,0,0:0:0:0:
163,86,137353,2,0,P|249:68|293:156,1,195.000008332729
280,231,138411,1,0,0:0:0:0:
320,316,138764,2,0,P|400:310|411:287,1,97.5000041663645
441,223,139470,1,0,0:0:0:0:
389,148,139823,1,0,0:0:0:0:
316,94,140176,1,0,0:0:0:0:
235,77,140529,6,0,P|172:85|134:119,1,97.5000041663645
81,175,141235,2,0,P|69:246|86:267,2,97.5000041663645
154,113,142294,1,0,0:0:0:0:
243,156,142647,1,0,0:0:0:0:
290,234,143000,2,0,P|271:308|160:294,1,195.000008332729
109,230,144058,1,0,0:0:0:0:
137,143,144411,2,0,P|178:104|228:109,1,97.5000041663645
307,116,145117,1,0,0:0:0:0:
398,81,145470,1,0,0:0:0:0:
361,256,146176,2,0,P|281:345|215:319,1,195.000008332729
256,192,163117,12,0,167706,0:0:0:0:
208,64,168411,6,0,P|126:84|128:192,1,195.000008332729
176,256,169470,1,0,0:0:0:0:
272,272,169823,2,0,P|344:236|346:207,1,97.5000041663645
353,135,170529,1,0,0:0:0:0:
262,102,170882,1,0,0:0:0:0:
177,94,171235,2,0,P|106:136|106:159,2,97.5000041663645
263,103,172294,1,0,0:0:0:0:
326,174,172647,2,0,P|331:245|308:269,1,97.5000041663645
259,319,173353,6,0,P|167:326|111:244,1,195.000008332729
88,164,174411,1,0,0:0:0:0:
88,164,174764,1,0,0:0:0:0:
152,104,175117,2,0,P|200:91|246:116,2,97.5000041663645
79,164,176176,6,0,P|78:212|189:294,1,195.000008332729
286,280,177235,1,0,0:0:0:0:
353,208,177588,1,0,0:0:0:0:
370,103,177941,2,0,P|312:66|275:72,2,97.5000041663645
400,197,179000,1,0,0:0:0:0:
400,197,179353,1,0,0:0:0:0:
369,299,179706,6,0,P|267:309|209:240,1,195.000008332729
157,122,181823,5,0,0:0:0:0:
260,84,182176,1,0,0:0:0:0:
355,148,182529,2,0,P|349:223|322:242,3,97.5000041663645
254,304,183941,1,0,0:0:0:0:
157,275,184294,1,0,0:0:0:0:
128,188,184647,6,0,P|156:99|252:69,1,195.000008332729
321,110,185706,1,0,0:0:0:0:
381,172,186059,1,0,0:0:0:0:
399,254,186411,2,0,P|356:306|315:309,2,97.5000041663645
416,158,187470,6,0,P|383:105|344:80,1,97.5000041663645
258,43,188176,1,0,0:0:0:0:
169,81,188529,1,0,0:0:0:0:
99,153,188882,1,0,0:0:0:0:
130,249,189235,2,0,P|148:294|212:307,2,97.5000041663645
107,154,190294,1,0,0:0:0:0:
107,154,190647,1,0,0:0:0:0:
280,56,191353,2,0,P|385:91|413:165,1,195.000008332729
422,270,192411,1,0,0:0:0:0:
256,192,193117,12,0,199117,0:0:0:0:
