osu file format v14

[General]
AudioFilename: audio.mp3
AudioLeadIn: 0
PreviewTime: 29851
Countdown: 0
SampleSet: Soft
StackLeniency: 0.7
Mode: 3
LetterboxInBreaks: 0
SpecialStyle: 0
WidescreenStoryboard: 0

[Editor]
Bookmarks: 1944,44735,47525,186130,188107
DistanceSpacing: 1.2
BeatDivisor: 4
GridSize: 4
TimelineZoom: 1.7

[Metadata]
Title:Falling
TitleUnicode:Falling
Artist:Digitalism
ArtistUnicode:Digitalism
Creator:Mipha-
Version:7K Descent
Source:
Tags:colors around the world 03 instrumental tommy trash dj-kicks monheim civilization miphather famoss dance electronic
BeatmapID:2617879
BeatmapSetID:1259322

[Difficulty]
HPDrainRate:8.5
CircleSize:7
OverallDifficulty:8.5
ApproachRate:5
SliderMultiplier:1.4
SliderTickRate:1

[Events]
//Background and Video events
0,0,"zzz.png",0,0
//Break Periods
//Storyboard Layer 0 (Background)
//Storyboard Layer 1 (Fail)
//Storyboard Layer 2 (Pass)
//Storyboard Layer 3 (Foreground)
//Storyboard Layer 4 (Overlay)
//Storyboard Sound Samples

[TimingPoints]
84,465.116279069767,4,2,1,20,1,0
14967,-100,4,2,1,30,0,0
27990,-100,4,2,1,40,0,0
29851,-100,4,2,1,50,0,1
67060,-100,4,2,1,40,0,0
70781,-100,4,2,1,50,0,1
83804,-100,4,2,1,40,0,0
122874,-100,4,2,1,45,0,0
135897,-100,4,2,1,60,0,0
152642,-100,4,2,1,40,0,0
165665,-100,4,2,1,45,0,0
167525,-100,4,2,1,50,0,1
211711,-100,4,2,1,50,0,0
241944,-100,4,2,1,35,0,0
256828,-100,4,2,1,20,0,0
267990,-100,4,2,1,10,0,0

[HitObjects]
36,192,84,5,2,0:0:0:0:
109,192,84,1,0,0:0:0:0:
182,192,84,1,0,0:0:0:0:
329,192,316,1,0,0:0:0:0:
36,192,549,1,2,0:0:0:0:
109,192,549,1,0,0:0:0:0:
182,192,549,1,0,0:0:0:0:
329,192,781,1,0,0:0:0:0:
36,192,1014,1,2,0:0:0:0:
109,192,1014,1,0,0:0:0:0:
182,192,1014,1,0,0:0:0:0:
329,192,1246,1,0,0:0:0:0:
36,192,1479,1,2,0:0:0:0:
109,192,1479,1,0,0:0:0:0:
182,192,1479,1,0,0:0:0:0:
329,192,1711,1,0,0:0:0:0:
36,192,1944,1,2,0:0:0:0:
109,192,1944,1,0,0:0:0:0:
182,192,1944,1,0,0:0:0:0:
329,192,2177,1,0,0:0:0:0:
36,192,2409,1,2,0:0:0:0:
109,192,2409,1,0,0:0:0:0:
182,192,2409,1,0,0:0:0:0:
329,192,2642,1,0,0:0:0:0:
36,192,2874,1,2,0:0:0:0:
109,192,2874,1,0,0:0:0:0:
182,192,2874,1,0,0:0:0:0:
329,192,3107,1,0,0:0:0:0:
36,192,3339,1,2,0:0:0:0:
109,192,3339,1,0,0:0:0:0:
182,192,3339,1,0,0:0:0:0:
329,192,3572,1,0,0:0:0:0:
36,192,3804,1,2,0:0:0:0:
109,192,3804,1,0,0:0:0:0:
182,192,3804,1,0,0:0:0:0:
329,192,4037,1,0,0:0:0:0:
36,192,4270,1,2,0:0:0:0:
109,192,4270,1,0,0:0:0:0:
182,192,4270,1,0,0:0:0:0:
329,192,4502,1,0,0:0:0:0:
36,192,4735,1,2,0:0:0:0:
109,192,4735,1,0,0:0:0:0:
182,192,4735,1,0,0:0:0:0:
329,192,4967,1,0,0:0:0:0:
36,192,5200,1,2,0:0:0:0:
109,192,5200,1,0,0:0:0:0:
182,192,5200,1,0,0:0:0:0:
329,192,5432,1,0,0:0:0:0:
36,192,5665,1,2,0:0:0:0:
109,192,5665,1,0,0:0:0:0:
182,192,5665,1,0,0:0:0:0:
329,192,5897,1,0,0:0:0:0:
36,192,6130,1,2,0:0:0:0:
109,192,6130,1,0,0:0:0:0:
182,192,6130,1,0,0:0:0:0:
329,192,6363,1,0,0:0:0:0:
36,192,6595,1,2,0:0:0:0:
109,192,6595,1,0,0:0:0:0:
182,192,6595,1,0,0:0:0:0:
329,192,6828,1,0,0:0:0:0:
36,192,7060,1,2,0:0:0:0:
109,192,7060,1,0,0:0:0:0:
182,192,7060,1,0,0:0:0:0:
329,192,7293,1,0,0:0:0:0:
36,192,7525,1,2,0:0:0:0:
109,192,7525,1,0,0:0:0:0:
182,192,7525,1,0,0:0:0:0:
329,192,7758,1,0,0:0:0:0:
36,192,7990,1,2,0:0:0:0:
109,192,7990,1,0,0:0:0:0:
182,192,7990,1,0,0:0:0:0:
329,192,8223,1,0,0:0:0:0:
36,192,8456,1,2,0:0:0:0:
109,192,8456,1,0,0:0:0:0:
182,192,8456,1,0,0:0:0:0:
329,192,8688,1,0,0:0:0:0:
36,192,8921,1,2,0:0:0:0:
109,192,8921,1,0,0:0:0:0:
182,192,8921,1,0,0:0:0:0:
329,192,9153,1,0,0:0:0:0:
36,192,9386,1,2,0:0:0:0:
109,192,9386,1,0,0:0:0:0:
182,192,9386,1,0,0:0:0:0:
329,192,9618,1,0,0:0:0:0:
36,192,9851,1,2,0:0:0:0:
109,192,9851,1,0,0:0:0:0:
182,192,9851,1,0,0:0:0:0:
329,192,10083,1,0,0:0:0:0:
36,192,10316,1,2,0:0:0:0:
109,192,10316,1,0,0:0:0:0:
182,192,10316,1,0,0:0:0:0:
329,192,10549,1,0,0:0:0:0:
36,192,10781,1,2,0:0:0:0:
109,192,10781,1,0,0:0:0:0:
182,192,10781,1,0,0:0:0:0:
329,192,11014,1,0,0:0:0:0:
36,192,11246,1,2,0:0:0:0:
109,192,11246,1,0,0:0:0:0:
182,192,11246,1,0,0:0:0:0:
329,192,11479,1,0,0:0:0:0:
36,192,11711,1,2,0:0:0:0:
109,192,11711,1,0,0:0:0:0:
182,192,11711,1,0,0:0:0:0:
329,192,11944,1,0,0:0:0:0:
36,192,12177,1,2,0:0:0:0:
109,192,12177,1,0,0:0:0:0:
182,192,12177,1,0,0:0:0:0:
329,192,12409,1,0,0:0:0:0:
36,192,12642,1,2,0:0:0:0:
109,192,12642,1,0,0:0:0:0:
182,192,12642,1,0,0:0:0:0:
329,192,12874,1,0,0:0:0:0:
36,192,13107,1,2,0:0:0:0:
109,192,13107,1,0,0:0:0:0:
182,192,13107,1,0,0:0:0:0:
329,192,13339,1,0,0:0:0:0:
36,192,13572,1,2,0:0:0:0:
109,192,13572,1,0,0:0:0:0:
182,192,13572,1,0,0:0:0:0:
329,192,13804,1,0,0:0:0:0:
36,192,14037,1,2,0:0:0:0:
109,192,14037,1,0,0:0:0:0:
182,192,14037,1,0,0:0:0:0:
402,192,14153,1,0,0:0:0:0:
402,192,14386,1,0,0:0:0:0:
36,192,14502,1,2,0:0:0:0:
109,192,14502,1,0,0:0:0:0:
182,192,14502,1,0,0:0:0:0:
402,192,14618,1,0,0:0:0:0:
402,192,14851,1,0,0:0:0:0:
36,192,14967,1,2,0:0:0:0:
109,192,14967,1,0,0:0:0:0:
182,192,14967,1,0,0:0:0:0:
329,192,15200,1,0,0:0:0:0:
36,192,15432,1,2,0:0:0:0:
109,192,15432,1,0,0:0:0:0:
182,192,15432,1,0,0:0:0:0:
329,192,15549,1,0,0:0:0:0:
36,192,15897,1,2,0:0:0:0:
109,192,15897,1,0,0:0:0:0:
182,192,15897,1,0,0:0:0:0:
329,192,15897,1,0,0:0:0:0:
329,192,16246,1,0,0:0:0:0:
36,192,16363,1,2,0:0:0:0:
109,192,16363,1,0,0:0:0:0:
182,192,16363,1,0,0:0:0:0:
329,192,16595,1,0,0:0:0:0:
36,192,16828,1,2,0:0:0:0:
109,192,16828,1,0,0:0:0:0:
182,192,16828,1,0,0:0:0:0:
329,192,16944,1,0,0:0:0:0:
36,192,17293,1,2,0:0:0:0:
109,192,17293,1,0,0:0:0:0:
182,192,17293,1,0,0:0:0:0:
329,192,17293,1,0,0:0:0:0:
329,192,17642,1,0,0:0:0:0:
36,192,17758,1,2,0:0:0:0:
109,192,17758,1,0,0:0:0:0:
182,192,17758,1,0,0:0:0:0:
329,192,17990,1,0,0:0:0:0:
36,192,18223,1,2,0:0:0:0:
109,192,18223,1,0,0:0:0:0:
182,192,18223,1,0,0:0:0:0:
402,192,18339,1,0,0:0:0:0:
256,192,18456,1,0,0:0:0:0:
475,192,18572,1,0,0:0:0:0:
36,192,18688,1,2,0:0:0:0:
109,192,18688,1,0,0:0:0:0:
182,192,18688,1,0,0:0:0:0:
329,192,18921,1,0,0:0:0:0:
36,192,19153,1,2,0:0:0:0:
109,192,19153,1,0,0:0:0:0:
182,192,19153,1,0,0:0:0:0:
329,192,19270,1,0,0:0:0:0:
36,192,19618,1,2,0:0:0:0:
109,192,19618,1,0,0:0:0:0:
182,192,19618,1,0,0:0:0:0:
329,192,19618,1,0,0:0:0:0:
329,192,19967,1,0,0:0:0:0:
36,192,20083,1,2,0:0:0:0:
109,192,20083,1,0,0:0:0:0:
182,192,20083,1,0,0:0:0:0:
329,192,20316,1,0,0:0:0:0:
36,192,20549,1,2,0:0:0:0:
109,192,20549,1,0,0:0:0:0:
182,192,20549,1,0,0:0:0:0:
402,192,20665,1,0,0:0:0:0:
256,192,20781,1,0,0:0:0:0:
475,192,20897,1,0,0:0:0:0:
36,192,21014,1,2,0:0:0:0:
109,192,21014,1,0,0:0:0:0:
182,192,21014,1,0,0:0:0:0:
402,192,21130,1,0,0:0:0:0:
256,192,21246,1,0,0:0:0:0:
475,192,21363,1,0,0:0:0:0:
36,192,21479,1,2,0:0:0:0:
109,192,21479,1,0,0:0:0:0:
182,192,21479,1,0,0:0:0:0:
402,192,21595,1,0,0:0:0:0:
256,192,21711,1,0,0:0:0:0:
475,192,21828,1,0,0:0:0:0:
36,192,21944,1,2,0:0:0:0:
109,192,21944,1,0,0:0:0:0:
182,192,21944,1,0,0:0:0:0:
402,192,22060,1,0,0:0:0:0:
256,192,22177,1,0,0:0:0:0:
475,192,22293,1,0,0:0:0:0:
36,192,22409,1,2,0:0:0:0:
109,192,22409,1,0,0:0:0:0:
182,192,22409,1,0,0:0:0:0:
329,192,22642,1,0,0:0:0:0:
475,192,22642,1,0,0:0:0:0:
36,192,22874,1,2,0:0:0:0:
109,192,22874,1,0,0:0:0:0:
182,192,22874,1,0,0:0:0:0:
329,192,22990,1,0,0:0:0:0:
475,192,22990,1,0,0:0:0:0:
36,192,23339,1,2,0:0:0:0:
109,192,23339,1,0,0:0:0:0:
182,192,23339,1,0,0:0:0:0:
329,192,23339,1,0,0:0:0:0:
475,192,23339,1,0,0:0:0:0:
329,192,23688,1,0,0:0:0:0:
475,192,23688,1,0,0:0:0:0:
36,192,23804,1,2,0:0:0:0:
109,192,23804,1,0,0:0:0:0:
182,192,23804,1,0,0:0:0:0:
329,192,24037,1,0,0:0:0:0:
475,192,24037,1,0,0:0:0:0:
36,192,24270,1,2,0:0:0:0:
109,192,24270,1,0,0:0:0:0:
182,192,24270,1,0,0:0:0:0:
329,192,24386,1,0,0:0:0:0:
475,192,24386,1,0,0:0:0:0:
36,192,24735,1,2,0:0:0:0:
109,192,24735,1,0,0:0:0:0:
182,192,24735,1,0,0:0:0:0:
329,192,24735,1,0,0:0:0:0:
475,192,24735,1,0,0:0:0:0:
329,192,25083,1,0,0:0:0:0:
475,192,25083,1,0,0:0:0:0:
36,192,25200,1,2,0:0:0:0:
109,192,25200,1,0,0:0:0:0:
182,192,25200,1,0,0:0:0:0:
329,192,25432,1,0,0:0:0:0:
475,192,25432,1,0,0:0:0:0:
36,192,25665,1,2,0:0:0:0:
109,192,25665,1,0,0:0:0:0:
182,192,25665,1,0,0:0:0:0:
402,192,25781,1,0,0:0:0:0:
256,192,25897,1,0,0:0:0:0:
475,192,26014,1,0,0:0:0:0:
36,192,26130,1,2,0:0:0:0:
109,192,26130,1,0,0:0:0:0:
182,192,26130,1,0,0:0:0:0:
329,192,26363,1,0,0:0:0:0:
475,192,26363,1,0,0:0:0:0:
36,192,26595,1,2,0:0:0:0:
109,192,26595,1,0,0:0:0:0:
182,192,26595,1,0,0:0:0:0:
329,192,26711,1,0,0:0:0:0:
475,192,26711,1,0,0:0:0:0:
36,192,27060,1,2,0:0:0:0:
109,192,27060,1,0,0:0:0:0:
182,192,27060,1,0,0:0:0:0:
329,192,27060,1,0,0:0:0:0:
475,192,27060,1,0,0:0:0:0:
329,192,27409,1,0,0:0:0:0:
475,192,27409,1,0,0:0:0:0:
36,192,27525,1,2,0:0:0:0:
109,192,27525,1,0,0:0:0:0:
182,192,27525,1,0,0:0:0:0:
329,192,27758,1,0,0:0:0:0:
475,192,27758,1,0,0:0:0:0:
36,192,27874,1,0,0:0:0:0:
182,192,27874,1,0,0:0:0:0:
329,192,27990,1,0,0:0:0:0:
402,192,27990,1,0,0:0:0:0:
109,192,28107,1,0,0:0:0:0:
256,192,28223,1,0,0:0:0:0:
329,192,28339,1,0,0:0:0:0:
402,192,28339,1,0,0:0:0:0:
109,192,28456,1,0,0:0:0:0:
256,192,28572,1,0,0:0:0:0:
329,192,28688,1,0,0:0:0:0:
402,192,28688,1,0,0:0:0:0:
109,192,28804,1,0,0:0:0:0:
256,192,28921,1,0,0:0:0:0:
329,192,29037,1,0,0:0:0:0:
402,192,29037,1,0,0:0:0:0:
109,192,29153,1,0,0:0:0:0:
256,192,29270,1,0,0:0:0:0:
36,192,29386,1,8,0:0:0:0:
109,192,29386,1,2,0:0:0:0:
182,192,29386,1,0,0:0:0:0:
329,192,29386,1,0,0:0:0:0:
402,192,29386,1,0,0:0:0:0:
475,192,29386,1,0,0:0:0:0:
36,192,29851,1,2,0:0:0:0:
109,192,29851,1,0,0:0:0:0:
256,192,29851,1,0,0:0:0:0:
402,192,29851,1,0,0:0:0:0:
475,192,29851,1,0,0:0:0:0:
109,192,29967,1,0,0:0:0:0:
329,192,30083,1,0,0:0:0:0:
402,192,30083,1,0,0:0:0:0:
109,192,30200,1,0,0:0:0:0:
182,192,30200,1,0,0:0:0:0:
36,192,30316,1,2,0:0:0:0:
256,192,30316,1,8,0:0:0:0:
402,192,30316,1,0,0:0:0:0:
475,192,30316,1,0,0:0:0:0:
329,192,30432,1,0,0:0:0:0:
402,192,30432,1,0,0:0:0:0:
109,192,30549,1,0,0:0:0:0:
182,192,30549,1,0,0:0:0:0:
329,192,30665,1,0,0:0:0:0:
36,192,30781,1,2,0:0:0:0:
256,192,30781,1,0,0:0:0:0:
329,192,30781,1,0,0:0:0:0:
402,192,30781,1,0,0:0:0:0:
109,192,30897,1,0,0:0:0:0:
182,192,30897,1,0,0:0:0:0:
182,192,31014,1,0,0:0:0:0:
329,192,31130,1,0,0:0:0:0:
402,192,31130,1,0,0:0:0:0:
36,192,31246,1,2,0:0:0:0:
109,192,31246,1,8,0:0:0:0:
182,192,31246,1,0,0:0:0:0:
475,192,31246,1,0,0:0:0:0:
109,192,31363,1,0,0:0:0:0:
329,192,31479,1,0,0:0:0:0:
402,192,31479,1,0,0:0:0:0:
109,192,31595,1,0,0:0:0:0:
182,192,31595,1,0,0:0:0:0:
36,192,31711,1,2,0:0:0:0:
182,192,31711,1,0,0:0:0:0:
256,192,31711,1,0,0:0:0:0:
475,192,31711,1,0,0:0:0:0:
329,192,31828,1,0,0:0:0:0:
402,192,31828,1,0,0:0:0:0:
109,192,31944,1,0,0:0:0:0:
182,192,31944,1,0,0:0:0:0:
402,192,32060,1,0,0:0:0:0:
36,192,32177,1,2,0:0:0:0:
329,192,32177,1,8,0:0:0:0:
402,192,32177,1,0,0:0:0:0:
475,192,32177,1,0,0:0:0:0:
109,192,32293,1,0,0:0:0:0:
182,192,32293,1,0,0:0:0:0:
329,192,32409,1,0,0:0:0:0:
329,192,32525,1,0,0:0:0:0:
402,192,32525,1,0,0:0:0:0:
36,192,32642,1,2,0:0:0:0:
109,192,32642,1,0,0:0:0:0:
182,192,32642,1,0,0:0:0:0:
475,192,32642,1,0,0:0:0:0:
109,192,32758,1,0,0:0:0:0:
329,192,32874,1,0,0:0:0:0:
182,192,32990,1,0,0:0:0:0:
256,192,32990,1,0,0:0:0:0:
329,192,32990,1,0,0:0:0:0:
36,192,33107,1,2,0:0:0:0:
109,192,33107,1,8,0:0:0:0:
402,192,33107,1,0,0:0:0:0:
475,192,33107,1,0,0:0:0:0:
402,192,33223,1,0,0:0:0:0:
182,192,33339,1,0,0:0:0:0:
256,192,33339,1,0,0:0:0:0:
329,192,33339,1,0,0:0:0:0:
182,192,33456,1,0,0:0:0:0:
36,192,33572,1,2,0:0:0:0:
109,192,33572,1,0,0:0:0:0:
256,192,33572,1,0,0:0:0:0:
402,192,33572,1,0,0:0:0:0:
475,192,33572,1,0,0:0:0:0:
402,192,33688,1,0,0:0:0:0:
109,192,33804,1,0,0:0:0:0:
182,192,33804,1,0,0:0:0:0:
329,192,33921,1,0,0:0:0:0:
402,192,33921,1,0,0:0:0:0:
36,192,34037,1,2,0:0:0:0:
109,192,34037,1,8,0:0:0:0:
256,192,34037,1,0,0:0:0:0:
475,192,34037,1,0,0:0:0:0:
109,192,34153,1,0,0:0:0:0:
182,192,34153,1,0,0:0:0:0:
329,192,34270,1,0,0:0:0:0:
402,192,34270,1,0,0:0:0:0:
182,192,34386,1,0,0:0:0:0:
109,192,34502,1,2,0:0:0:0:
182,192,34502,1,0,0:0:0:0:
256,192,34502,1,0,0:0:0:0:
475,192,34502,1,0,0:0:0:0:
329,192,34618,1,0,0:0:0:0:
402,192,34618,1,0,0:0:0:0:
329,192,34735,1,0,0:0:0:0:
109,192,34851,1,0,0:0:0:0:
182,192,34851,1,0,0:0:0:0:
36,192,34967,1,2,0:0:0:0:
329,192,34967,1,8,0:0:0:0:
402,192,34967,1,0,0:0:0:0:
475,192,34967,1,0,0:0:0:0:
402,192,35083,1,0,0:0:0:0:
109,192,35200,1,0,0:0:0:0:
182,192,35200,1,0,0:0:0:0:
329,192,35316,1,0,0:0:0:0:
402,192,35316,1,0,0:0:0:0:
36,192,35432,1,2,0:0:0:0:
256,192,35432,1,0,0:0:0:0:
329,192,35432,1,0,0:0:0:0:
475,192,35432,1,0,0:0:0:0:
109,192,35549,1,0,0:0:0:0:
182,192,35549,1,0,0:0:0:0:
329,192,35665,1,0,0:0:0:0:
402,192,35665,1,0,0:0:0:0:
109,192,35781,1,0,0:0:0:0:
36,192,35897,1,2,0:0:0:0:
109,192,35897,1,8,0:0:0:0:
182,192,35897,1,0,0:0:0:0:
475,192,35897,1,0,0:0:0:0:
329,192,36014,1,0,0:0:0:0:
402,192,36014,1,0,0:0:0:0:
182,192,36130,1,0,0:0:0:0:
109,192,36246,1,0,0:0:0:0:
182,192,36246,1,0,0:0:0:0:
36,192,36363,1,2,0:0:0:0:
329,192,36363,1,0,0:0:0:0:
402,192,36363,1,0,0:0:0:0:
475,192,36363,1,0,0:0:0:0:
402,192,36479,1,0,0:0:0:0:
182,192,36595,1,0,0:0:0:0:
182,192,36711,1,0,0:0:0:0:
256,192,36711,1,0,0:0:0:0:
329,192,36711,1,0,0:0:0:0:
36,192,36828,1,2,0:0:0:0:
109,192,36828,1,8,0:0:0:0:
402,192,36828,1,0,0:0:0:0:
475,192,36828,1,0,0:0:0:0:
109,192,36944,1,0,0:0:0:0:
182,192,37060,1,0,0:0:0:0:
256,192,37060,1,0,0:0:0:0:
329,192,37060,1,0,0:0:0:0:
329,192,37177,1,0,0:0:0:0:
36,192,37293,1,2,0:0:0:0:
109,192,37293,1,0,0:0:0:0:
256,192,37293,1,0,0:0:0:0:
402,192,37293,1,0,0:0:0:0:
475,192,37293,1,0,0:0:0:0:
109,192,37409,1,0,0:0:0:0:
329,192,37525,1,0,0:0:0:0:
402,192,37525,1,0,0:0:0:0:
109,192,37642,1,0,0:0:0:0:
182,192,37642,1,0,0:0:0:0:
36,192,37758,1,2,0:0:0:0:
256,192,37758,1,8,0:0:0:0:
402,192,37758,1,0,0:0:0:0:
475,192,37758,1,0,0:0:0:0:
329,192,37874,1,0,0:0:0:0:
402,192,37874,1,0,0:0:0:0:
109,192,37990,1,0,0:0:0:0:
182,192,37990,1,0,0:0:0:0:
329,192,38107,1,0,0:0:0:0:
36,192,38223,1,2,0:0:0:0:
256,192,38223,1,0,0:0:0:0:
329,192,38223,1,0,0:0:0:0:
402,192,38223,1,0,0:0:0:0:
109,192,38339,1,0,0:0:0:0:
182,192,38339,1,0,0:0:0:0:
182,192,38456,1,0,0:0:0:0:
329,192,38572,1,0,0:0:0:0:
402,192,38572,1,0,0:0:0:0:
36,192,38688,1,2,0:0:0:0:
109,192,38688,1,8,0:0:0:0:
182,192,38688,1,0,0:0:0:0:
475,192,38688,1,0,0:0:0:0:
109,192,38804,1,0,0:0:0:0:
329,192,38921,1,0,0:0:0:0:
402,192,38921,1,0,0:0:0:0:
109,192,39037,1,0,0:0:0:0:
182,192,39037,1,0,0:0:0:0:
36,192,39153,1,2,0:0:0:0:
182,192,39153,1,0,0:0:0:0:
256,192,39153,1,0,0:0:0:0:
475,192,39153,1,0,0:0:0:0:
329,192,39270,1,0,0:0:0:0:
402,192,39270,1,0,0:0:0:0:
109,192,39386,1,0,0:0:0:0:
182,192,39386,1,0,0:0:0:0:
402,192,39502,1,0,0:0:0:0:
36,192,39618,1,2,0:0:0:0:
329,192,39618,1,8,0:0:0:0:
402,192,39618,1,0,0:0:0:0:
475,192,39618,1,0,0:0:0:0:
109,192,39735,1,0,0:0:0:0:
182,192,39735,1,0,0:0:0:0:
329,192,39851,1,0,0:0:0:0:
329,192,39967,1,0,0:0:0:0:
402,192,39967,1,0,0:0:0:0:
36,192,40083,1,2,0:0:0:0:
109,192,40083,1,0,0:0:0:0:
182,192,40083,1,0,0:0:0:0:
475,192,40083,1,0,0:0:0:0:
109,192,40200,1,0,0:0:0:0:
329,192,40316,1,0,0:0:0:0:
182,192,40432,1,0,0:0:0:0:
256,192,40432,1,0,0:0:0:0:
329,192,40432,1,0,0:0:0:0:
36,192,40549,1,2,0:0:0:0:
109,192,40549,1,8,0:0:0:0:
402,192,40549,1,0,0:0:0:0:
475,192,40549,1,0,0:0:0:0:
402,192,40665,1,0,0:0:0:0:
182,192,40781,1,0,0:0:0:0:
256,192,40781,1,0,0:0:0:0:
329,192,40781,1,0,0:0:0:0:
182,192,40897,1,0,0:0:0:0:
36,192,41014,1,2,0:0:0:0:
109,192,41014,1,0,0:0:0:0:
329,192,41014,1,0,0:0:0:0:
402,192,41014,1,0,0:0:0:0:
475,192,41014,1,0,0:0:0:0:
329,192,41130,1,0,0:0:0:0:
402,192,41130,1,0,0:0:0:0:
256,192,41246,1,0,0:0:0:0:
109,192,41363,1,0,0:0:0:0:
182,192,41363,1,0,0:0:0:0:
36,192,41479,1,2,0:0:0:0:
329,192,41479,1,8,0:0:0:0:
402,192,41479,1,0,0:0:0:0:
475,192,41479,1,0,0:0:0:0:
182,192,41595,1,0,0:0:0:0:
329,192,41595,1,0,0:0:0:0:
182,192,41711,1,0,0:0:0:0:
256,192,41828,1,0,0:0:0:0:
329,192,41828,1,0,0:0:0:0:
36,192,41944,1,2,0:0:0:0:
109,192,41944,1,0,0:0:0:0:
182,192,41944,1,0,0:0:0:0:
475,192,41944,1,0,0:0:0:0:
109,192,42060,1,0,0:0:0:0:
182,192,42060,1,0,0:0:0:0:
256,192,42177,1,0,0:0:0:0:
329,192,42293,1,0,0:0:0:0:
402,192,42293,1,0,0:0:0:0:
36,192,42409,1,2,0:0:0:0:
109,192,42409,1,8,0:0:0:0:
182,192,42409,1,0,0:0:0:0:
475,192,42409,1,0,0:0:0:0:
182,192,42525,1,0,0:0:0:0:
329,192,42525,1,0,0:0:0:0:
329,192,42642,1,0,0:0:0:0:
182,192,42758,1,0,0:0:0:0:
256,192,42758,1,0,0:0:0:0:
36,192,42874,1,2,0:0:0:0:
109,192,42874,1,0,0:0:0:0:
329,192,42874,1,0,0:0:0:0:
402,192,42874,1,0,0:0:0:0:
475,192,42874,1,0,0:0:0:0:
182,192,42990,1,0,0:0:0:0:
329,192,42990,1,0,0:0:0:0:
182,192,43107,1,0,0:0:0:0:
402,192,43107,1,0,0:0:0:0:
256,192,43223,1,0,0:0:0:0:
329,192,43223,1,0,0:0:0:0:
36,192,43339,1,2,0:0:0:0:
109,192,43339,1,8,0:0:0:0:
182,192,43339,1,0,0:0:0:0:
475,192,43339,1,0,0:0:0:0:
182,192,43456,1,0,0:0:0:0:
329,192,43456,1,0,0:0:0:0:
109,192,43572,1,0,0:0:0:0:
329,192,43572,1,0,0:0:0:0:
182,192,43688,1,0,0:0:0:0:
256,192,43688,1,0,0:0:0:0:
36,192,43804,1,2,0:0:0:0:
329,192,43804,1,0,0:0:0:0:
402,192,43804,1,0,0:0:0:0:
475,192,43804,1,0,0:0:0:0:
182,192,43921,1,0,0:0:0:0:
329,192,43921,1,0,0:0:0:0:
402,192,44037,1,0,0:0:0:0:
182,192,44037,1,0,0:0:0:0:
329,192,44153,1,0,0:0:0:0:
256,192,44153,1,0,0:0:0:0:
36,192,44270,1,2,0:0:0:0:
109,192,44270,1,8,0:0:0:0:
402,192,44270,1,0,0:0:0:0:
475,192,44270,1,0,0:0:0:0:
109,192,44386,1,0,0:0:0:0:
402,192,44386,1,0,0:0:0:0:
182,192,44502,1,0,0:0:0:70:tom02.wav
329,192,44502,1,0,0:0:0:0:
182,192,44618,1,0,0:0:0:70:tom02.wav
329,192,44618,1,0,0:0:0:0:
36,192,44735,1,2,0:0:0:0:
109,192,44735,1,0,0:0:0:0:
256,192,44735,1,0,0:0:0:0:
402,192,44735,1,0,0:0:0:0:
475,192,44735,1,0,0:0:0:0:
109,192,44851,1,0,0:0:0:0:
329,192,44967,1,0,0:0:0:0:
402,192,44967,1,0,0:0:0:0:
109,192,45083,1,0,0:0:0:0:
182,192,45083,1,0,0:0:0:0:
36,192,45200,1,8,0:0:0:0:
256,192,45200,1,2,0:0:0:0:
402,192,45200,1,0,0:0:0:0:
475,192,45200,1,0,0:0:0:0:
329,192,45316,1,0,0:0:0:0:
402,192,45316,1,0,0:0:0:0:
109,192,45432,1,0,0:0:0:0:
182,192,45432,1,0,0:0:0:0:
329,192,45549,1,0,0:0:0:0:
36,192,45665,1,2,0:0:0:0:
256,192,45665,1,0,0:0:0:0:
329,192,45665,1,0,0:0:0:0:
402,192,45665,1,0,0:0:0:0:
109,192,45781,1,0,0:0:0:0:
182,192,45781,1,0,0:0:0:0:
182,192,45897,1,0,0:0:0:0:
329,192,46014,1,0,0:0:0:0:
402,192,46014,1,0,0:0:0:0:
36,192,46130,1,2,0:0:0:0:
109,192,46130,1,8,0:0:0:0:
182,192,46130,1,0,0:0:0:0:
475,192,46130,1,0,0:0:0:0:
109,192,46246,1,0,0:0:0:0:
329,192,46363,1,0,0:0:0:0:
402,192,46363,1,0,0:0:0:0:
109,192,46479,1,0,0:0:0:0:
182,192,46479,1,0,0:0:0:0:
36,192,46595,1,2,0:0:0:0:
182,192,46595,1,0,0:0:0:0:
256,192,46595,1,0,0:0:0:0:
475,192,46595,1,0,0:0:0:0:
329,192,46711,1,0,0:0:0:0:
402,192,46711,1,0,0:0:0:0:
109,192,46828,1,0,0:0:0:0:
182,192,46828,1,0,0:0:0:0:
402,192,46944,1,0,0:0:0:0:
36,192,47060,1,8,0:0:0:0:
329,192,47060,1,2,0:0:0:0:
402,192,47060,1,0,0:0:0:0:
475,192,47060,1,0,0:0:0:0:
109,192,47177,1,0,0:0:0:0:
182,192,47177,1,0,0:0:0:0:
329,192,47293,1,0,0:0:0:0:
329,192,47409,1,0,0:0:0:0:
402,192,47409,1,0,0:0:0:0:
36,192,47525,1,2,0:0:0:0:
109,192,47525,1,0,0:0:0:0:
182,192,47525,1,0,0:0:0:0:
475,192,47525,1,0,0:0:0:0:
109,192,47642,1,0,0:0:0:0:
329,192,47758,1,0,0:0:0:0:
182,192,47874,1,0,0:0:0:0:
256,192,47874,1,0,0:0:0:0:
329,192,47874,1,0,0:0:0:0:
36,192,47990,1,8,0:0:0:0:
109,192,47990,1,2,0:0:0:0:
402,192,47990,1,0,0:0:0:0:
475,192,47990,1,0,0:0:0:0:
402,192,48107,1,0,0:0:0:0:
182,192,48223,1,0,0:0:0:0:
256,192,48223,1,0,0:0:0:0:
329,192,48223,1,0,0:0:0:0:
182,192,48339,1,0,0:0:0:0:
36,192,48456,1,2,0:0:0:0:
109,192,48456,1,0,0:0:0:0:
256,192,48456,1,0,0:0:0:0:
402,192,48456,1,0,0:0:0:0:
475,192,48456,1,0,0:0:0:0:
402,192,48572,1,0,0:0:0:0:
109,192,48688,1,0,0:0:0:0:
182,192,48688,1,0,0:0:0:0:
329,192,48804,1,0,0:0:0:0:
402,192,48804,1,0,0:0:0:0:
36,192,48921,1,2,0:0:0:0:
109,192,48921,1,8,0:0:0:0:
256,192,48921,1,0,0:0:0:0:
475,192,48921,1,0,0:0:0:0:
109,192,49037,1,0,0:0:0:0:
182,192,49037,1,0,0:0:0:0:
329,192,49153,1,0,0:0:0:0:
402,192,49153,1,0,0:0:0:0:
182,192,49270,1,0,0:0:0:0:
109,192,49386,1,2,0:0:0:0:
182,192,49386,1,0,0:0:0:0:
256,192,49386,1,0,0:0:0:0:
475,192,49386,1,0,0:0:0:0:
329,192,49502,1,0,0:0:0:0:
402,192,49502,1,0,0:0:0:0:
329,192,49618,1,0,0:0:0:0:
109,192,49735,1,0,0:0:0:0:
182,192,49735,1,0,0:0:0:0:
36,192,49851,1,8,0:0:0:0:
329,192,49851,1,2,0:0:0:0:
402,192,49851,1,0,0:0:0:0:
475,192,49851,1,0,0:0:0:0:
402,192,49967,1,0,0:0:0:0:
109,192,50083,1,0,0:0:0:0:
182,192,50083,1,0,0:0:0:0:
329,192,50200,1,0,0:0:0:0:
402,192,50200,1,0,0:0:0:0:
36,192,50316,1,2,0:0:0:0:
256,192,50316,1,0,0:0:0:0:
329,192,50316,1,0,0:0:0:0:
475,192,50316,1,0,0:0:0:0:
109,192,50432,1,0,0:0:0:0:
182,192,50432,1,0,0:0:0:0:
329,192,50549,1,0,0:0:0:0:
402,192,50549,1,0,0:0:0:0:
109,192,50665,1,0,0:0:0:0:
36,192,50781,1,8,0:0:0:0:
109,192,50781,1,2,0:0:0:0:
182,192,50781,1,0,0:0:0:0:
475,192,50781,1,0,0:0:0:0:
329,192,50897,1,0,0:0:0:0:
402,192,50897,1,0,0:0:0:0:
182,192,51014,1,0,0:0:0:0:
109,192,51130,1,0,0:0:0:0:
182,192,51130,1,0,0:0:0:0:
36,192,51246,1,2,0:0:0:0:
329,192,51246,1,0,0:0:0:0:
402,192,51246,1,0,0:0:0:0:
475,192,51246,1,0,0:0:0:0:
402,192,51363,1,0,0:0:0:0:
182,192,51479,1,0,0:0:0:0:
182,192,51595,1,0,0:0:0:0:
256,192,51595,1,0,0:0:0:0:
329,192,51595,1,0,0:0:0:0:
36,192,51711,1,2,0:0:0:0:
109,192,51711,1,8,0:0:0:0:
402,192,51711,1,0,0:0:0:0:
475,192,51711,1,0,0:0:0:0:
109,192,51828,1,0,0:0:0:0:
182,192,51944,1,0,0:0:0:0:
256,192,51944,1,0,0:0:0:0:
329,192,51944,1,0,0:0:0:0:
329,192,52060,1,0,0:0:0:0:
36,192,52177,1,2,0:0:0:0:
109,192,52177,1,0,0:0:0:0:
256,192,52177,1,0,0:0:0:0:
402,192,52177,1,0,0:0:0:0:
475,192,52177,1,0,0:0:0:0:
109,192,52293,1,0,0:0:0:0:
329,192,52409,1,0,0:0:0:0:
402,192,52409,1,0,0:0:0:0:
109,192,52525,1,0,0:0:0:0:
182,192,52525,1,0,0:0:0:0:
36,192,52642,1,8,0:0:0:0:
256,192,52642,1,2,0:0:0:0:
402,192,52642,1,0,0:0:0:0:
475,192,52642,1,0,0:0:0:0:
329,192,52758,1,0,0:0:0:0:
402,192,52758,1,0,0:0:0:0:
109,192,52874,1,0,0:0:0:0:
182,192,52874,1,0,0:0:0:0:
329,192,52990,1,0,0:0:0:0:
36,192,53107,1,2,0:0:0:0:
256,192,53107,1,0,0:0:0:0:
329,192,53107,1,0,0:0:0:0:
402,192,53107,1,0,0:0:0:0:
109,192,53223,1,0,0:0:0:0:
182,192,53223,1,0,0:0:0:0:
182,192,53339,1,0,0:0:0:0:
329,192,53456,1,0,0:0:0:0:
402,192,53456,1,0,0:0:0:0:
36,192,53572,1,8,0:0:0:0:
109,192,53572,1,2,0:0:0:0:
182,192,53572,1,0,0:0:0:0:
475,192,53572,1,0,0:0:0:0:
109,192,53688,1,0,0:0:0:0:
329,192,53804,1,0,0:0:0:0:
402,192,53804,1,0,0:0:0:0:
109,192,53921,1,0,0:0:0:0:
182,192,53921,1,0,0:0:0:0:
36,192,54037,1,2,0:0:0:0:
182,192,54037,1,0,0:0:0:0:
256,192,54037,1,0,0:0:0:0:
475,192,54037,1,0,0:0:0:0:
329,192,54153,1,0,0:0:0:0:
402,192,54153,1,0,0:0:0:0:
109,192,54270,1,0,0:0:0:0:
182,192,54270,1,0,0:0:0:0:
402,192,54386,1,0,0:0:0:0:
36,192,54502,1,8,0:0:0:0:
329,192,54502,1,2,0:0:0:0:
402,192,54502,1,0,0:0:0:0:
475,192,54502,1,0,0:0:0:0:
109,192,54618,1,0,0:0:0:0:
182,192,54618,1,0,0:0:0:0:
329,192,54735,1,0,0:0:0:0:
329,192,54851,1,0,0:0:0:0:
402,192,54851,1,0,0:0:0:0:
36,192,54967,1,2,0:0:0:0:
109,192,54967,1,0,0:0:0:0:
182,192,54967,1,0,0:0:0:0:
475,192,54967,1,0,0:0:0:0:
109,192,55083,1,0,0:0:0:0:
329,192,55200,1,0,0:0:0:0:
182,192,55316,1,0,0:0:0:0:
256,192,55316,1,0,0:0:0:0:
329,192,55316,1,0,0:0:0:0:
36,192,55432,1,2,0:0:0:0:
109,192,55432,1,8,0:0:0:0:
402,192,55432,1,0,0:0:0:0:
475,192,55432,1,0,0:0:0:0:
402,192,55549,1,0,0:0:0:0:
182,192,55665,1,0,0:0:0:0:
256,192,55665,1,0,0:0:0:0:
329,192,55665,1,0,0:0:0:0:
182,192,55781,1,0,0:0:0:0:
36,192,55897,1,2,0:0:0:0:
109,192,55897,1,0,0:0:0:0:
256,192,55897,1,0,0:0:0:0:
402,192,55897,1,0,0:0:0:0:
475,192,55897,1,0,0:0:0:0:
109,192,56014,1,0,0:0:0:0:
329,192,56130,1,0,0:0:0:0:
402,192,56130,1,0,0:0:0:0:
109,192,56246,1,0,0:0:0:0:
182,192,56246,1,0,0:0:0:0:
36,192,56363,1,8,0:0:0:0:
329,192,56363,1,2,0:0:0:0:
402,192,56363,1,0,0:0:0:0:
475,192,56363,1,0,0:0:0:0:
329,192,56479,1,0,0:0:0:0:
402,192,56479,1,0,0:0:0:0:
109,192,56595,1,0,0:0:0:0:
182,192,56595,1,0,0:0:0:0:
256,192,56711,1,0,0:0:0:0:
36,192,56828,1,2,0:0:0:0:
182,192,56828,1,0,0:0:0:0:
329,192,56828,1,0,0:0:0:0:
402,192,56828,1,0,0:0:0:0:
109,192,56944,1,0,0:0:0:0:
182,192,56944,1,0,0:0:0:0:
256,192,57060,1,0,0:0:0:0:
329,192,57177,1,0,0:0:0:0:
402,192,57177,1,0,0:0:0:0:
109,192,57293,1,8,0:0:0:0:
182,192,57293,1,2,0:0:0:0:
329,192,57293,1,0,0:0:0:0:
475,192,57293,1,0,0:0:0:0:
182,192,57409,1,0,0:0:0:0:
329,192,57525,1,0,0:0:0:0:
402,192,57525,1,0,0:0:0:0:
109,192,57642,1,0,0:0:0:0:
182,192,57642,1,0,0:0:0:0:
36,192,57758,1,2,0:0:0:0:
109,192,57758,1,0,0:0:0:0:
329,192,57758,1,0,0:0:0:0:
402,192,57758,1,0,0:0:0:0:
475,192,57758,1,0,0:0:0:0:
329,192,57874,1,0,0:0:0:0:
402,192,57874,1,0,0:0:0:0:
256,192,57990,1,0,0:0:0:0:
109,192,58107,1,0,0:0:0:0:
182,192,58107,1,0,0:0:0:0:
36,192,58223,1,2,0:0:0:0:
329,192,58223,1,8,0:0:0:0:
402,192,58223,1,0,0:0:0:0:
475,192,58223,1,0,0:0:0:0:
182,192,58339,1,0,0:0:0:0:
329,192,58339,1,0,0:0:0:0:
182,192,58456,1,0,0:0:0:0:
256,192,58572,1,0,0:0:0:0:
329,192,58572,1,0,0:0:0:0:
36,192,58688,1,2,0:0:0:0:
109,192,58688,1,0,0:0:0:0:
182,192,58688,1,0,0:0:0:0:
475,192,58688,1,0,0:0:0:0:
109,192,58804,1,0,0:0:0:0:
182,192,58804,1,0,0:0:0:0:
256,192,58921,1,0,0:0:0:0:
329,192,59037,1,0,0:0:0:0:
402,192,59037,1,0,0:0:0:0:
36,192,59153,1,8,0:0:0:0:
109,192,59153,1,2,0:0:0:0:
182,192,59153,1,0,0:0:0:0:
475,192,59153,1,0,0:0:0:0:
182,192,59270,1,0,0:0:0:0:
329,192,59270,1,0,0:0:0:0:
329,192,59386,1,0,0:0:0:0:
182,192,59502,1,0,0:0:0:0:
256,192,59502,1,0,0:0:0:0:
36,192,59618,1,2,0:0:0:0:
109,192,59618,1,0,0:0:0:0:
329,192,59618,1,0,0:0:0:0:
402,192,59618,1,0,0:0:0:0:
475,192,59618,1,0,0:0:0:0:
256,192,59735,1,0,0:0:0:0:
329,192,59851,1,0,0:0:0:0:
402,192,59851,1,0,0:0:0:0:
475,192,59851,1,0,0:0:0:0:
109,192,59967,1,0,0:0:0:0:
402,192,59967,1,0,0:0:0:0:
109,192,60083,1,2,0:0:0:0:
182,192,60083,1,8,0:0:0:0:
329,192,60200,1,0,0:0:0:0:
402,192,60200,1,0,0:0:0:0:
475,192,60200,1,0,0:0:0:0:
36,192,60316,1,0,0:0:0:0:
256,192,60316,1,0,0:0:0:0:
329,192,60432,1,0,0:0:0:0:
402,192,60432,1,0,0:0:0:0:
36,192,60549,1,2,0:0:0:0:
109,192,60549,1,0,0:0:0:0:
182,192,60549,1,0,0:0:0:0:
256,192,60665,1,0,0:0:0:0:
475,192,60665,1,0,0:0:0:0:
329,192,60781,1,0,0:0:0:0:
402,192,60781,1,0,0:0:0:0:
36,192,60897,1,0,0:0:0:0:
109,192,60897,1,0,0:0:0:0:
182,192,60897,1,0,0:0:0:0:
109,192,61014,1,2,0:0:0:0:
402,192,61014,1,8,0:0:0:0:
329,192,61130,1,0,0:0:0:0:
402,192,61130,1,0,0:0:0:0:
36,192,61246,1,0,0:0:0:0:
109,192,61246,1,0,0:0:0:0:
182,192,61246,1,0,0:0:0:0:
182,192,61363,1,0,0:0:0:0:
329,192,61363,1,0,0:0:0:0:
36,192,61479,1,8,0:0:0:0:
109,192,61479,1,0,0:0:0:70:tom02.wav
402,192,61479,1,0,0:0:0:0:
475,192,61479,1,0,0:0:0:0:
329,192,61595,1,0,0:0:0:0:
182,192,61711,1,0,0:0:0:0:
36,192,61828,1,8,0:0:0:0:
109,192,61828,1,0,0:0:0:70:tom02.wav
402,192,61828,1,0,0:0:0:0:
475,192,61828,1,0,0:0:0:0:
182,192,61944,1,0,0:0:0:0:
329,192,62060,1,0,0:0:0:0:
36,192,62177,1,8,0:0:0:0:
109,192,62177,1,0,0:0:0:70:tom02.wav
402,192,62177,1,0,0:0:0:0:
475,192,62177,1,0,0:0:0:0:
329,192,62293,1,0,0:0:0:0:
256,192,62409,1,0,0:0:0:0:
402,192,62525,1,0,0:0:0:0:
475,192,62525,1,0,0:0:0:0:
109,192,62525,1,0,0:0:0:70:tom02.wav
36,192,62525,1,8,0:0:0:0:
182,192,62642,1,0,0:0:0:0:
256,192,62758,1,0,0:0:0:0:
36,192,62874,1,8,0:0:0:0:
402,192,62874,1,0,0:0:0:0:
475,192,62874,1,0,0:0:0:0:
109,192,62874,1,0,0:0:0:70:tom02.wav
329,192,62990,1,0,0:0:0:0:
256,192,63107,1,0,0:0:0:0:
36,192,63223,1,8,0:0:0:0:
109,192,63223,1,0,0:0:0:70:tom02.wav
402,192,63223,1,0,0:0:0:0:
475,192,63223,1,0,0:0:0:0:
36,192,63339,1,2,0:0:0:0:
109,192,63339,1,0,0:0:0:0:
256,192,63339,1,0,0:0:0:0:
402,192,63339,1,0,0:0:0:0:
475,192,63339,1,0,0:0:0:0:
256,192,63456,1,0,0:0:0:0:
329,192,63572,1,0,0:0:0:0:
402,192,63572,1,0,0:0:0:0:
475,192,63572,1,0,0:0:0:0:
109,192,63688,1,0,0:0:0:0:
402,192,63688,1,0,0:0:0:0:
109,192,63804,1,2,0:0:0:0:
182,192,63804,1,8,0:0:0:0:
329,192,63921,1,0,0:0:0:0:
402,192,63921,1,0,0:0:0:0:
475,192,63921,1,0,0:0:0:0:
36,192,64037,1,0,0:0:0:0:
256,192,64037,1,0,0:0:0:0:
329,192,64153,1,0,0:0:0:0:
402,192,64153,1,0,0:0:0:0:
36,192,64270,1,2,0:0:0:0:
109,192,64270,1,0,0:0:0:0:
182,192,64270,1,0,0:0:0:0:
256,192,64386,1,0,0:0:0:0:
475,192,64386,1,0,0:0:0:0:
329,192,64502,1,0,0:0:0:0:
402,192,64502,1,0,0:0:0:0:
36,192,64618,1,0,0:0:0:0:
109,192,64618,1,0,0:0:0:0:
182,192,64618,1,0,0:0:0:0:
109,192,64735,1,2,0:0:0:0:
402,192,64735,1,8,0:0:0:0:
329,192,64851,1,0,0:0:0:0:
402,192,64851,1,0,0:0:0:0:
36,192,64967,1,0,0:0:0:0:
109,192,64967,1,0,0:0:0:0:
182,192,64967,1,0,0:0:0:0:
182,192,65083,1,0,0:0:0:0:
329,192,65083,1,0,0:0:0:0:
36,192,65200,1,8,0:0:0:0:
109,192,65200,1,0,0:0:0:70:tom02.wav
402,192,65200,1,0,0:0:0:0:
475,192,65200,1,0,0:0:0:0:
329,192,65316,1,0,0:0:0:0:
182,192,65432,1,0,0:0:0:0:
36,192,65549,1,8,0:0:0:0:
109,192,65549,1,0,0:0:0:70:tom02.wav
402,192,65549,1,0,0:0:0:0:
475,192,65549,1,0,0:0:0:0:
182,192,65665,1,0,0:0:0:0:
329,192,65781,1,0,0:0:0:0:
36,192,65897,1,8,0:0:0:0:
109,192,65897,1,0,0:0:0:70:tom02.wav
402,192,65897,1,0,0:0:0:0:
475,192,65897,1,0,0:0:0:0:
329,192,66014,1,0,0:0:0:0:
256,192,66130,1,0,0:0:0:0:
36,192,66246,1,8,0:0:0:0:
109,192,66246,1,0,0:0:0:70:tom02.wav
402,192,66246,1,0,0:0:0:0:
475,192,66246,1,0,0:0:0:0:
182,192,66363,1,0,0:0:0:0:
256,192,66479,1,0,0:0:0:0:
36,192,66595,1,8,0:0:0:0:
109,192,66595,1,0,0:0:0:70:tom02.wav
402,192,66595,1,0,0:0:0:0:
475,192,66595,1,0,0:0:0:0:
329,192,66711,1,0,0:0:0:0:
256,192,66828,1,0,0:0:0:0:
36,192,66944,1,8,0:0:0:0:
109,192,66944,1,0,0:0:0:70:tom02.wav
402,192,66944,1,0,0:0:0:0:
475,192,66944,1,0,0:0:0:0:
36,192,67060,1,2,0:0:0:0:
109,192,67060,1,0,0:0:0:0:
256,192,67060,1,0,0:0:0:0:
402,192,67060,1,0,0:0:0:0:
475,192,67060,1,0,0:0:0:0:
36,192,67177,1,0,0:0:0:0:
329,192,67293,1,0,0:0:0:0:
329,192,67409,1,0,0:0:0:0:
36,192,67525,1,0,0:0:0:0:
329,192,67642,1,0,0:0:0:0:
475,192,67642,1,0,0:0:0:0:
36,192,67758,1,0,0:0:0:0:
36,192,67874,1,0,0:0:0:0:
329,192,67990,1,0,0:0:0:0:
475,192,67990,1,0,0:0:0:0:
36,192,68107,1,0,0:0:0:0:
36,192,68223,1,0,0:0:0:0:
329,192,68339,1,0,0:0:0:0:
475,192,68339,1,0,0:0:0:0:
36,192,68456,1,0,0:0:0:0:
36,192,68572,1,0,0:0:0:0:
329,192,68688,1,0,0:0:0:0:
475,192,68688,1,0,0:0:0:0:
36,192,68804,1,0,0:0:0:0:
256,192,68921,1,0,0:0:0:0:
475,192,68921,1,0,0:0:0:0:
475,192,69037,1,0,0:0:0:0:
475,192,69153,1,0,0:0:0:0:
475,192,69270,1,0,0:0:0:0:
36,192,69386,1,0,0:0:0:0:
109,192,69425,1,0,0:0:0:0:
182,192,69463,1,0,0:0:0:0:
256,192,69502,1,0,0:0:0:0:
475,192,69618,1,0,0:0:0:0:
329,192,69618,1,0,0:0:0:0:
36,192,69735,1,0,0:0:0:0:
109,192,69773,1,0,0:0:0:0:
182,192,69812,1,0,0:0:0:0:
256,192,69851,1,0,0:0:0:0:
475,192,69967,1,0,0:0:0:0:
329,192,69967,1,0,0:0:0:0:
36,192,70083,1,0,0:0:0:0:
109,192,70122,1,0,0:0:0:0:
182,192,70161,1,0,0:0:0:0:
256,192,70200,1,0,0:0:0:0:
36,192,70316,1,8,0:0:0:0:
109,192,70316,1,0,0:0:0:0:
182,192,70316,1,0,0:0:0:0:
329,192,70316,1,0,0:0:0:0:
402,192,70316,1,0,0:0:0:0:
475,192,70316,1,0,0:0:0:0:
36,192,70781,1,2,0:0:0:0:
109,192,70781,1,0,0:0:0:0:
256,192,70781,1,0,0:0:0:0:
402,192,70781,1,0,0:0:0:0:
475,192,70781,1,0,0:0:0:0:
109,192,70897,1,0,0:0:0:0:
329,192,71014,1,0,0:0:0:0:
402,192,71014,1,0,0:0:0:0:
109,192,71130,1,0,0:0:0:0:
182,192,71130,1,0,0:0:0:0:
36,192,71246,1,8,0:0:0:0:
256,192,71246,1,2,0:0:0:0:
402,192,71246,1,0,0:0:0:0:
475,192,71246,1,0,0:0:0:0:
329,192,71363,1,0,0:0:0:0:
402,192,71363,1,0,0:0:0:0:
109,192,71479,1,0,0:0:0:0:
182,192,71479,1,0,0:0:0:0:
329,192,71595,1,0,0:0:0:0:
36,192,71711,1,2,0:0:0:0:
256,192,71711,1,0,0:0:0:0:
329,192,71711,1,0,0:0:0:0:
402,192,71711,1,0,0:0:0:0:
109,192,71828,1,0,0:0:0:0:
182,192,71828,1,0,0:0:0:0:
182,192,71944,1,0,0:0:0:0:
329,192,72060,1,0,0:0:0:0:
402,192,72060,1,0,0:0:0:0:
36,192,72177,1,2,0:0:0:0:
109,192,72177,1,8,0:0:0:0:
182,192,72177,1,0,0:0:0:0:
475,192,72177,1,0,0:0:0:0:
109,192,72293,1,0,0:0:0:0:
329,192,72409,1,0,0:0:0:0:
402,192,72409,1,0,0:0:0:0:
109,192,72525,1,0,0:0:0:0:
182,192,72525,1,0,0:0:0:0:
36,192,72642,1,2,0:0:0:0:
182,192,72642,1,0,0:0:0:0:
256,192,72642,1,0,0:0:0:0:
475,192,72642,1,0,0:0:0:0:
329,192,72758,1,0,0:0:0:0:
402,192,72758,1,0,0:0:0:0:
109,192,72874,1,0,0:0:0:0:
182,192,72874,1,0,0:0:0:0:
402,192,72990,1,0,0:0:0:0:
36,192,73107,1,8,0:0:0:0:
329,192,73107,1,2,0:0:0:0:
402,192,73107,1,0,0:0:0:0:
475,192,73107,1,0,0:0:0:0:
109,192,73223,1,0,0:0:0:0:
182,192,73223,1,0,0:0:0:0:
329,192,73339,1,0,0:0:0:0:
329,192,73456,1,0,0:0:0:0:
402,192,73456,1,0,0:0:0:0:
36,192,73572,1,2,0:0:0:0:
109,192,73572,1,0,0:0:0:0:
182,192,73572,1,0,0:0:0:0:
475,192,73572,1,0,0:0:0:0:
329,192,73688,1,0,0:0:0:0:
402,192,73688,1,0,0:0:0:0:
256,192,73804,1,0,0:0:0:0:
109,192,73921,1,0,0:0:0:0:
182,192,73921,1,0,0:0:0:0:
36,192,74037,1,8,0:0:0:0:
329,192,74037,1,2,0:0:0:0:
402,192,74037,1,0,0:0:0:0:
475,192,74037,1,0,0:0:0:0:
182,192,74153,1,0,0:0:0:0:
329,192,74153,1,0,0:0:0:0:
182,192,74270,1,0,0:0:0:0:
256,192,74386,1,0,0:0:0:0:
329,192,74386,1,0,0:0:0:0:
36,192,74502,1,2,0:0:0:0:
109,192,74502,1,0,0:0:0:0:
256,192,74502,1,0,0:0:0:0:
402,192,74502,1,0,0:0:0:0:
475,192,74502,1,0,0:0:0:0:
402,192,74618,1,0,0:0:0:0:
109,192,74735,1,0,0:0:0:0:
182,192,74735,1,0,0:0:0:0:
329,192,74851,1,0,0:0:0:0:
402,192,74851,1,0,0:0:0:0:
36,192,74967,1,2,0:0:0:0:
109,192,74967,1,8,0:0:0:0:
256,192,74967,1,0,0:0:0:0:
475,192,74967,1,0,0:0:0:0:
109,192,75083,1,0,0:0:0:0:
182,192,75083,1,0,0:0:0:0:
329,192,75200,1,0,0:0:0:0:
402,192,75200,1,0,0:0:0:0:
182,192,75316,1,0,0:0:0:0:
109,192,75432,1,2,0:0:0:0:
182,192,75432,1,0,0:0:0:0:
256,192,75432,1,0,0:0:0:0:
475,192,75432,1,0,0:0:0:0:
329,192,75549,1,0,0:0:0:0:
402,192,75549,1,0,0:0:0:0:
329,192,75665,1,0,0:0:0:0:
109,192,75781,1,0,0:0:0:0:
182,192,75781,1,0,0:0:0:0:
36,192,75897,1,8,0:0:0:0:
329,192,75897,1,2,0:0:0:0:
402,192,75897,1,0,0:0:0:0:
475,192,75897,1,0,0:0:0:0:
402,192,76014,1,0,0:0:0:0:
109,192,76130,1,0,0:0:0:0:
182,192,76130,1,0,0:0:0:0:
329,192,76246,1,0,0:0:0:0:
402,192,76246,1,0,0:0:0:0:
36,192,76363,1,2,0:0:0:0:
256,192,76363,1,0,0:0:0:0:
329,192,76363,1,0,0:0:0:0:
475,192,76363,1,0,0:0:0:0:
109,192,76479,1,0,0:0:0:0:
182,192,76479,1,0,0:0:0:0:
329,192,76595,1,0,0:0:0:0:
402,192,76595,1,0,0:0:0:0:
109,192,76711,1,0,0:0:0:0:
36,192,76828,1,8,0:0:0:0:
109,192,76828,1,2,0:0:0:0:
182,192,76828,1,0,0:0:0:0:
475,192,76828,1,0,0:0:0:0:
329,192,76944,1,0,0:0:0:0:
402,192,76944,1,0,0:0:0:0:
182,192,77060,1,0,0:0:0:0:
109,192,77177,1,0,0:0:0:0:
182,192,77177,1,0,0:0:0:0:
36,192,77293,1,2,0:0:0:0:
329,192,77293,1,0,0:0:0:0:
402,192,77293,1,0,0:0:0:0:
475,192,77293,1,0,0:0:0:0:
256,192,77409,1,0,0:0:0:0:
109,192,77525,1,0,0:0:0:0:
402,192,77525,1,0,0:0:0:0:
109,192,77642,1,0,0:0:0:0:
329,192,77642,1,0,0:0:0:0:
36,192,77758,1,2,0:0:0:0:
182,192,77758,1,8,0:0:0:0:
256,192,77758,1,0,0:0:0:0:
475,192,77758,1,0,0:0:0:0:
256,192,77874,1,0,0:0:0:0:
109,192,77990,1,0,0:0:0:0:
402,192,77990,1,0,0:0:0:0:
182,192,78107,1,0,0:0:0:0:
402,192,78107,1,0,0:0:0:0:
36,192,78223,1,2,0:0:0:0:
256,192,78223,1,0,0:0:0:0:
475,192,78223,1,0,0:0:0:0:
329,192,78223,1,0,0:0:0:0:
36,192,78339,1,0,0:0:0:0:
329,192,78456,1,0,0:0:0:0:
402,192,78456,1,0,0:0:0:0:
109,192,78572,1,0,0:0:0:0:
182,192,78572,1,0,0:0:0:0:
36,192,78688,1,8,0:0:0:0:
256,192,78688,1,2,0:0:0:0:
402,192,78688,1,0,0:0:0:0:
475,192,78688,1,0,0:0:0:0:
329,192,78804,1,0,0:0:0:0:
402,192,78804,1,0,0:0:0:0:
109,192,78921,1,0,0:0:0:0:
182,192,78921,1,0,0:0:0:0:
329,192,79037,1,0,0:0:0:0:
36,192,79153,1,2,0:0:0:0:
256,192,79153,1,0,0:0:0:0:
329,192,79153,1,0,0:0:0:0:
402,192,79153,1,0,0:0:0:0:
109,192,79270,1,0,0:0:0:0:
182,192,79270,1,0,0:0:0:0:
182,192,79386,1,0,0:0:0:0:
329,192,79502,1,0,0:0:0:0:
402,192,79502,1,0,0:0:0:0:
36,192,79618,1,8,0:0:0:0:
109,192,79618,1,2,0:0:0:0:
182,192,79618,1,0,0:0:0:0:
475,192,79618,1,0,0:0:0:0:
109,192,79735,1,0,0:0:0:0:
329,192,79851,1,0,0:0:0:0:
402,192,79851,1,0,0:0:0:0:
109,192,79967,1,0,0:0:0:0:
182,192,79967,1,0,0:0:0:0:
36,192,80083,1,2,0:0:0:0:
182,192,80083,1,0,0:0:0:0:
256,192,80083,1,0,0:0:0:0:
475,192,80083,1,0,0:0:0:0:
329,192,80200,1,0,0:0:0:0:
402,192,80200,1,0,0:0:0:0:
109,192,80316,1,0,0:0:0:0:
182,192,80316,1,0,0:0:0:0:
402,192,80432,1,0,0:0:0:0:
36,192,80549,1,8,0:0:0:0:
329,192,80549,1,2,0:0:0:0:
402,192,80549,1,0,0:0:0:0:
475,192,80549,1,0,0:0:0:0:
109,192,80665,1,0,0:0:0:0:
182,192,80665,1,0,0:0:0:0:
329,192,80781,1,0,0:0:0:0:
329,192,80897,1,0,0:0:0:0:
402,192,80897,1,0,0:0:0:0:
36,192,81014,1,2,0:0:0:0:
109,192,81014,1,0,0:0:0:0:
182,192,81014,1,0,0:0:0:0:
475,192,81014,1,0,0:0:0:0:
329,192,81130,1,0,0:0:0:0:
402,192,81130,1,0,0:0:0:0:
256,192,81246,1,0,0:0:0:0:
109,192,81363,1,0,0:0:0:0:
182,192,81363,1,0,0:0:0:0:
36,192,81479,1,2,0:0:0:0:
329,192,81479,1,8,0:0:0:0:
402,192,81479,1,0,0:0:0:0:
475,192,81479,1,0,0:0:0:0:
182,192,81595,1,0,0:0:0:0:
329,192,81595,1,0,0:0:0:0:
256,192,81711,1,0,0:0:0:0:
36,192,81828,1,0,0:0:0:0:
256,192,81828,1,0,0:0:0:0:
475,192,81828,1,0,0:0:0:0:
109,192,81944,1,2,0:0:0:0:
182,192,81944,1,0,0:0:0:0:
329,192,81944,1,0,0:0:0:0:
402,192,81944,1,0,0:0:0:0:
109,192,82060,1,0,0:0:0:0:
182,192,82060,1,0,0:0:0:0:
329,192,82060,1,0,0:0:0:0:
402,192,82060,1,0,0:0:0:0:
109,192,82177,1,0,0:0:0:0:
182,192,82177,1,0,0:0:0:0:
329,192,82177,1,0,0:0:0:0:
402,192,82177,1,0,0:0:0:0:
256,192,82293,1,0,0:0:0:0:
36,192,82409,1,8,0:0:0:0:
109,192,82409,1,2,0:0:0:0:
182,192,82409,1,0,0:0:0:0:
329,192,82525,1,0,0:0:0:0:
475,192,82525,1,0,0:0:0:0:
182,192,82642,1,0,0:0:0:0:
329,192,82642,1,0,0:0:0:0:
256,192,82758,1,0,0:0:0:0:
36,192,82874,1,2,0:0:0:0:
109,192,82874,1,0,0:0:0:0:
182,192,82874,1,0,0:0:0:0:
475,192,82874,1,0,0:0:0:0:
36,192,82990,1,0,0:0:0:0:
329,192,82990,1,0,0:0:0:0:
182,192,83107,1,0,0:0:0:0:
329,192,83107,1,0,0:0:0:0:
256,192,83223,1,0,0:0:0:0:
329,192,83339,1,8,0:0:0:0:
402,192,83339,1,2,0:0:0:0:
475,192,83339,1,0,0:0:0:0:
182,192,83456,1,0,0:0:0:0:
475,192,83456,1,0,0:0:0:0:
182,192,83572,1,0,0:0:0:0:
329,192,83572,1,0,0:0:0:0:
256,192,83688,1,0,0:0:0:0:
36,192,83804,1,2,0:0:0:0:
109,192,83804,1,0,0:0:0:70:Sweepdown.wav
182,192,83804,1,0,0:0:0:0:
329,192,83804,1,0,0:0:0:0:
402,192,83804,1,0,0:0:0:0:
475,192,83804,1,0,0:0:0:0:
36,192,84153,1,2,0:0:0:0:
109,192,84153,1,0,0:0:0:0:
182,192,84153,1,0,0:0:0:0:
329,192,84153,1,0,0:0:0:0:
402,192,84153,1,0,0:0:0:0:
475,192,84153,1,0,0:0:0:0:
36,192,84502,1,2,0:0:0:0:
109,192,84502,1,0,0:0:0:0:
182,192,84502,1,0,0:0:0:0:
329,192,84502,1,0,0:0:0:0:
402,192,84502,1,0,0:0:0:0:
475,192,84502,1,0,0:0:0:0:
36,192,84851,1,2,0:0:0:0:
109,192,84851,1,0,0:0:0:0:
182,192,84851,1,0,0:0:0:0:
329,192,84851,1,0,0:0:0:0:
402,192,84851,1,0,0:0:0:0:
475,192,84851,1,0,0:0:0:0:
36,192,85200,1,2,0:0:0:0:
109,192,85200,1,0,0:0:0:0:
182,192,85200,1,0,0:0:0:0:
329,192,85200,1,0,0:0:0:0:
402,192,85200,1,0,0:0:0:0:
475,192,85200,1,0,0:0:0:0:
475,192,85665,1,0,0:0:0:0:
402,192,85694,1,0,0:0:0:0:
329,192,85723,1,0,0:0:0:0:
256,192,85752,1,0,0:0:0:0:
475,192,87525,1,0,0:0:0:0:
402,192,87554,1,0,0:0:0:0:
329,192,87583,1,0,0:0:0:0:
182,192,87613,1,0,0:0:0:0:
36,192,89386,1,0,0:0:0:0:
109,192,89415,1,0,0:0:0:0:
182,192,89444,1,0,0:0:0:0:
256,192,89473,1,0,0:0:0:0:
182,192,91246,1,0,0:0:0:0:
256,192,91275,1,0,0:0:0:0:
329,192,91304,1,0,0:0:0:0:
402,192,91333,1,0,0:0:0:0:
475,192,93107,1,0,0:0:0:0:
402,192,93136,1,0,0:0:0:0:
329,192,93165,1,0,0:0:0:0:
256,192,93194,1,0,0:0:0:0:
329,192,94967,1,0,0:0:0:0:
256,192,94996,1,0,0:0:0:0:
182,192,95025,1,0,0:0:0:0:
109,192,95054,1,0,0:0:0:0:
36,192,96828,1,0,0:0:0:0:
109,192,96857,1,0,0:0:0:0:
182,192,96886,1,0,0:0:0:0:
256,192,96915,1,0,0:0:0:0:
182,192,98688,1,0,0:0:0:0:
256,192,98717,1,0,0:0:0:0:
329,192,98746,1,0,0:0:0:0:
402,192,98775,1,0,0:0:0:0:
475,192,100549,1,0,0:0:0:0:
402,192,100578,1,0,0:0:0:0:
329,192,100607,1,0,0:0:0:0:
256,192,100636,1,0,0:0:0:0:
36,192,100859,1,0,0:0:0:0:
182,192,101169,1,0,0:0:0:0:
329,192,101479,1,0,0:0:0:0:
329,192,101789,1,0,0:0:0:0:
182,192,102099,1,0,0:0:0:0:
475,192,102409,1,0,0:0:0:0:
402,192,102438,1,0,0:0:0:0:
329,192,102467,1,0,0:0:0:0:
182,192,102496,1,0,0:0:0:0:
36,192,102719,1,0,0:0:0:0:
182,192,103029,1,0,0:0:0:0:
329,192,103339,1,0,0:0:0:0:
329,192,103649,1,0,0:0:0:0:
182,192,103959,1,0,0:0:0:0:
36,192,104270,1,0,0:0:0:0:
109,192,104299,1,0,0:0:0:0:
182,192,104328,1,0,0:0:0:0:
256,192,104357,1,0,0:0:0:0:
36,192,104502,1,0,0:0:0:0:
182,192,104735,1,0,0:0:0:0:
329,192,104967,1,0,0:0:0:0:
329,192,105200,1,0,0:0:0:0:
256,192,105432,1,0,0:0:0:0:
182,192,105665,1,0,0:0:0:0:
109,192,105897,1,0,0:0:0:0:
182,192,106130,1,0,0:0:0:0:
256,192,106159,1,0,0:0:0:0:
329,192,106188,1,0,0:0:0:0:
402,192,106217,1,0,0:0:0:0:
182,192,106363,1,0,0:0:0:0:
329,192,106595,1,0,0:0:0:0:
475,192,106828,1,0,0:0:0:0:
475,192,107060,1,0,0:0:0:0:
402,192,107293,1,0,0:0:0:0:
329,192,107525,1,0,0:0:0:0:
256,192,107758,1,0,0:0:0:0:
475,192,107990,1,0,0:0:0:0:
402,192,108020,1,0,0:0:0:0:
329,192,108049,1,0,0:0:0:0:
36,192,108107,1,0,0:0:0:0:
182,192,108223,1,0,0:0:0:0:
329,192,108339,1,0,0:0:0:0:
402,192,108456,1,0,0:0:0:0:
256,192,108572,1,0,0:0:0:0:
182,192,108688,1,0,0:0:0:0:
109,192,108804,1,0,0:0:0:0:
256,192,108921,1,0,0:0:0:0:
329,192,109037,1,0,0:0:0:0:
402,192,109153,1,0,0:0:0:0:
475,192,109270,1,0,0:0:0:0:
475,192,109386,1,0,0:0:0:0:
402,192,109502,1,0,0:0:0:0:
256,192,109618,1,0,0:0:0:0:
329,192,109735,1,0,0:0:0:0:
109,192,109851,1,0,0:0:0:0:
182,192,109880,1,0,0:0:0:0:
256,192,109909,1,0,0:0:0:0:
402,192,109967,1,0,0:0:0:0:
329,192,110083,1,0,0:0:0:0:
256,192,110200,1,0,0:0:0:0:
182,192,110316,1,0,0:0:0:0:
109,192,110432,1,0,0:0:0:0:
36,192,110549,1,0,0:0:0:0:
109,192,110665,1,0,0:0:0:0:
182,192,110781,1,0,0:0:0:0:
256,192,110897,1,0,0:0:0:0:
329,192,111014,1,0,0:0:0:0:
402,192,111130,1,0,0:0:0:0:
402,192,111246,1,0,0:0:0:0:
329,192,111363,1,0,0:0:0:0:
182,192,111479,1,0,0:0:0:0:
256,192,111595,1,0,0:0:0:0:
36,192,111711,1,0,0:0:0:0:
109,192,111740,1,0,0:0:0:0:
182,192,111770,1,0,0:0:0:0:
329,192,111828,1,0,0:0:0:0:
402,192,111944,1,0,0:0:0:0:
329,192,112060,1,0,0:0:0:0:
256,192,112177,1,0,0:0:0:0:
182,192,112293,1,0,0:0:0:0:
109,192,112409,1,0,0:0:0:0:
36,192,112525,1,0,0:0:0:0:
109,192,112642,1,0,0:0:0:0:
182,192,112758,1,0,0:0:0:0:
256,192,112874,1,0,0:0:0:0:
329,192,112990,1,0,0:0:0:0:
329,192,113107,1,0,0:0:0:0:
256,192,113223,1,0,0:0:0:0:
109,192,113339,1,0,0:0:0:0:
182,192,113456,1,0,0:0:0:0:
256,192,113572,1,0,0:0:0:0:
329,192,113601,1,0,0:0:0:0:
402,192,113630,1,0,0:0:0:0:
36,192,113688,1,0,0:0:0:0:
109,192,113804,1,0,0:0:0:0:
256,192,113921,1,0,0:0:0:0:
329,192,114037,1,0,0:0:0:0:
256,192,114153,1,0,0:0:0:0:
182,192,114270,1,0,0:0:0:0:
109,192,114386,1,0,0:0:0:0:
182,192,114502,1,0,0:0:0:0:
256,192,114618,1,0,0:0:0:0:
329,192,114735,1,0,0:0:0:0:
402,192,114851,1,0,0:0:0:0:
402,192,114967,1,0,0:0:0:0:
329,192,115083,1,0,0:0:0:0:
182,192,115200,1,0,0:0:0:0:
256,192,115316,1,0,0:0:0:0:
475,192,115432,1,0,0:0:0:0:
402,192,115461,1,0,0:0:0:0:
329,192,115490,1,0,0:0:0:0:
36,192,115549,1,0,0:0:0:0:
182,192,115665,1,0,0:0:0:0:
329,192,115781,1,0,0:0:0:0:
402,192,115897,1,0,0:0:0:0:
256,192,116014,1,0,0:0:0:0:
182,192,116130,1,0,0:0:0:0:
109,192,116246,1,0,0:0:0:0:
256,192,116363,1,0,0:0:0:0:
329,192,116479,1,0,0:0:0:0:
402,192,116595,1,0,0:0:0:0:
475,192,116711,1,0,0:0:0:0:
475,192,116828,1,0,0:0:0:0:
402,192,116944,1,0,0:0:0:0:
256,192,117060,1,0,0:0:0:0:
329,192,117177,1,0,0:0:0:0:
109,192,117293,1,0,0:0:0:0:
182,192,117322,1,0,0:0:0:0:
256,192,117351,1,0,0:0:0:0:
402,192,117409,1,0,0:0:0:0:
329,192,117525,1,0,0:0:0:0:
256,192,117642,1,0,0:0:0:0:
182,192,117758,1,0,0:0:0:0:
109,192,117874,1,0,0:0:0:0:
36,192,117990,1,0,0:0:0:0:
109,192,118107,1,0,0:0:0:0:
182,192,118223,1,0,0:0:0:0:
256,192,118339,1,0,0:0:0:0:
329,192,118456,1,0,0:0:0:0:
402,192,118572,1,0,0:0:0:0:
402,192,118688,1,0,0:0:0:0:
329,192,118804,1,0,0:0:0:0:
182,192,118921,1,0,0:0:0:0:
256,192,119037,1,0,0:0:0:0:
36,192,119153,1,0,0:0:0:0:
109,192,119182,1,0,0:0:0:0:
182,192,119211,1,0,0:0:0:0:
329,192,119270,1,0,0:0:0:0:
402,192,119386,1,0,0:0:0:0:
182,192,119502,1,0,0:0:0:0:
256,192,119618,1,0,0:0:0:0:
182,192,119735,1,0,0:0:0:0:
109,192,119851,1,0,0:0:0:0:
36,192,119967,1,0,0:0:0:0:
109,192,120083,1,0,0:0:0:0:
182,192,120200,1,0,0:0:0:0:
256,192,120316,1,0,0:0:0:0:
329,192,120432,1,0,0:0:0:0:
329,192,120549,1,0,0:0:0:0:
256,192,120665,1,0,0:0:0:0:
109,192,120781,1,0,0:0:0:0:
182,192,120897,1,0,0:0:0:0:
256,192,121014,1,0,0:0:0:0:
329,192,121043,1,0,0:0:0:0:
402,192,121072,1,0,0:0:0:0:
36,192,121130,1,0,0:0:0:0:
109,192,121246,1,0,0:0:0:0:
182,192,121363,1,0,0:0:0:0:
329,192,121479,1,0,0:0:0:0:
256,192,121595,1,0,0:0:0:0:
182,192,121711,1,0,0:0:0:0:
109,192,121828,1,0,0:0:0:0:
182,192,121944,1,0,0:0:0:0:
256,192,122060,1,0,0:0:0:0:
329,192,122177,1,0,0:0:0:0:
402,192,122293,1,0,0:0:0:0:
402,192,122409,1,0,0:0:0:0:
329,192,122525,1,0,0:0:0:0:
256,192,122642,1,0,0:0:0:0:
182,192,122758,1,0,0:0:0:0:
36,192,122874,128,0,123339:0:0:0:0:
475,192,122874,128,0,123804:0:0:0:0:
329,192,123339,128,0,124270:0:0:0:0:
256,192,124270,128,0,124735:0:0:0:0:
36,192,124735,128,0,125200:0:0:0:0:
329,192,124735,128,0,125665:0:0:0:0:
182,192,125200,128,0,126130:0:0:0:0:
256,192,126130,128,0,126595:0:0:0:0:
182,192,126595,128,0,127525:0:0:0:0:
329,192,126595,128,0,127060:0:0:0:0:
402,192,127060,128,0,127990:0:0:0:0:
256,192,127990,128,0,128456:0:0:0:0:
36,192,128456,128,0,129386:0:0:0:0:
182,192,128456,128,0,128921:0:0:0:0:
402,192,128921,128,0,129851:0:0:0:0:
256,192,129851,128,0,130316:0:0:0:0:
36,192,130316,128,0,131246:0:0:0:0:
329,192,130316,128,0,130781:0:0:0:0:
182,192,130781,128,0,131944:0:0:0:0:
256,192,131944,128,0,132177:0:0:0:0:
36,192,132177,128,0,133107:0:0:0:0:
329,192,132177,128,0,132642:0:0:0:0:
182,192,132642,128,0,133804:0:0:0:0:
256,192,133804,128,0,134037:0:0:0:0:
36,192,134037,128,0,134967:0:0:0:0:
329,192,134037,128,0,134502:0:0:0:0:
182,192,134502,128,0,135432:0:0:0:0:
256,192,135432,128,0,135897:0:0:0:0:
182,192,135897,128,0,136828:0:0:0:0:
329,192,135897,128,0,136828:0:0:0:0:
256,192,136828,128,0,137758:0:0:0:0:
36,192,137758,128,0,138223:0:0:0:0:
475,192,137758,128,0,139153:0:0:0:0:
329,192,138223,128,0,139153:0:0:0:0:
256,192,139153,128,0,139618:0:0:0:0:
36,192,139618,128,0,140083:0:0:0:0:
329,192,139618,128,0,141014:0:0:0:0:
182,192,140083,128,0,141014:0:0:0:0:
256,192,141014,128,0,141479:0:0:0:0:
182,192,141479,128,0,142874:0:0:0:0:
329,192,141479,128,0,141944:0:0:0:0:
402,192,141944,128,0,142874:0:0:0:0:
256,192,142874,128,0,143339:0:0:0:0:
36,192,143339,128,0,144735:0:0:0:0:
182,192,143339,128,0,143804:0:0:0:0:
402,192,143804,128,0,144735:0:0:0:0:
256,192,144735,128,0,145200:0:0:0:0:
36,192,145200,128,0,146828:0:0:0:0:
329,192,145200,128,0,145665:0:0:0:0:
182,192,145665,128,0,146828:0:0:0:0:
256,192,146828,128,0,147060:0:0:0:0:
36,192,147060,128,0,148688:0:0:0:0:
329,192,147060,128,0,147525:0:0:0:0:
182,192,147525,128,0,148688:0:0:0:0:
256,192,148688,128,0,148921:0:0:0:0:
36,192,148921,128,0,150316:0:0:0:0:
329,192,148921,128,0,149386:0:0:0:0:
182,192,149386,128,0,150316:0:0:0:0:
256,192,150316,128,0,150781:0:0:0:0:
182,192,150781,128,0,151711:0:0:0:0:
329,192,150781,128,0,151711:0:0:0:0:
256,192,151711,128,0,152642:0:0:0:0:
36,192,152642,1,2,0:0:0:0:
109,192,152642,1,0,0:0:0:0:
475,192,152874,1,0,0:0:0:0:
402,192,152932,1,0,0:0:0:0:
329,192,152990,1,0,0:0:0:0:
256,192,153049,1,0,0:0:0:0:
36,192,153107,1,2,0:0:0:0:
109,192,153107,1,0,0:0:0:0:
475,192,153339,1,0,0:0:0:0:
402,192,153397,1,0,0:0:0:0:
329,192,153456,1,0,0:0:0:0:
256,192,153514,1,0,0:0:0:0:
36,192,153572,1,2,0:0:0:0:
109,192,153572,1,0,0:0:0:0:
475,192,153804,1,0,0:0:0:0:
402,192,153863,1,0,0:0:0:0:
329,192,153921,1,0,0:0:0:0:
256,192,153979,1,0,0:0:0:0:
36,192,154037,1,2,0:0:0:0:
109,192,154037,1,0,0:0:0:0:
475,192,154270,1,0,0:0:0:0:
402,192,154328,1,0,0:0:0:0:
329,192,154386,1,0,0:0:0:0:
256,192,154444,1,0,0:0:0:0:
36,192,154502,1,2,0:0:0:0:
109,192,154502,1,0,0:0:0:0:
475,192,154735,1,0,0:0:0:0:
402,192,154793,1,0,0:0:0:0:
329,192,154851,1,0,0:0:0:0:
256,192,154909,1,0,0:0:0:0:
36,192,154967,1,2,0:0:0:0:
109,192,154967,1,0,0:0:0:0:
475,192,155200,1,0,0:0:0:0:
402,192,155258,1,0,0:0:0:0:
329,192,155316,1,0,0:0:0:0:
256,192,155374,1,0,0:0:0:0:
36,192,155432,1,2,0:0:0:0:
109,192,155432,1,0,0:0:0:0:
475,192,155665,1,0,0:0:0:0:
402,192,155723,1,0,0:0:0:0:
329,192,155781,1,0,0:0:0:0:
256,192,155839,1,0,0:0:0:0:
36,192,155897,1,2,0:0:0:0:
109,192,155897,1,0,0:0:0:0:
182,192,156014,1,0,0:0:0:0:
475,192,156130,1,0,0:0:0:0:
402,192,156188,1,0,0:0:0:0:
329,192,156246,1,0,0:0:0:0:
256,192,156304,1,0,0:0:0:0:
36,192,156363,1,2,0:0:0:0:
109,192,156363,1,0,0:0:0:0:
475,192,156595,1,0,0:0:0:0:
402,192,156653,1,0,0:0:0:0:
329,192,156711,1,0,0:0:0:0:
256,192,156770,1,0,0:0:0:0:
36,192,156828,1,2,0:0:0:0:
109,192,156828,1,0,0:0:0:0:
475,192,157060,1,0,0:0:0:0:
402,192,157118,1,0,0:0:0:0:
329,192,157177,1,0,0:0:0:0:
256,192,157235,1,0,0:0:0:0:
36,192,157293,1,2,0:0:0:0:
109,192,157293,1,0,0:0:0:0:
475,192,157525,1,0,0:0:0:0:
402,192,157583,1,0,0:0:0:0:
329,192,157642,1,0,0:0:0:0:
256,192,157700,1,0,0:0:0:0:
36,192,157758,1,2,0:0:0:0:
109,192,157758,1,0,0:0:0:0:
475,192,157990,1,0,0:0:0:0:
402,192,158049,1,0,0:0:0:0:
329,192,158107,1,0,0:0:0:0:
256,192,158165,1,0,0:0:0:0:
36,192,158223,1,2,0:0:0:0:
109,192,158223,1,0,0:0:0:0:
182,192,158339,1,0,0:0:0:0:
475,192,158456,1,0,0:0:0:0:
402,192,158514,1,0,0:0:0:0:
329,192,158572,1,0,0:0:0:0:
256,192,158630,1,0,0:0:0:0:
36,192,158688,1,2,0:0:0:0:
109,192,158688,1,0,0:0:0:0:
182,192,158804,1,0,0:0:0:0:
475,192,158921,1,0,0:0:0:0:
402,192,158979,1,0,0:0:0:0:
329,192,159037,1,0,0:0:0:0:
256,192,159095,1,0,0:0:0:0:
36,192,159153,1,2,0:0:0:0:
109,192,159153,1,0,0:0:0:0:
182,192,159270,1,0,0:0:0:0:
475,192,159386,1,0,0:0:0:0:
402,192,159444,1,0,0:0:0:0:
329,192,159502,1,0,0:0:0:0:
256,192,159560,1,0,0:0:0:0:
36,192,159618,1,2,0:0:0:0:
109,192,159618,1,0,0:0:0:0:
182,192,159735,1,0,0:0:0:0:
475,192,159851,1,0,0:0:0:0:
402,192,159909,1,0,0:0:0:0:
329,192,159967,1,0,0:0:0:0:
256,192,160025,1,0,0:0:0:0:
36,192,160083,1,2,0:0:0:0:
109,192,160083,1,0,0:0:0:0:
402,192,160200,1,0,0:0:0:0:
182,192,160316,1,0,0:0:0:0:
256,192,160316,1,0,0:0:0:0:
329,192,160316,1,0,0:0:0:0:
109,192,160432,1,0,0:0:0:0:
402,192,160549,1,2,0:0:0:0:
182,192,160665,1,0,0:0:0:0:
256,192,160665,1,0,0:0:0:0:
329,192,160665,1,0,0:0:0:0:
109,192,160781,1,0,0:0:0:0:
402,192,160897,1,0,0:0:0:0:
182,192,161014,1,2,0:0:0:0:
256,192,161014,1,0,0:0:0:0:
329,192,161014,1,0,0:0:0:0:
109,192,161130,1,0,0:0:0:0:
402,192,161246,1,0,0:0:0:0:
182,192,161363,1,0,0:0:0:0:
256,192,161363,1,0,0:0:0:0:
329,192,161363,1,0,0:0:0:0:
109,192,161479,1,2,0:0:0:0:
402,192,161595,1,0,0:0:0:0:
182,192,161711,1,0,0:0:0:0:
256,192,161711,1,0,0:0:0:0:
329,192,161711,1,0,0:0:0:0:
109,192,161828,1,0,0:0:0:0:
402,192,161944,1,2,0:0:0:0:
182,192,162060,1,0,0:0:0:0:
256,192,162060,1,0,0:0:0:0:
329,192,162060,1,0,0:0:0:0:
109,192,162177,1,0,0:0:0:0:
402,192,162293,1,0,0:0:0:0:
182,192,162409,1,2,0:0:0:0:
256,192,162409,1,0,0:0:0:0:
329,192,162409,1,0,0:0:0:0:
109,192,162525,1,0,0:0:0:0:
402,192,162642,1,0,0:0:0:0:
182,192,162758,1,0,0:0:0:0:
256,192,162758,1,0,0:0:0:0:
329,192,162758,1,0,0:0:0:0:
109,192,162874,1,2,0:0:0:0:
402,192,162990,1,0,0:0:0:0:
182,192,163107,1,0,0:0:0:0:
256,192,163107,1,0,0:0:0:0:
329,192,163107,1,0,0:0:0:0:
109,192,163223,1,0,0:0:0:0:
402,192,163339,1,2,0:0:0:0:
475,192,163339,1,0,0:0:0:0:
256,192,163456,1,0,0:0:0:0:
329,192,163572,1,0,0:0:0:0:
182,192,163688,1,0,0:0:0:0:
402,192,163804,1,2,0:0:0:0:
475,192,163804,1,0,0:0:0:0:
109,192,163921,1,0,0:0:0:0:
182,192,164037,1,0,0:0:0:0:
256,192,164037,1,0,0:0:0:0:
329,192,164037,1,0,0:0:0:0:
402,192,164153,1,0,0:0:0:0:
109,192,164270,1,2,0:0:0:0:
182,192,164386,1,0,0:0:0:0:
256,192,164386,1,0,0:0:0:0:
329,192,164386,1,0,0:0:0:0:
402,192,164502,1,0,0:0:0:0:
109,192,164618,1,0,0:0:0:0:
182,192,164735,1,2,0:0:0:0:
256,192,164735,1,0,0:0:0:0:
329,192,164735,1,0,0:0:0:0:
402,192,164851,1,0,0:0:0:0:
109,192,164967,1,0,0:0:0:0:
182,192,165083,1,0,0:0:0:0:
256,192,165083,1,0,0:0:0:0:
329,192,165083,1,0,0:0:0:0:
402,192,165200,1,2,0:0:0:0:
109,192,165316,1,0,0:0:0:0:
182,192,165432,1,0,0:0:0:0:
256,192,165432,1,0,0:0:0:0:
329,192,165432,1,0,0:0:0:0:
402,192,165549,1,0,0:0:0:0:
36,192,165665,1,2,0:0:0:0:
182,192,165665,1,0,0:0:0:0:
109,192,165665,1,0,0:0:0:0:
402,192,165781,1,0,0:0:0:0:
256,192,165897,1,0,0:0:0:0:
182,192,166014,1,0,0:0:0:0:
109,192,166014,1,0,0:0:0:0:
402,192,166130,1,2,0:0:0:0:
329,192,166130,1,0,0:0:0:0:
256,192,166246,1,0,0:0:0:0:
182,192,166363,1,0,0:0:0:0:
109,192,166363,1,0,0:0:0:0:
402,192,166479,1,0,0:0:0:0:
256,192,166595,1,2,0:0:0:0:
329,192,166595,1,0,0:0:0:0:
182,192,166711,1,0,0:0:0:0:
109,192,166711,1,0,0:0:0:0:
402,192,166828,1,0,0:0:0:0:
256,192,166944,1,0,0:0:0:0:
36,192,167060,1,8,0:0:0:0:
109,192,167060,1,2,0:0:0:0:
182,192,167060,1,0,0:0:0:0:
329,192,167060,1,0,0:0:0:0:
402,192,167060,1,0,0:0:0:0:
475,192,167060,1,0,0:0:0:0:
36,192,167525,1,2,0:0:0:0:
109,192,167525,1,0,0:0:0:0:
256,192,167525,1,0,0:0:0:0:
402,192,167525,1,0,0:0:0:0:
475,192,167525,1,0,0:0:0:0:
109,192,167642,1,0,0:0:0:0:
329,192,167758,1,0,0:0:0:0:
402,192,167758,1,0,0:0:0:0:
109,192,167874,1,0,0:0:0:0:
182,192,167874,1,0,0:0:0:0:
36,192,167990,1,8,0:0:0:0:
256,192,167990,1,2,0:0:0:0:
402,192,167990,1,0,0:0:0:0:
475,192,167990,1,0,0:0:0:0:
329,192,168107,1,0,0:0:0:0:
402,192,168107,1,0,0:0:0:0:
109,192,168223,1,0,0:0:0:0:
182,192,168223,1,0,0:0:0:0:
329,192,168339,1,0,0:0:0:0:
36,192,168456,1,2,0:0:0:0:
256,192,168456,1,0,0:0:0:0:
329,192,168456,1,0,0:0:0:0:
402,192,168456,1,0,0:0:0:0:
109,192,168572,1,0,0:0:0:0:
182,192,168572,1,0,0:0:0:0:
182,192,168688,1,0,0:0:0:0:
329,192,168804,1,0,0:0:0:0:
402,192,168804,1,0,0:0:0:0:
36,192,168921,1,2,0:0:0:0:
109,192,168921,1,8,0:0:0:0:
182,192,168921,1,0,0:0:0:0:
475,192,168921,1,0,0:0:0:0:
109,192,169037,1,0,0:0:0:0:
329,192,169153,1,0,0:0:0:0:
402,192,169153,1,0,0:0:0:0:
109,192,169270,1,0,0:0:0:0:
182,192,169270,1,0,0:0:0:0:
36,192,169386,1,2,0:0:0:0:
182,192,169386,1,0,0:0:0:0:
256,192,169386,1,0,0:0:0:0:
475,192,169386,1,0,0:0:0:0:
329,192,169502,1,0,0:0:0:0:
402,192,169502,1,0,0:0:0:0:
109,192,169618,1,0,0:0:0:0:
182,192,169618,1,0,0:0:0:0:
402,192,169735,1,0,0:0:0:0:
36,192,169851,1,2,0:0:0:0:
329,192,169851,1,8,0:0:0:0:
402,192,169851,1,0,0:0:0:0:
475,192,169851,1,0,0:0:0:0:
109,192,169967,1,0,0:0:0:0:
182,192,169967,1,0,0:0:0:0:
329,192,170083,1,0,0:0:0:0:
329,192,170200,1,0,0:0:0:0:
402,192,170200,1,0,0:0:0:0:
36,192,170316,1,2,0:0:0:0:
109,192,170316,1,0,0:0:0:0:
182,192,170316,1,0,0:0:0:0:
475,192,170316,1,0,0:0:0:0:
109,192,170432,1,0,0:0:0:0:
329,192,170549,1,0,0:0:0:0:
182,192,170665,1,0,0:0:0:0:
256,192,170665,1,0,0:0:0:0:
329,192,170665,1,0,0:0:0:0:
36,192,170781,1,2,0:0:0:0:
109,192,170781,1,8,0:0:0:0:
402,192,170781,1,0,0:0:0:0:
475,192,170781,1,0,0:0:0:0:
402,192,170897,1,0,0:0:0:0:
182,192,171014,1,0,0:0:0:0:
256,192,171014,1,0,0:0:0:0:
329,192,171014,1,0,0:0:0:0:
182,192,171130,1,0,0:0:0:0:
36,192,171246,1,2,0:0:0:0:
109,192,171246,1,0,0:0:0:0:
256,192,171246,1,0,0:0:0:0:
402,192,171246,1,0,0:0:0:0:
475,192,171246,1,0,0:0:0:0:
402,192,171363,1,0,0:0:0:0:
109,192,171479,1,0,0:0:0:0:
182,192,171479,1,0,0:0:0:0:
329,192,171595,1,0,0:0:0:0:
402,192,171595,1,0,0:0:0:0:
36,192,171711,1,2,0:0:0:0:
109,192,171711,1,8,0:0:0:0:
256,192,171711,1,0,0:0:0:0:
475,192,171711,1,0,0:0:0:0:
109,192,171828,1,0,0:0:0:0:
182,192,171828,1,0,0:0:0:0:
329,192,171944,1,0,0:0:0:0:
402,192,171944,1,0,0:0:0:0:
182,192,172060,1,0,0:0:0:0:
109,192,172177,1,2,0:0:0:0:
182,192,172177,1,0,0:0:0:0:
256,192,172177,1,0,0:0:0:0:
475,192,172177,1,0,0:0:0:0:
329,192,172293,1,0,0:0:0:0:
402,192,172293,1,0,0:0:0:0:
329,192,172409,1,0,0:0:0:0:
109,192,172525,1,0,0:0:0:0:
182,192,172525,1,0,0:0:0:0:
36,192,172642,1,2,0:0:0:0:
329,192,172642,1,8,0:0:0:0:
402,192,172642,1,0,0:0:0:0:
475,192,172642,1,0,0:0:0:0:
402,192,172758,1,0,0:0:0:0:
109,192,172874,1,0,0:0:0:0:
182,192,172874,1,0,0:0:0:0:
329,192,172990,1,0,0:0:0:0:
402,192,172990,1,0,0:0:0:0:
36,192,173107,1,2,0:0:0:0:
256,192,173107,1,0,0:0:0:0:
329,192,173107,1,0,0:0:0:0:
475,192,173107,1,0,0:0:0:0:
109,192,173223,1,0,0:0:0:0:
182,192,173223,1,0,0:0:0:0:
329,192,173339,1,0,0:0:0:0:
402,192,173339,1,0,0:0:0:0:
109,192,173456,1,0,0:0:0:0:
36,192,173572,1,2,0:0:0:0:
109,192,173572,1,8,0:0:0:0:
182,192,173572,1,0,0:0:0:0:
475,192,173572,1,0,0:0:0:0:
329,192,173688,1,0,0:0:0:0:
402,192,173688,1,0,0:0:0:0:
182,192,173804,1,0,0:0:0:0:
109,192,173921,1,0,0:0:0:0:
182,192,173921,1,0,0:0:0:0:
36,192,174037,1,2,0:0:0:0:
329,192,174037,1,0,0:0:0:0:
402,192,174037,1,0,0:0:0:0:
475,192,174037,1,0,0:0:0:0:
402,192,174153,1,0,0:0:0:0:
182,192,174270,1,0,0:0:0:0:
182,192,174386,1,0,0:0:0:0:
256,192,174386,1,0,0:0:0:0:
329,192,174386,1,0,0:0:0:0:
36,192,174502,1,2,0:0:0:0:
109,192,174502,1,8,0:0:0:0:
402,192,174502,1,0,0:0:0:0:
475,192,174502,1,0,0:0:0:0:
109,192,174618,1,0,0:0:0:0:
182,192,174735,1,0,0:0:0:0:
256,192,174735,1,0,0:0:0:0:
329,192,174735,1,0,0:0:0:0:
329,192,174851,1,0,0:0:0:0:
36,192,174967,1,2,0:0:0:0:
109,192,174967,1,0,0:0:0:0:
256,192,174967,1,0,0:0:0:0:
402,192,174967,1,0,0:0:0:0:
475,192,174967,1,0,0:0:0:0:
109,192,175083,1,0,0:0:0:0:
329,192,175200,1,0,0:0:0:0:
402,192,175200,1,0,0:0:0:0:
109,192,175316,1,0,0:0:0:0:
182,192,175316,1,0,0:0:0:0:
36,192,175432,1,2,0:0:0:0:
256,192,175432,1,8,0:0:0:0:
402,192,175432,1,0,0:0:0:0:
475,192,175432,1,0,0:0:0:0:
329,192,175549,1,0,0:0:0:0:
402,192,175549,1,0,0:0:0:0:
109,192,175665,1,0,0:0:0:0:
182,192,175665,1,0,0:0:0:0:
329,192,175781,1,0,0:0:0:0:
36,192,175897,1,2,0:0:0:0:
256,192,175897,1,0,0:0:0:0:
329,192,175897,1,0,0:0:0:0:
402,192,175897,1,0,0:0:0:0:
109,192,176014,1,0,0:0:0:0:
182,192,176014,1,0,0:0:0:0:
182,192,176130,1,0,0:0:0:0:
329,192,176246,1,0,0:0:0:0:
402,192,176246,1,0,0:0:0:0:
36,192,176363,1,2,0:0:0:0:
109,192,176363,1,8,0:0:0:0:
182,192,176363,1,0,0:0:0:0:
475,192,176363,1,0,0:0:0:0:
109,192,176479,1,0,0:0:0:0:
329,192,176595,1,0,0:0:0:0:
402,192,176595,1,0,0:0:0:0:
109,192,176711,1,0,0:0:0:0:
182,192,176711,1,0,0:0:0:0:
36,192,176828,1,2,0:0:0:0:
182,192,176828,1,0,0:0:0:0:
256,192,176828,1,0,0:0:0:0:
475,192,176828,1,0,0:0:0:0:
329,192,176944,1,0,0:0:0:0:
402,192,176944,1,0,0:0:0:0:
109,192,177060,1,0,0:0:0:0:
182,192,177060,1,0,0:0:0:0:
402,192,177177,1,0,0:0:0:0:
36,192,177293,1,2,0:0:0:0:
329,192,177293,1,8,0:0:0:0:
402,192,177293,1,0,0:0:0:0:
475,192,177293,1,0,0:0:0:0:
109,192,177409,1,0,0:0:0:0:
182,192,177409,1,0,0:0:0:0:
329,192,177525,1,0,0:0:0:0:
329,192,177642,1,0,0:0:0:0:
402,192,177642,1,0,0:0:0:0:
36,192,177758,1,2,0:0:0:0:
109,192,177758,1,0,0:0:0:0:
182,192,177758,1,0,0:0:0:0:
475,192,177758,1,0,0:0:0:0:
109,192,177874,1,0,0:0:0:0:
329,192,177990,1,0,0:0:0:0:
182,192,178107,1,0,0:0:0:0:
256,192,178107,1,0,0:0:0:0:
329,192,178107,1,0,0:0:0:0:
36,192,178223,1,2,0:0:0:0:
109,192,178223,1,8,0:0:0:0:
402,192,178223,1,0,0:0:0:0:
475,192,178223,1,0,0:0:0:0:
402,192,178339,1,0,0:0:0:0:
182,192,178456,1,0,0:0:0:0:
256,192,178456,1,0,0:0:0:0:
329,192,178456,1,0,0:0:0:0:
182,192,178572,1,0,0:0:0:0:
36,192,178688,1,2,0:0:0:0:
109,192,178688,1,0,0:0:0:0:
329,192,178688,1,0,0:0:0:0:
402,192,178688,1,0,0:0:0:0:
475,192,178688,1,0,0:0:0:0:
329,192,178804,1,0,0:0:0:0:
402,192,178804,1,0,0:0:0:0:
256,192,178921,1,0,0:0:0:0:
109,192,179037,1,0,0:0:0:0:
182,192,179037,1,0,0:0:0:0:
36,192,179153,1,2,0:0:0:0:
329,192,179153,1,8,0:0:0:0:
402,192,179153,1,0,0:0:0:0:
475,192,179153,1,0,0:0:0:0:
182,192,179270,1,0,0:0:0:0:
329,192,179270,1,0,0:0:0:0:
182,192,179386,1,0,0:0:0:0:
256,192,179502,1,0,0:0:0:0:
329,192,179502,1,0,0:0:0:0:
36,192,179618,1,2,0:0:0:0:
109,192,179618,1,0,0:0:0:0:
182,192,179618,1,0,0:0:0:0:
475,192,179618,1,0,0:0:0:0:
109,192,179735,1,0,0:0:0:0:
182,192,179735,1,0,0:0:0:0:
256,192,179851,1,0,0:0:0:0:
329,192,179967,1,0,0:0:0:0:
402,192,179967,1,0,0:0:0:0:
36,192,180083,1,2,0:0:0:0:
109,192,180083,1,8,0:0:0:0:
182,192,180083,1,0,0:0:0:0:
475,192,180083,1,0,0:0:0:0:
182,192,180200,1,0,0:0:0:0:
329,192,180200,1,0,0:0:0:0:
329,192,180316,1,0,0:0:0:0:
182,192,180432,1,0,0:0:0:0:
256,192,180432,1,0,0:0:0:0:
36,192,180549,1,2,0:0:0:0:
109,192,180549,1,0,0:0:0:0:
329,192,180549,1,0,0:0:0:0:
402,192,180549,1,0,0:0:0:0:
475,192,180549,1,0,0:0:0:0:
182,192,180665,1,0,0:0:0:0:
329,192,180665,1,0,0:0:0:0:
182,192,180781,1,0,0:0:0:0:
402,192,180781,1,0,0:0:0:0:
256,192,180897,1,0,0:0:0:0:
329,192,180897,1,0,0:0:0:0:
36,192,181014,1,2,0:0:0:0:
109,192,181014,1,8,0:0:0:0:
182,192,181014,1,0,0:0:0:0:
475,192,181014,1,0,0:0:0:0:
182,192,181130,1,0,0:0:0:0:
329,192,181130,1,0,0:0:0:0:
109,192,181246,1,0,0:0:0:0:
329,192,181246,1,0,0:0:0:0:
182,192,181363,1,0,0:0:0:0:
256,192,181363,1,0,0:0:0:0:
36,192,181479,1,2,0:0:0:0:
329,192,181479,1,0,0:0:0:0:
402,192,181479,1,0,0:0:0:0:
475,192,181479,1,0,0:0:0:0:
182,192,181595,1,0,0:0:0:0:
329,192,181595,1,0,0:0:0:0:
182,192,181711,1,0,0:0:0:0:
402,192,181711,1,0,0:0:0:0:
256,192,181828,1,0,0:0:0:70:tom02.wav
329,192,181828,1,0,0:0:0:0:
36,192,181944,1,2,0:0:0:0:
109,192,181944,1,8,0:0:0:0:
402,192,181944,1,0,0:0:0:0:
475,192,181944,1,0,0:0:0:0:
109,192,182060,1,0,0:0:0:0:
402,192,182060,1,0,0:0:0:0:
182,192,182177,1,0,0:0:0:70:tom02.wav
329,192,182177,1,0,0:0:0:0:
182,192,182293,1,0,0:0:0:70:tom02.wav
329,192,182293,1,0,0:0:0:0:
36,192,182409,1,2,0:0:0:0:
109,192,182409,1,0,0:0:0:0:
256,192,182409,1,0,0:0:0:0:
402,192,182409,1,0,0:0:0:0:
475,192,182409,1,0,0:0:0:0:
109,192,182525,1,0,0:0:0:0:
329,192,182642,1,0,0:0:0:0:
402,192,182642,1,0,0:0:0:0:
109,192,182758,1,0,0:0:0:0:
182,192,182758,1,0,0:0:0:0:
36,192,182874,1,8,0:0:0:0:
256,192,182874,1,2,0:0:0:0:
402,192,182874,1,0,0:0:0:0:
475,192,182874,1,0,0:0:0:0:
329,192,182990,1,0,0:0:0:0:
402,192,182990,1,0,0:0:0:0:
109,192,183107,1,0,0:0:0:0:
182,192,183107,1,0,0:0:0:0:
329,192,183223,1,0,0:0:0:0:
36,192,183339,1,2,0:0:0:0:
256,192,183339,1,0,0:0:0:0:
329,192,183339,1,0,0:0:0:0:
402,192,183339,1,0,0:0:0:0:
109,192,183456,1,0,0:0:0:0:
182,192,183456,1,0,0:0:0:0:
182,192,183572,1,0,0:0:0:0:
329,192,183688,1,0,0:0:0:0:
402,192,183688,1,0,0:0:0:0:
36,192,183804,1,2,0:0:0:0:
109,192,183804,1,8,0:0:0:0:
182,192,183804,1,0,0:0:0:0:
475,192,183804,1,0,0:0:0:0:
109,192,183921,1,0,0:0:0:0:
329,192,184037,1,0,0:0:0:0:
402,192,184037,1,0,0:0:0:0:
109,192,184153,1,0,0:0:0:0:
182,192,184153,1,0,0:0:0:0:
36,192,184270,1,2,0:0:0:0:
182,192,184270,1,0,0:0:0:0:
256,192,184270,1,0,0:0:0:0:
475,192,184270,1,0,0:0:0:0:
329,192,184386,1,0,0:0:0:0:
402,192,184386,1,0,0:0:0:0:
109,192,184502,1,0,0:0:0:0:
182,192,184502,1,0,0:0:0:0:
402,192,184618,1,0,0:0:0:0:
36,192,184735,1,8,0:0:0:0:
329,192,184735,1,2,0:0:0:0:
402,192,184735,1,0,0:0:0:0:
475,192,184735,1,0,0:0:0:0:
109,192,184851,1,0,0:0:0:0:
182,192,184851,1,0,0:0:0:0:
329,192,184967,1,0,0:0:0:0:
329,192,185083,1,0,0:0:0:0:
402,192,185083,1,0,0:0:0:0:
36,192,185200,1,2,0:0:0:0:
109,192,185200,1,0,0:0:0:0:
182,192,185200,1,0,0:0:0:0:
475,192,185200,1,0,0:0:0:0:
109,192,185316,1,0,0:0:0:0:
329,192,185432,1,0,0:0:0:0:
182,192,185549,1,0,0:0:0:0:
256,192,185549,1,0,0:0:0:0:
329,192,185549,1,0,0:0:0:0:
36,192,185665,1,8,0:0:0:0:
109,192,185665,1,2,0:0:0:0:
402,192,185665,1,0,0:0:0:0:
475,192,185665,1,0,0:0:0:0:
402,192,185781,1,0,0:0:0:0:
182,192,185897,1,0,0:0:0:0:
256,192,185897,1,0,0:0:0:0:
329,192,185897,1,0,0:0:0:0:
182,192,186014,1,0,0:0:0:0:
36,192,186130,1,2,0:0:0:0:
109,192,186130,1,0,0:0:0:0:
256,192,186130,1,0,0:0:0:0:
402,192,186130,1,0,0:0:0:0:
475,192,186130,1,0,0:0:0:0:
402,192,186246,1,0,0:0:0:0:
109,192,186363,1,0,0:0:0:0:
182,192,186363,1,0,0:0:0:0:
329,192,186479,1,0,0:0:0:0:
402,192,186479,1,0,0:0:0:0:
36,192,186595,1,2,0:0:0:0:
109,192,186595,1,8,0:0:0:0:
256,192,186595,1,0,0:0:0:0:
475,192,186595,1,0,0:0:0:0:
109,192,186711,1,0,0:0:0:0:
182,192,186711,1,0,0:0:0:0:
329,192,186828,1,0,0:0:0:0:
402,192,186828,1,0,0:0:0:0:
182,192,186944,1,0,0:0:0:0:
109,192,187060,1,2,0:0:0:0:
182,192,187060,1,0,0:0:0:0:
256,192,187060,1,0,0:0:0:0:
475,192,187060,1,0,0:0:0:0:
329,192,187177,1,0,0:0:0:0:
402,192,187177,1,0,0:0:0:0:
329,192,187293,1,0,0:0:0:0:
109,192,187409,1,0,0:0:0:0:
182,192,187409,1,0,0:0:0:0:
36,192,187525,1,8,0:0:0:0:
329,192,187525,1,2,0:0:0:0:
402,192,187525,1,0,0:0:0:0:
475,192,187525,1,0,0:0:0:0:
402,192,187642,1,0,0:0:0:0:
109,192,187758,1,0,0:0:0:0:
182,192,187758,1,0,0:0:0:0:
329,192,187874,1,0,0:0:0:0:
402,192,187874,1,0,0:0:0:0:
36,192,187990,1,2,0:0:0:0:
256,192,187990,1,0,0:0:0:0:
329,192,187990,1,0,0:0:0:0:
475,192,187990,1,0,0:0:0:0:
109,192,188107,1,0,0:0:0:0:
182,192,188107,1,0,0:0:0:0:
329,192,188223,1,0,0:0:0:0:
402,192,188223,1,0,0:0:0:0:
109,192,188339,1,0,0:0:0:0:
36,192,188456,1,8,0:0:0:0:
109,192,188456,1,2,0:0:0:0:
182,192,188456,1,0,0:0:0:0:
475,192,188456,1,0,0:0:0:0:
329,192,188572,1,0,0:0:0:0:
402,192,188572,1,0,0:0:0:0:
182,192,188688,1,0,0:0:0:0:
109,192,188804,1,0,0:0:0:0:
182,192,188804,1,0,0:0:0:0:
36,192,188921,1,2,0:0:0:0:
329,192,188921,1,0,0:0:0:0:
402,192,188921,1,0,0:0:0:0:
475,192,188921,1,0,0:0:0:0:
402,192,189037,1,0,0:0:0:0:
182,192,189153,1,0,0:0:0:0:
182,192,189270,1,0,0:0:0:0:
256,192,189270,1,0,0:0:0:0:
329,192,189270,1,0,0:0:0:0:
36,192,189386,1,2,0:0:0:0:
109,192,189386,1,8,0:0:0:0:
402,192,189386,1,0,0:0:0:0:
475,192,189386,1,0,0:0:0:0:
109,192,189502,1,0,0:0:0:0:
182,192,189618,1,0,0:0:0:0:
256,192,189618,1,0,0:0:0:0:
329,192,189618,1,0,0:0:0:0:
329,192,189735,1,0,0:0:0:0:
36,192,189851,1,2,0:0:0:0:
109,192,189851,1,0,0:0:0:0:
256,192,189851,1,0,0:0:0:0:
402,192,189851,1,0,0:0:0:0:
475,192,189851,1,0,0:0:0:0:
109,192,189967,1,0,0:0:0:0:
182,192,189967,1,0,0:0:0:0:
329,192,189967,1,0,0:0:0:0:
402,192,189967,1,0,0:0:0:0:
109,192,190083,1,0,0:0:0:0:
182,192,190083,1,0,0:0:0:0:
329,192,190083,1,0,0:0:0:0:
402,192,190083,1,0,0:0:0:0:
36,192,190200,1,0,0:0:0:0:
182,192,190200,1,0,0:0:0:0:
329,192,190200,1,0,0:0:0:0:
475,192,190200,1,0,0:0:0:0:
36,192,190316,1,8,0:0:0:0:
475,192,190316,1,2,0:0:0:0:
256,192,190316,1,0,0:0:0:0:
329,192,190432,1,0,0:0:0:0:
402,192,190432,1,0,0:0:0:0:
109,192,190549,1,0,0:0:0:0:
182,192,190549,1,0,0:0:0:0:
329,192,190665,1,0,0:0:0:0:
36,192,190781,1,2,0:0:0:0:
256,192,190781,1,0,0:0:0:0:
329,192,190781,1,0,0:0:0:0:
402,192,190781,1,0,0:0:0:0:
109,192,190897,1,0,0:0:0:0:
182,192,190897,1,0,0:0:0:0:
182,192,191014,1,0,0:0:0:0:
329,192,191130,1,0,0:0:0:0:
402,192,191130,1,0,0:0:0:0:
36,192,191246,1,8,0:0:0:0:
109,192,191246,1,2,0:0:0:0:
182,192,191246,1,0,0:0:0:0:
475,192,191246,1,0,0:0:0:0:
109,192,191363,1,0,0:0:0:0:
329,192,191479,1,0,0:0:0:0:
402,192,191479,1,0,0:0:0:0:
109,192,191595,1,0,0:0:0:0:
182,192,191595,1,0,0:0:0:0:
36,192,191711,1,2,0:0:0:0:
182,192,191711,1,0,0:0:0:0:
256,192,191711,1,0,0:0:0:0:
475,192,191711,1,0,0:0:0:0:
329,192,191828,1,0,0:0:0:0:
402,192,191828,1,0,0:0:0:0:
109,192,191944,1,0,0:0:0:0:
182,192,191944,1,0,0:0:0:0:
402,192,192060,1,0,0:0:0:0:
36,192,192177,1,8,0:0:0:0:
329,192,192177,1,2,0:0:0:0:
402,192,192177,1,0,0:0:0:0:
475,192,192177,1,0,0:0:0:0:
109,192,192293,1,0,0:0:0:0:
182,192,192293,1,0,0:0:0:0:
329,192,192409,1,0,0:0:0:0:
329,192,192525,1,0,0:0:0:0:
402,192,192525,1,0,0:0:0:0:
36,192,192642,1,2,0:0:0:0:
109,192,192642,1,0,0:0:0:0:
182,192,192642,1,0,0:0:0:0:
475,192,192642,1,0,0:0:0:0:
109,192,192758,1,0,0:0:0:0:
329,192,192874,1,0,0:0:0:0:
182,192,192990,1,0,0:0:0:0:
256,192,192990,1,0,0:0:0:0:
329,192,192990,1,0,0:0:0:0:
36,192,193107,1,2,0:0:0:0:
109,192,193107,1,8,0:0:0:0:
402,192,193107,1,0,0:0:0:0:
475,192,193107,1,0,0:0:0:0:
402,192,193223,1,0,0:0:0:0:
182,192,193339,1,0,0:0:0:0:
256,192,193339,1,0,0:0:0:0:
329,192,193339,1,0,0:0:0:0:
182,192,193456,1,0,0:0:0:0:
36,192,193572,1,2,0:0:0:0:
109,192,193572,1,0,0:0:0:0:
256,192,193572,1,0,0:0:0:0:
402,192,193572,1,0,0:0:0:0:
475,192,193572,1,0,0:0:0:0:
256,192,193688,1,0,0:0:0:0:
109,192,193804,1,0,0:0:0:0:
402,192,193804,1,0,0:0:0:0:
182,192,193921,1,0,0:0:0:0:
329,192,193921,1,0,0:0:0:0:
36,192,194037,1,8,0:0:0:0:
109,192,194037,1,2,0:0:0:0:
402,192,194037,1,0,0:0:0:0:
475,192,194037,1,0,0:0:0:0:
256,192,194153,1,0,0:0:0:0:
182,192,194270,1,0,0:0:0:0:
329,192,194270,1,0,0:0:0:0:
109,192,194386,1,0,0:0:0:0:
402,192,194386,1,0,0:0:0:0:
36,192,194502,1,2,0:0:0:0:
256,192,194502,1,0,0:0:0:0:
475,192,194502,1,0,0:0:0:0:
256,192,194618,1,0,0:0:0:0:
109,192,194735,1,0,0:0:0:0:
402,192,194735,1,0,0:0:0:0:
109,192,194851,1,0,0:0:0:0:
402,192,194851,1,0,0:0:0:0:
36,192,194967,1,8,0:0:0:0:
182,192,194967,1,2,0:0:0:0:
329,192,194967,1,0,0:0:0:0:
475,192,194967,1,0,0:0:0:0:
256,192,195083,1,0,0:0:0:0:
182,192,195200,1,0,0:0:0:0:
329,192,195200,1,0,0:0:0:0:
182,192,195316,1,0,0:0:0:0:
329,192,195316,1,0,0:0:0:0:
36,192,195432,1,2,0:0:0:0:
109,192,195432,1,0,0:0:0:0:
402,192,195432,1,0,0:0:0:0:
475,192,195432,1,0,0:0:0:0:
109,192,195549,1,0,0:0:0:0:
256,192,195549,1,0,0:0:0:0:
256,192,195665,1,0,0:0:0:0:
329,192,195781,1,0,0:0:0:0:
475,192,195781,1,0,0:0:0:0:
36,192,195897,1,2,0:0:0:0:
109,192,195897,1,8,0:0:0:0:
182,192,195897,1,0,0:0:0:0:
475,192,195897,1,0,0:0:0:0:
109,192,196014,1,0,0:0:0:0:
256,192,196014,1,0,0:0:0:0:
329,192,196130,1,0,0:0:0:0:
475,192,196130,1,0,0:0:0:0:
182,192,196246,1,0,0:0:0:0:
36,192,196363,1,2,0:0:0:0:
109,192,196363,1,0,0:0:0:0:
182,192,196363,1,0,0:0:0:0:
475,192,196363,1,0,0:0:0:0:
329,192,196479,1,0,0:0:0:0:
475,192,196479,1,0,0:0:0:0:
256,192,196595,1,0,0:0:0:0:
36,192,196711,1,0,0:0:0:70:tom02.wav
109,192,196711,1,0,0:0:0:0:
182,192,196711,1,0,0:0:0:0:
36,192,196828,1,8,0:0:0:0:
329,192,196828,1,2,0:0:0:0:
402,192,196828,1,0,0:0:0:0:
475,192,196828,1,0,0:0:0:0:
402,192,196944,1,0,0:0:0:0:
182,192,197060,1,0,0:0:0:70:tom02.wav
256,192,197060,1,0,0:0:0:0:
182,192,197177,1,0,0:0:0:70:tom02.wav
256,192,197177,1,0,0:0:0:0:
36,192,197293,1,2,0:0:0:0:
109,192,197293,1,0,0:0:0:0:
329,192,197293,1,0,0:0:0:0:
402,192,197293,1,0,0:0:0:0:
475,192,197293,1,0,0:0:0:0:
256,192,197409,1,0,0:0:0:0:
329,192,197525,1,0,0:0:0:0:
402,192,197525,1,0,0:0:0:0:
475,192,197525,1,0,0:0:0:0:
109,192,197642,1,0,0:0:0:0:
402,192,197642,1,0,0:0:0:0:
109,192,197758,1,2,0:0:0:0:
182,192,197758,1,8,0:0:0:0:
329,192,197874,1,0,0:0:0:0:
402,192,197874,1,0,0:0:0:0:
475,192,197874,1,0,0:0:0:0:
36,192,197990,1,0,0:0:0:0:
256,192,197990,1,0,0:0:0:0:
329,192,198107,1,0,0:0:0:0:
402,192,198107,1,0,0:0:0:0:
36,192,198223,1,2,0:0:0:0:
109,192,198223,1,0,0:0:0:0:
182,192,198223,1,0,0:0:0:0:
256,192,198339,1,0,0:0:0:0:
475,192,198339,1,0,0:0:0:0:
329,192,198456,1,0,0:0:0:0:
402,192,198456,1,0,0:0:0:0:
36,192,198572,1,0,0:0:0:0:
109,192,198572,1,0,0:0:0:0:
182,192,198572,1,0,0:0:0:0:
109,192,198688,1,2,0:0:0:0:
402,192,198688,1,8,0:0:0:0:
329,192,198804,1,0,0:0:0:0:
402,192,198804,1,0,0:0:0:0:
36,192,198921,1,0,0:0:0:0:
109,192,198921,1,0,0:0:0:0:
182,192,198921,1,0,0:0:0:0:
182,192,199037,1,0,0:0:0:0:
329,192,199037,1,0,0:0:0:0:
36,192,199153,1,8,0:0:0:0:
109,192,199153,1,0,0:0:0:70:tom02.wav
402,192,199153,1,0,0:0:0:0:
475,192,199153,1,0,0:0:0:0:
329,192,199270,1,0,0:0:0:0:
182,192,199386,1,0,0:0:0:0:
36,192,199502,1,8,0:0:0:0:
109,192,199502,1,0,0:0:0:70:tom02.wav
402,192,199502,1,0,0:0:0:0:
475,192,199502,1,0,0:0:0:0:
182,192,199618,1,0,0:0:0:0:
329,192,199735,1,0,0:0:0:0:
36,192,199851,1,8,0:0:0:0:
109,192,199851,1,0,0:0:0:70:tom02.wav
402,192,199851,1,0,0:0:0:0:
475,192,199851,1,0,0:0:0:0:
329,192,199967,1,0,0:0:0:0:
256,192,200083,1,0,0:0:0:0:
36,192,200200,1,8,0:0:0:0:
109,192,200200,1,0,0:0:0:70:tom02.wav
402,192,200200,1,0,0:0:0:0:
475,192,200200,1,0,0:0:0:0:
182,192,200316,1,0,0:0:0:0:
256,192,200432,1,0,0:0:0:0:
36,192,200549,1,8,0:0:0:0:
109,192,200549,1,0,0:0:0:70:tom02.wav
402,192,200549,1,0,0:0:0:0:
475,192,200549,1,0,0:0:0:0:
329,192,200665,1,0,0:0:0:0:
256,192,200781,1,0,0:0:0:0:
36,192,200897,1,8,0:0:0:0:
109,192,200897,1,0,0:0:0:70:tom02.wav
402,192,200897,1,0,0:0:0:0:
475,192,200897,1,0,0:0:0:0:
36,192,201014,1,2,0:0:0:0:
109,192,201014,1,0,0:0:0:0:
256,192,201014,1,0,0:0:0:0:
402,192,201014,1,0,0:0:0:0:
475,192,201014,1,0,0:0:0:0:
256,192,201130,1,0,0:0:0:0:
329,192,201246,1,0,0:0:0:0:
402,192,201246,1,0,0:0:0:0:
475,192,201246,1,0,0:0:0:0:
109,192,201363,1,0,0:0:0:0:
402,192,201363,1,0,0:0:0:0:
109,192,201479,1,2,0:0:0:0:
182,192,201479,1,8,0:0:0:0:
329,192,201595,1,0,0:0:0:0:
402,192,201595,1,0,0:0:0:0:
475,192,201595,1,0,0:0:0:0:
36,192,201711,1,0,0:0:0:0:
256,192,201711,1,0,0:0:0:0:
329,192,201828,1,0,0:0:0:0:
402,192,201828,1,0,0:0:0:0:
36,192,201944,1,2,0:0:0:0:
109,192,201944,1,0,0:0:0:0:
182,192,201944,1,0,0:0:0:0:
256,192,202060,1,0,0:0:0:0:
475,192,202060,1,0,0:0:0:0:
329,192,202177,1,0,0:0:0:0:
402,192,202177,1,0,0:0:0:0:
36,192,202293,1,0,0:0:0:0:
109,192,202293,1,0,0:0:0:0:
182,192,202293,1,0,0:0:0:0:
109,192,202409,1,2,0:0:0:0:
402,192,202409,1,8,0:0:0:0:
329,192,202525,1,0,0:0:0:0:
402,192,202525,1,0,0:0:0:0:
36,192,202642,1,0,0:0:0:0:
109,192,202642,1,0,0:0:0:0:
182,192,202642,1,0,0:0:0:0:
182,192,202758,1,0,0:0:0:0:
329,192,202758,1,0,0:0:0:0:
36,192,202874,1,8,0:0:0:0:
109,192,202874,1,0,0:0:0:70:tom02.wav
402,192,202874,1,0,0:0:0:0:
475,192,202874,1,0,0:0:0:0:
329,192,202990,1,0,0:0:0:0:
182,192,203107,1,0,0:0:0:0:
36,192,203223,1,8,0:0:0:0:
109,192,203223,1,0,0:0:0:70:tom02.wav
402,192,203223,1,0,0:0:0:0:
475,192,203223,1,0,0:0:0:0:
182,192,203339,1,0,0:0:0:0:
329,192,203456,1,0,0:0:0:0:
36,192,203572,1,8,0:0:0:0:
109,192,203572,1,0,0:0:0:70:tom02.wav
402,192,203572,1,0,0:0:0:0:
475,192,203572,1,0,0:0:0:0:
329,192,203688,1,0,0:0:0:0:
256,192,203804,1,0,0:0:0:0:
36,192,203921,1,8,0:0:0:0:
109,192,203921,1,0,0:0:0:70:tom02.wav
402,192,203921,1,0,0:0:0:0:
475,192,203921,1,0,0:0:0:0:
182,192,204037,1,0,0:0:0:0:
256,192,204153,1,0,0:0:0:0:
36,192,204270,1,8,0:0:0:0:
109,192,204270,1,0,0:0:0:70:tom02.wav
402,192,204270,1,0,0:0:0:0:
475,192,204270,1,0,0:0:0:0:
329,192,204386,1,0,0:0:0:0:
256,192,204502,1,0,0:0:0:0:
36,192,204618,1,8,0:0:0:0:
109,192,204618,1,0,0:0:0:70:tom02.wav
402,192,204618,1,0,0:0:0:0:
475,192,204618,1,0,0:0:0:0:
36,192,204735,1,2,0:0:0:0:
109,192,204735,1,0,0:0:0:0:
256,192,204735,1,0,0:0:0:0:
402,192,204735,1,0,0:0:0:0:
475,192,204735,1,0,0:0:0:0:
256,192,204851,1,0,0:0:0:0:
329,192,204967,1,0,0:0:0:0:
402,192,204967,1,0,0:0:0:0:
475,192,204967,1,0,0:0:0:0:
109,192,205083,1,0,0:0:0:0:
402,192,205083,1,0,0:0:0:0:
109,192,205200,1,2,0:0:0:0:
182,192,205200,1,8,0:0:0:0:
329,192,205316,1,0,0:0:0:0:
402,192,205316,1,0,0:0:0:0:
475,192,205316,1,0,0:0:0:0:
36,192,205432,1,0,0:0:0:0:
256,192,205432,1,0,0:0:0:0:
329,192,205549,1,0,0:0:0:0:
402,192,205549,1,0,0:0:0:0:
36,192,205665,1,2,0:0:0:0:
109,192,205665,1,0,0:0:0:0:
182,192,205665,1,0,0:0:0:0:
256,192,205781,1,0,0:0:0:0:
475,192,205781,1,0,0:0:0:0:
329,192,205897,1,0,0:0:0:0:
402,192,205897,1,0,0:0:0:0:
36,192,206014,1,0,0:0:0:0:
109,192,206014,1,0,0:0:0:0:
182,192,206014,1,0,0:0:0:0:
109,192,206130,1,2,0:0:0:0:
402,192,206130,1,8,0:0:0:0:
329,192,206246,1,0,0:0:0:0:
402,192,206246,1,0,0:0:0:0:
36,192,206363,1,0,0:0:0:0:
109,192,206363,1,0,0:0:0:0:
182,192,206363,1,0,0:0:0:0:
182,192,206479,1,0,0:0:0:0:
329,192,206479,1,0,0:0:0:0:
36,192,206595,1,8,0:0:0:0:
109,192,206595,1,0,0:0:0:70:tom02.wav
402,192,206595,1,0,0:0:0:0:
475,192,206595,1,0,0:0:0:0:
329,192,206711,1,0,0:0:0:0:
182,192,206828,1,0,0:0:0:0:
36,192,206944,1,8,0:0:0:0:
109,192,206944,1,0,0:0:0:70:tom02.wav
402,192,206944,1,0,0:0:0:0:
475,192,206944,1,0,0:0:0:0:
182,192,207060,1,0,0:0:0:0:
329,192,207177,1,0,0:0:0:0:
36,192,207293,1,8,0:0:0:0:
109,192,207293,1,0,0:0:0:70:tom02.wav
402,192,207293,1,0,0:0:0:0:
475,192,207293,1,0,0:0:0:0:
329,192,207409,1,0,0:0:0:0:
182,192,207525,1,0,0:0:0:0:
36,192,207642,1,8,0:0:0:0:
109,192,207642,1,0,0:0:0:70:tom02.wav
402,192,207642,1,0,0:0:0:0:
475,192,207642,1,0,0:0:0:0:
182,192,207758,1,0,0:0:0:0:
329,192,207874,1,0,0:0:0:0:
36,192,207990,1,8,0:0:0:0:
109,192,207990,1,0,0:0:0:70:tom02.wav
402,192,207990,1,0,0:0:0:0:
475,192,207990,1,0,0:0:0:0:
329,192,208107,1,0,0:0:0:0:
182,192,208223,1,0,0:0:0:0:
36,192,208339,1,8,0:0:0:0:
109,192,208339,1,0,0:0:0:70:tom02.wav
402,192,208339,1,0,0:0:0:0:
475,192,208339,1,0,0:0:0:0:
182,192,208456,1,0,0:0:0:0:
329,192,208572,1,0,0:0:0:0:
36,192,208688,1,8,0:0:0:0:
109,192,208688,1,0,0:0:0:70:tom02.wav
402,192,208688,1,0,0:0:0:0:
475,192,208688,1,0,0:0:0:0:
329,192,208804,1,0,0:0:0:0:
182,192,208921,1,0,0:0:0:0:
36,192,209037,1,8,0:0:0:0:
109,192,209037,1,0,0:0:0:70:tom02.wav
402,192,209037,1,0,0:0:0:0:
475,192,209037,1,0,0:0:0:0:
182,192,209153,1,0,0:0:0:0:
329,192,209270,1,0,0:0:0:0:
36,192,209386,1,8,0:0:0:0:
109,192,209386,1,0,0:0:0:70:tom02.wav
402,192,209386,1,0,0:0:0:0:
475,192,209386,1,0,0:0:0:0:
329,192,209502,1,0,0:0:0:0:
182,192,209618,1,0,0:0:0:0:
36,192,209735,1,8,0:0:0:0:
109,192,209735,1,0,0:0:0:70:tom02.wav
402,192,209735,1,0,0:0:0:0:
475,192,209735,1,0,0:0:0:0:
182,192,209851,1,0,0:0:0:0:
329,192,209967,1,0,0:0:0:0:
36,192,210083,1,8,0:0:0:0:
109,192,210083,1,0,0:0:0:70:tom02.wav
402,192,210083,1,0,0:0:0:0:
475,192,210083,1,0,0:0:0:0:
329,192,210200,1,0,0:0:0:0:
109,192,210316,1,0,0:0:0:0:
182,192,210316,1,0,0:0:0:0:
402,192,210432,1,0,0:0:0:0:
256,192,210549,1,0,0:0:0:0:
109,192,210665,1,0,0:0:0:0:
182,192,210665,1,0,0:0:0:0:
402,192,210781,1,0,0:0:0:0:
256,192,210897,1,0,0:0:0:0:
109,192,211014,1,0,0:0:0:0:
182,192,211014,1,0,0:0:0:0:
402,192,211130,1,0,0:0:0:0:
256,192,211246,1,0,0:0:0:0:
109,192,211363,1,0,0:0:0:0:
182,192,211363,1,0,0:0:0:0:
402,192,211479,1,0,0:0:0:0:
256,192,211595,1,0,0:0:0:0:
36,192,211711,1,8,0:0:0:0:
109,192,211711,1,0,0:0:0:0:
182,192,211711,1,0,0:0:0:0:
329,192,211711,1,0,0:0:0:0:
402,192,211711,1,0,0:0:0:0:
475,192,211711,1,0,0:0:0:0:
36,192,212177,1,2,0:0:0:0:
109,192,212177,1,0,0:0:0:0:
329,192,212177,1,0,0:0:0:0:
402,192,212177,1,0,0:0:0:0:
475,192,212177,1,0,0:0:0:0:
182,192,212293,1,0,0:0:0:0:
36,192,212409,1,0,0:0:0:0:
329,192,212409,1,0,0:0:0:0:
475,192,212409,1,0,0:0:0:0:
182,192,212525,1,0,0:0:0:0:
36,192,212642,1,2,0:0:0:0:
329,192,212642,1,8,0:0:0:0:
402,192,212642,1,0,0:0:0:0:
475,192,212642,1,0,0:0:0:0:
256,192,212758,1,0,0:0:0:0:
182,192,212874,1,0,0:0:0:0:
329,192,212874,1,0,0:0:0:0:
182,192,212990,1,0,0:0:0:0:
402,192,212990,1,0,0:0:0:0:
36,192,213107,1,2,0:0:0:0:
109,192,213107,1,0,0:0:0:0:
329,192,213107,1,0,0:0:0:0:
475,192,213107,1,0,0:0:0:0:
182,192,213223,1,0,0:0:0:0:
329,192,213223,1,0,0:0:0:0:
182,192,213339,1,0,0:0:0:0:
402,192,213339,1,0,0:0:0:0:
256,192,213456,1,0,0:0:0:0:
36,192,213572,1,2,0:0:0:0:
109,192,213572,1,8,0:0:0:0:
182,192,213572,1,0,0:0:0:0:
402,192,213572,1,0,0:0:0:0:
182,192,213688,1,0,0:0:0:0:
329,192,213688,1,0,0:0:0:0:
475,192,213804,1,0,0:0:0:0:
182,192,213921,1,0,0:0:0:0:
329,192,213921,1,0,0:0:0:0:
182,192,214037,1,2,0:0:0:0:
329,192,214037,1,0,0:0:0:0:
402,192,214037,1,0,0:0:0:0:
475,192,214037,1,0,0:0:0:0:
36,192,214153,1,0,0:0:0:0:
182,192,214270,1,0,0:0:0:0:
329,192,214270,1,0,0:0:0:0:
182,192,214386,1,0,0:0:0:0:
402,192,214386,1,0,0:0:0:0:
36,192,214502,1,2,0:0:0:0:
256,192,214502,1,8,0:0:0:0:
329,192,214502,1,0,0:0:0:0:
475,192,214502,1,0,0:0:0:0:
182,192,214618,1,0,0:0:0:0:
329,192,214618,1,0,0:0:0:0:
182,192,214735,1,0,0:0:0:0:
402,192,214735,1,0,0:0:0:0:
256,192,214851,1,0,0:0:0:0:
36,192,214967,1,2,0:0:0:0:
475,192,214967,1,0,0:0:0:0:
182,192,214967,1,0,0:0:0:0:
329,192,214967,1,0,0:0:0:0:
182,192,215083,1,0,0:0:0:0:
402,192,215083,1,0,0:0:0:0:
256,192,215200,1,0,0:0:0:0:
182,192,215316,1,0,0:0:0:0:
402,192,215316,1,0,0:0:0:0:
109,192,215432,1,2,0:0:0:0:
182,192,215432,1,8,0:0:0:0:
329,192,215432,1,0,0:0:0:0:
402,192,215432,1,0,0:0:0:0:
256,192,215549,1,0,0:0:0:0:
182,192,215665,1,0,0:0:0:0:
329,192,215665,1,0,0:0:0:0:
182,192,215781,1,0,0:0:0:0:
402,192,215781,1,0,0:0:0:0:
36,192,215897,1,2,0:0:0:0:
109,192,215897,1,0,0:0:0:0:
256,192,215897,1,0,0:0:0:0:
402,192,215897,1,0,0:0:0:0:
475,192,215897,1,0,0:0:0:0:
109,192,216014,1,0,0:0:0:0:
256,192,216130,1,0,0:0:0:0:
402,192,216130,1,0,0:0:0:0:
329,192,216246,1,0,0:0:0:0:
402,192,216246,1,0,0:0:0:0:
36,192,216363,1,2,0:0:0:0:
109,192,216363,1,8,0:0:0:0:
182,192,216363,1,0,0:0:0:0:
475,192,216363,1,0,0:0:0:0:
109,192,216479,1,0,0:0:0:0:
329,192,216595,1,0,0:0:0:0:
402,192,216595,1,0,0:0:0:0:
109,192,216711,1,0,0:0:0:0:
182,192,216711,1,0,0:0:0:0:
36,192,216828,1,2,0:0:0:0:
256,192,216828,1,0,0:0:0:0:
402,192,216828,1,0,0:0:0:0:
475,192,216828,1,0,0:0:0:0:
329,192,216944,1,0,0:0:0:0:
402,192,216944,1,0,0:0:0:0:
109,192,217060,1,0,0:0:0:0:
182,192,217060,1,0,0:0:0:0:
182,192,217177,1,0,0:0:0:0:
36,192,217293,1,2,0:0:0:0:
329,192,217293,1,8,0:0:0:0:
402,192,217293,1,0,0:0:0:0:
475,192,217293,1,0,0:0:0:0:
402,192,217409,1,0,0:0:0:0:
109,192,217525,1,0,0:0:0:0:
256,192,217525,1,0,0:0:0:0:
329,192,217642,1,0,0:0:0:0:
402,192,217642,1,0,0:0:0:0:
36,192,217758,1,2,0:0:0:0:
109,192,217758,1,0,0:0:0:0:
182,192,217758,1,0,0:0:0:0:
475,192,217758,1,0,0:0:0:0:
36,192,217874,1,0,0:0:0:0:
329,192,217990,1,0,0:0:0:0:
402,192,217990,1,0,0:0:0:0:
109,192,218107,1,0,0:0:0:0:
182,192,218107,1,0,0:0:0:0:
36,192,218223,1,2,0:0:0:0:
329,192,218223,1,8,0:0:0:0:
402,192,218223,1,0,0:0:0:0:
475,192,218223,1,0,0:0:0:0:
329,192,218339,1,0,0:0:0:0:
402,192,218339,1,0,0:0:0:0:
109,192,218456,1,0,0:0:0:0:
182,192,218456,1,0,0:0:0:0:
182,192,218572,1,0,0:0:0:0:
36,192,218688,1,2,0:0:0:0:
329,192,218688,1,0,0:0:0:0:
402,192,218688,1,0,0:0:0:0:
475,192,218688,1,0,0:0:0:0:
109,192,218804,1,0,0:0:0:0:
182,192,218804,1,0,0:0:0:0:
182,192,218921,1,0,0:0:0:0:
329,192,219037,1,0,0:0:0:0:
402,192,219037,1,0,0:0:0:0:
36,192,219153,1,2,0:0:0:0:
109,192,219153,1,8,0:0:0:0:
182,192,219153,1,0,0:0:0:0:
475,192,219153,1,0,0:0:0:0:
109,192,219270,1,0,0:0:0:0:
329,192,219386,1,0,0:0:0:0:
402,192,219386,1,0,0:0:0:0:
109,192,219502,1,0,0:0:0:0:
182,192,219502,1,0,0:0:0:0:
36,192,219618,1,2,0:0:0:0:
182,192,219618,1,0,0:0:0:0:
256,192,219618,1,0,0:0:0:0:
329,192,219618,1,0,0:0:0:0:
475,192,219618,1,0,0:0:0:0:
329,192,219735,1,0,0:0:0:0:
36,192,219851,1,0,0:0:0:0:
182,192,219851,1,0,0:0:0:0:
475,192,219851,1,0,0:0:0:0:
329,192,219967,1,0,0:0:0:0:
36,192,220083,1,2,0:0:0:0:
109,192,220083,1,8,0:0:0:0:
182,192,220083,1,0,0:0:0:0:
475,192,220083,1,0,0:0:0:0:
256,192,220200,1,0,0:0:0:0:
182,192,220316,1,0,0:0:0:0:
329,192,220316,1,0,0:0:0:0:
109,192,220432,1,0,0:0:0:0:
329,192,220432,1,0,0:0:0:0:
36,192,220549,1,2,0:0:0:0:
182,192,220549,1,0,0:0:0:0:
402,192,220549,1,0,0:0:0:0:
475,192,220549,1,0,0:0:0:0:
182,192,220665,1,0,0:0:0:0:
329,192,220665,1,0,0:0:0:0:
109,192,220781,1,0,0:0:0:0:
329,192,220781,1,0,0:0:0:0:
256,192,220897,1,0,0:0:0:0:
109,192,221014,1,2,0:0:0:0:
329,192,221014,1,8,0:0:0:0:
402,192,221014,1,0,0:0:0:0:
475,192,221014,1,0,0:0:0:0:
182,192,221130,1,0,0:0:0:0:
329,192,221130,1,0,0:0:0:0:
36,192,221246,1,0,0:0:0:0:
182,192,221363,1,0,0:0:0:0:
329,192,221363,1,0,0:0:0:0:
36,192,221479,1,2,0:0:0:0:
109,192,221479,1,0,0:0:0:0:
182,192,221479,1,0,0:0:0:0:
329,192,221479,1,0,0:0:0:0:
475,192,221595,1,0,0:0:0:0:
182,192,221711,1,0,0:0:0:0:
329,192,221711,1,0,0:0:0:0:
109,192,221828,1,0,0:0:0:0:
329,192,221828,1,0,0:0:0:0:
36,192,221944,1,2,0:0:0:0:
182,192,221944,1,8,0:0:0:0:
256,192,221944,1,0,0:0:0:0:
475,192,221944,1,0,0:0:0:0:
182,192,222060,1,0,0:0:0:0:
329,192,222060,1,0,0:0:0:0:
109,192,222177,1,0,0:0:0:0:
329,192,222177,1,0,0:0:0:0:
256,192,222293,1,0,0:0:0:0:
182,192,222409,1,2,0:0:0:0:
329,192,222409,1,0,0:0:0:0:
475,192,222409,1,0,0:0:0:0:
36,192,222409,1,0,0:0:0:0:
329,192,222525,1,0,0:0:0:0:
36,192,222525,1,0,0:0:0:0:
256,192,222642,1,0,0:0:0:0:
329,192,222758,1,0,0:0:0:0:
36,192,222758,1,0,0:0:0:0:
109,192,222874,1,2,0:0:0:0:
182,192,222874,1,8,0:0:0:0:
329,192,222874,1,0,0:0:0:0:
475,192,222874,1,0,0:0:0:0:
256,192,222990,1,0,0:0:0:0:
182,192,223107,1,0,0:0:0:0:
329,192,223107,1,0,0:0:0:0:
329,192,223223,1,0,0:0:0:0:
182,192,223223,1,0,0:0:0:0:
36,192,223339,1,2,0:0:0:0:
109,192,223339,1,0,0:0:0:0:
256,192,223339,1,0,0:0:0:0:
402,192,223339,1,0,0:0:0:0:
475,192,223339,1,0,0:0:0:0:
402,192,223456,1,0,0:0:0:0:
109,192,223572,1,0,0:0:0:0:
256,192,223572,1,0,0:0:0:0:
109,192,223688,1,0,0:0:0:0:
182,192,223688,1,0,0:0:0:0:
36,192,223804,1,2,0:0:0:0:
329,192,223804,1,8,0:0:0:0:
402,192,223804,1,0,0:0:0:0:
475,192,223804,1,0,0:0:0:0:
402,192,223921,1,0,0:0:0:0:
109,192,224037,1,0,0:0:0:0:
182,192,224037,1,0,0:0:0:0:
329,192,224153,1,0,0:0:0:0:
402,192,224153,1,0,0:0:0:0:
36,192,224270,1,2,0:0:0:0:
109,192,224270,1,0,0:0:0:0:
256,192,224270,1,0,0:0:0:0:
475,192,224270,1,0,0:0:0:0:
109,192,224386,1,0,0:0:0:0:
182,192,224386,1,0,0:0:0:0:
329,192,224502,1,0,0:0:0:0:
402,192,224502,1,0,0:0:0:0:
329,192,224618,1,0,0:0:0:0:
36,192,224735,1,2,0:0:0:0:
109,192,224735,1,8,0:0:0:0:
182,192,224735,1,0,0:0:0:0:
475,192,224735,1,0,0:0:0:0:
109,192,224851,1,0,0:0:0:0:
256,192,224967,1,0,0:0:0:0:
402,192,224967,1,0,0:0:0:0:
109,192,225083,1,0,0:0:0:0:
182,192,225083,1,0,0:0:0:0:
36,192,225200,1,2,0:0:0:0:
329,192,225200,1,0,0:0:0:0:
402,192,225200,1,0,0:0:0:0:
475,192,225200,1,0,0:0:0:0:
475,192,225316,1,0,0:0:0:0:
109,192,225432,1,0,0:0:0:0:
182,192,225432,1,0,0:0:0:0:
329,192,225549,1,0,0:0:0:0:
402,192,225549,1,0,0:0:0:0:
36,192,225665,1,2,0:0:0:0:
109,192,225665,1,8,0:0:0:0:
182,192,225665,1,0,0:0:0:0:
475,192,225665,1,0,0:0:0:0:
109,192,225781,1,0,0:0:0:0:
182,192,225781,1,0,0:0:0:0:
329,192,225897,1,0,0:0:0:0:
402,192,225897,1,0,0:0:0:0:
329,192,226014,1,0,0:0:0:0:
36,192,226130,1,2,0:0:0:0:
109,192,226130,1,0,0:0:0:0:
182,192,226130,1,0,0:0:0:0:
475,192,226130,1,0,0:0:0:0:
329,192,226246,1,0,0:0:0:0:
402,192,226246,1,0,0:0:0:0:
329,192,226363,1,0,0:0:0:0:
109,192,226479,1,0,0:0:0:0:
182,192,226479,1,0,0:0:0:0:
36,192,226595,1,2,0:0:0:0:
329,192,226595,1,8,0:0:0:0:
402,192,226595,1,0,0:0:0:0:
475,192,226595,1,0,0:0:0:0:
402,192,226711,1,0,0:0:0:0:
109,192,226828,1,0,0:0:0:0:
182,192,226828,1,0,0:0:0:0:
329,192,226944,1,0,0:0:0:0:
402,192,226944,1,0,0:0:0:0:
36,192,227060,1,2,0:0:0:0:
109,192,227060,1,0,0:0:0:0:
256,192,227060,1,0,0:0:0:0:
402,192,227060,1,0,0:0:0:0:
475,192,227060,1,0,0:0:0:0:
329,192,227177,1,0,0:0:0:0:
36,192,227293,1,0,0:0:0:0:
182,192,227293,1,0,0:0:0:0:
475,192,227293,1,0,0:0:0:0:
329,192,227409,1,0,0:0:0:0:
36,192,227525,1,8,0:0:0:0:
182,192,227525,1,2,0:0:0:0:
402,192,227525,1,0,0:0:0:0:
475,192,227525,1,0,0:0:0:0:
256,192,227642,1,0,0:0:0:0:
109,192,227758,1,0,0:0:0:0:
329,192,227758,1,0,0:0:0:0:
109,192,227874,1,0,0:0:0:0:
402,192,227874,1,0,0:0:0:0:
36,192,227990,1,2,0:0:0:0:
256,192,227990,1,0,0:0:0:0:
329,192,227990,1,0,0:0:0:0:
475,192,227990,1,0,0:0:0:0:
109,192,228107,1,0,0:0:0:0:
329,192,228107,1,0,0:0:0:0:
109,192,228223,1,0,0:0:0:0:
402,192,228223,1,0,0:0:0:0:
256,192,228339,1,0,0:0:0:0:
36,192,228456,1,2,0:0:0:0:
109,192,228456,1,8,0:0:0:0:
329,192,228456,1,0,0:0:0:0:
475,192,228456,1,0,0:0:0:0:
109,192,228572,1,0,0:0:0:0:
402,192,228572,1,0,0:0:0:0:
256,192,228688,1,0,0:0:0:0:
109,192,228804,1,0,0:0:0:0:
329,192,228804,1,0,0:0:0:0:
109,192,228921,1,2,0:0:0:0:
182,192,228921,1,0,0:0:0:0:
402,192,228921,1,0,0:0:0:0:
475,192,228921,1,0,0:0:0:0:
256,192,229037,1,0,0:0:0:0:
109,192,229153,1,0,0:0:0:0:
329,192,229153,1,0,0:0:0:0:
109,192,229270,1,0,0:0:0:0:
402,192,229270,1,0,0:0:0:0:
36,192,229386,1,8,0:0:0:0:
256,192,229386,1,2,0:0:0:0:
329,192,229386,1,0,0:0:0:0:
475,192,229386,1,0,0:0:0:0:
109,192,229502,1,0,0:0:0:0:
329,192,229502,1,0,0:0:0:0:
109,192,229618,1,0,0:0:0:0:
402,192,229618,1,0,0:0:0:0:
256,192,229735,1,0,0:0:0:0:
109,192,229851,1,2,0:0:0:0:
182,192,229851,1,0,0:0:0:0:
329,192,229851,1,0,0:0:0:0:
475,192,229851,1,0,0:0:0:0:
109,192,229967,1,0,0:0:0:0:
402,192,229967,1,0,0:0:0:0:
256,192,230083,1,0,0:0:0:0:
109,192,230200,1,0,0:0:0:0:
329,192,230200,1,0,0:0:0:0:
36,192,230316,1,8,0:0:0:0:
109,192,230316,1,2,0:0:0:0:
256,192,230316,1,0,0:0:0:0:
402,192,230316,1,0,0:0:0:0:
182,192,230432,1,0,0:0:0:0:
109,192,230549,1,0,0:0:0:0:
329,192,230549,1,0,0:0:0:0:
109,192,230665,1,0,0:0:0:0:
402,192,230665,1,0,0:0:0:0:
36,192,230781,1,2,0:0:0:0:
182,192,230781,1,0,0:0:0:0:
256,192,230781,1,0,0:0:0:0:
402,192,230781,1,0,0:0:0:0:
475,192,230781,1,0,0:0:0:0:
182,192,230897,1,0,0:0:0:0:
329,192,231014,1,0,0:0:0:0:
402,192,231014,1,0,0:0:0:0:
36,192,231130,1,0,0:0:0:0:
475,192,231130,1,0,0:0:0:0:
109,192,231246,1,2,0:0:0:0:
256,192,231246,1,8,0:0:0:0:
329,192,231246,1,0,0:0:0:0:
402,192,231246,1,0,0:0:0:0:
329,192,231363,1,0,0:0:0:0:
36,192,231479,1,0,0:0:0:0:
475,192,231479,1,0,0:0:0:0:
182,192,231595,1,0,0:0:0:0:
329,192,231595,1,0,0:0:0:0:
109,192,231711,1,2,0:0:0:0:
256,192,231711,1,0,0:0:0:0:
402,192,231711,1,0,0:0:0:0:
475,192,231711,1,0,0:0:0:0:
36,192,231828,1,0,0:0:0:0:
475,192,231828,1,0,0:0:0:0:
182,192,231944,1,0,0:0:0:0:
329,192,231944,1,0,0:0:0:0:
329,192,232060,1,0,0:0:0:0:
36,192,232177,1,8,0:0:0:0:
109,192,232177,1,2,0:0:0:0:
402,192,232177,1,0,0:0:0:0:
475,192,232177,1,0,0:0:0:0:
182,192,232293,1,0,0:0:0:0:
329,192,232293,1,0,0:0:0:0:
256,192,232409,1,0,0:0:0:0:
36,192,232525,1,0,0:0:0:0:
475,192,232525,1,0,0:0:0:0:
109,192,232642,1,2,0:0:0:0:
182,192,232642,1,0,0:0:0:0:
329,192,232642,1,0,0:0:0:0:
475,192,232642,1,0,0:0:0:0:
182,192,232758,1,0,0:0:0:0:
36,192,232874,1,0,0:0:0:0:
475,192,232874,1,0,0:0:0:0:
182,192,232990,1,0,0:0:0:0:
329,192,232990,1,0,0:0:0:0:
36,192,233107,1,8,0:0:0:0:
109,192,233107,1,2,0:0:0:0:
256,192,233107,1,0,0:0:0:0:
475,192,233107,1,0,0:0:0:0:
36,192,233223,1,0,0:0:0:0:
475,192,233223,1,0,0:0:0:0:
182,192,233339,1,0,0:0:0:0:
329,192,233339,1,0,0:0:0:0:
182,192,233456,1,0,0:0:0:0:
36,192,233572,1,2,0:0:0:0:
109,192,233572,1,0,0:0:0:0:
256,192,233572,1,0,0:0:0:0:
475,192,233572,1,0,0:0:0:0:
182,192,233688,1,0,0:0:0:0:
329,192,233688,1,0,0:0:0:0:
329,192,233804,1,0,0:0:0:0:
36,192,233921,1,0,0:0:0:0:
475,192,233921,1,0,0:0:0:0:
36,192,234037,1,2,0:0:0:0:
182,192,234037,1,8,0:0:0:0:
329,192,234037,1,0,0:0:0:0:
402,192,234037,1,0,0:0:0:0:
329,192,234153,1,0,0:0:0:0:
36,192,234270,1,0,0:0:0:0:
475,192,234270,1,0,0:0:0:0:
182,192,234386,1,0,0:0:0:0:
329,192,234386,1,0,0:0:0:0:
36,192,234502,1,2,0:0:0:0:
109,192,234502,1,0,0:0:0:0:
256,192,234502,1,0,0:0:0:0:
402,192,234502,1,0,0:0:0:0:
475,192,234502,1,0,0:0:0:0:
182,192,234618,1,0,0:0:0:0:
36,192,234735,1,0,0:0:0:0:
329,192,234735,1,0,0:0:0:0:
475,192,234735,1,0,0:0:0:0:
182,192,234851,1,0,0:0:0:0:
36,192,234967,1,8,0:0:0:0:
109,192,234967,1,2,0:0:0:0:
329,192,234967,1,0,0:0:0:0:
475,192,234967,1,0,0:0:0:0:
256,192,235083,1,0,0:0:0:0:
182,192,235200,1,0,0:0:0:0:
402,192,235200,1,0,0:0:0:0:
109,192,235316,1,0,0:0:0:0:
402,192,235316,1,0,0:0:0:0:
36,192,235432,1,2,0:0:0:0:
182,192,235432,1,0,0:0:0:0:
256,192,235432,1,0,0:0:0:0:
475,192,235432,1,0,0:0:0:0:
182,192,235549,1,0,0:0:0:0:
402,192,235549,1,0,0:0:0:0:
109,192,235665,1,0,0:0:0:0:
402,192,235665,1,0,0:0:0:0:
256,192,235781,1,0,0:0:0:0:
36,192,235897,1,8,0:0:0:0:
182,192,235897,1,2,0:0:0:0:
402,192,235897,1,0,0:0:0:0:
475,192,235897,1,0,0:0:0:0:
109,192,236014,1,0,0:0:0:0:
402,192,236014,1,0,0:0:0:0:
256,192,236130,1,0,0:0:0:0:
182,192,236246,1,0,0:0:0:0:
402,192,236246,1,0,0:0:0:0:
36,192,236363,1,2,0:0:0:0:
109,192,236363,1,0,0:0:0:0:
329,192,236363,1,0,0:0:0:0:
402,192,236363,1,0,0:0:0:0:
256,192,236479,1,0,0:0:0:0:
182,192,236595,1,0,0:0:0:0:
402,192,236595,1,0,0:0:0:0:
109,192,236711,1,0,0:0:0:0:
402,192,236711,1,0,0:0:0:0:
36,192,236828,1,8,0:0:0:0:
182,192,236828,1,2,0:0:0:0:
256,192,236828,1,0,0:0:0:0:
475,192,236828,1,0,0:0:0:0:
182,192,236944,1,0,0:0:0:0:
402,192,236944,1,0,0:0:0:0:
109,192,237060,1,0,0:0:0:0:
402,192,237060,1,0,0:0:0:0:
256,192,237177,1,0,0:0:0:0:
36,192,237293,1,2,0:0:0:0:
182,192,237293,1,0,0:0:0:0:
329,192,237293,1,0,0:0:0:0:
402,192,237293,1,0,0:0:0:0:
182,192,237409,1,0,0:0:0:0:
475,192,237409,1,0,0:0:0:0:
329,192,237525,1,0,0:0:0:0:
182,192,237642,1,0,0:0:0:0:
475,192,237642,1,0,0:0:0:0:
109,192,237758,1,2,0:0:0:0:
256,192,237758,1,8,0:0:0:0:
402,192,237758,1,0,0:0:0:0:
36,192,237758,1,0,0:0:0:0:
329,192,237874,1,0,0:0:0:0:
402,192,237990,1,0,0:0:0:0:
109,192,237990,1,0,0:0:0:0:
402,192,238107,1,0,0:0:0:0:
109,192,238107,1,0,0:0:0:0:
36,192,238223,1,2,0:0:0:0:
329,192,238223,1,0,0:0:0:0:
475,192,238223,1,0,0:0:0:0:
182,192,238223,1,0,0:0:0:0:
182,192,238339,1,0,0:0:0:0:
329,192,238339,1,0,0:0:0:0:
36,192,238456,1,0,0:0:0:0:
182,192,238572,1,0,0:0:0:0:
329,192,238572,1,0,0:0:0:0:
182,192,238688,1,8,0:0:0:0:
402,192,238688,1,2,0:0:0:0:
475,192,238688,1,0,0:0:0:0:
329,192,238804,1,0,0:0:0:0:
182,192,238921,1,0,0:0:0:0:
182,192,239037,1,0,0:0:0:0:
329,192,239037,1,0,0:0:0:0:
36,192,239153,1,2,0:0:0:0:
109,192,239153,1,0,0:0:0:0:
402,192,239153,1,0,0:0:0:0:
182,192,239270,1,0,0:0:0:0:
182,192,239386,1,0,0:0:0:0:
329,192,239386,1,0,0:0:0:0:
256,192,239502,1,0,0:0:0:0:
182,192,239618,1,8,0:0:0:0:
402,192,239618,1,2,0:0:0:0:
475,192,239618,1,0,0:0:0:0:
182,192,239735,1,0,0:0:0:0:
329,192,239735,1,0,0:0:0:0:
109,192,239851,1,0,0:0:0:0:
475,192,239967,1,0,0:0:0:0:
36,192,240083,1,2,0:0:0:0:
109,192,240083,1,8,0:0:0:0:
182,192,240083,1,0,0:0:0:0:
402,192,240083,1,0,0:0:0:0:
329,192,240200,1,0,0:0:0:0:
256,192,240316,1,0,0:0:0:0:
36,192,240432,1,2,0:0:0:0:
109,192,240432,1,0,0:0:0:0:
182,192,240432,1,0,0:0:0:0:
402,192,240432,1,0,0:0:0:0:
329,192,240549,1,0,0:0:0:0:
256,192,240665,1,0,0:0:0:0:
36,192,240781,1,2,0:0:0:0:
109,192,240781,1,0,0:0:0:0:
182,192,240781,1,0,0:0:0:0:
402,192,240781,1,0,0:0:0:0:
329,192,240897,1,0,0:0:0:0:
256,192,241014,1,0,0:0:0:0:
36,192,241130,1,2,0:0:0:0:
109,192,241130,1,0,0:0:0:0:
182,192,241130,1,0,0:0:0:0:
402,192,241130,1,0,0:0:0:0:
329,192,241246,1,0,0:0:0:0:
256,192,241363,1,0,0:0:0:0:
36,192,241479,128,2,241944:0:0:0:0:
109,192,241479,1,0,0:0:0:0:
182,192,241479,1,0,0:0:0:0:
402,192,241479,1,0,0:0:0:0:
329,192,241944,1,2,0:0:0:0:
402,192,241944,1,0,0:0:0:70:Sweepdown.wav
475,192,241944,1,0,0:0:0:0:
36,192,242177,1,0,0:0:0:0:
182,192,242177,1,0,0:0:0:0:
329,192,242409,1,0,0:0:0:0:
402,192,242409,1,0,0:0:0:0:
475,192,242409,1,2,0:0:0:0:
36,192,242525,1,0,0:0:0:0:
182,192,242525,1,0,0:0:0:0:
36,192,242874,1,0,0:0:0:0:
182,192,242874,1,0,0:0:0:0:
329,192,242874,1,0,0:0:0:0:
402,192,242874,1,0,0:0:0:0:
475,192,242874,1,2,0:0:0:0:
36,192,243223,1,0,0:0:0:0:
182,192,243223,1,0,0:0:0:0:
329,192,243339,1,0,0:0:0:0:
402,192,243339,1,0,0:0:0:0:
475,192,243339,1,2,0:0:0:0:
36,192,243572,1,0,0:0:0:0:
182,192,243572,1,0,0:0:0:0:
329,192,243804,1,0,0:0:0:0:
402,192,243804,1,0,0:0:0:0:
475,192,243804,1,2,0:0:0:0:
36,192,243921,1,0,0:0:0:0:
182,192,243921,1,0,0:0:0:0:
36,192,244270,1,0,0:0:0:0:
182,192,244270,1,0,0:0:0:0:
329,192,244270,1,0,0:0:0:0:
402,192,244270,1,0,0:0:0:0:
475,192,244270,1,2,0:0:0:0:
36,192,244618,1,0,0:0:0:0:
182,192,244618,1,0,0:0:0:0:
329,192,244735,1,0,0:0:0:0:
402,192,244735,1,0,0:0:0:0:
475,192,244735,1,2,0:0:0:0:
36,192,244967,1,0,0:0:0:0:
182,192,244967,1,0,0:0:0:0:
329,192,245200,1,0,0:0:0:0:
402,192,245200,1,0,0:0:0:0:
475,192,245200,1,2,0:0:0:0:
36,192,245316,1,0,0:0:0:0:
182,192,245316,1,0,0:0:0:0:
36,192,245665,1,0,0:0:0:0:
182,192,245665,1,0,0:0:0:0:
329,192,245665,1,0,0:0:0:0:
402,192,245665,1,0,0:0:0:0:
475,192,245665,1,2,0:0:0:0:
36,192,246014,1,0,0:0:0:0:
182,192,246014,1,0,0:0:0:0:
329,192,246130,1,0,0:0:0:0:
402,192,246130,1,0,0:0:0:0:
475,192,246130,1,2,0:0:0:0:
36,192,246363,1,0,0:0:0:0:
182,192,246363,1,0,0:0:0:0:
329,192,246595,1,0,0:0:0:0:
402,192,246595,1,0,0:0:0:0:
475,192,246595,1,2,0:0:0:0:
36,192,246711,1,0,0:0:0:0:
182,192,246711,1,0,0:0:0:0:
36,192,247060,1,0,0:0:0:0:
182,192,247060,1,0,0:0:0:0:
329,192,247060,1,0,0:0:0:0:
402,192,247060,1,0,0:0:0:0:
475,192,247060,1,2,0:0:0:0:
36,192,247409,1,0,0:0:0:0:
182,192,247409,1,0,0:0:0:0:
329,192,247525,1,0,0:0:0:0:
402,192,247525,1,0,0:0:0:0:
475,192,247525,1,2,0:0:0:0:
36,192,247758,1,0,0:0:0:0:
182,192,247758,1,0,0:0:0:0:
329,192,247990,1,0,0:0:0:0:
402,192,247990,1,0,0:0:0:0:
475,192,247990,1,2,0:0:0:0:
36,192,248107,1,0,0:0:0:0:
182,192,248107,1,0,0:0:0:0:
36,192,248456,1,0,0:0:0:0:
182,192,248456,1,0,0:0:0:0:
329,192,248456,1,0,0:0:0:0:
402,192,248456,1,0,0:0:0:0:
475,192,248456,1,2,0:0:0:0:
36,192,248804,1,0,0:0:0:0:
182,192,248804,1,0,0:0:0:0:
329,192,248921,1,0,0:0:0:0:
402,192,248921,1,0,0:0:0:0:
475,192,248921,1,2,0:0:0:0:
36,192,249153,1,0,0:0:0:0:
182,192,249153,1,0,0:0:0:0:
329,192,249386,1,0,0:0:0:0:
402,192,249386,1,0,0:0:0:0:
475,192,249386,1,2,0:0:0:0:
36,192,249502,1,0,0:0:0:0:
182,192,249502,1,0,0:0:0:0:
36,192,249851,1,0,0:0:0:0:
182,192,249851,1,0,0:0:0:0:
329,192,249851,1,0,0:0:0:0:
402,192,249851,1,0,0:0:0:0:
475,192,249851,1,2,0:0:0:0:
36,192,250200,1,0,0:0:0:0:
182,192,250200,1,0,0:0:0:0:
329,192,250316,1,0,0:0:0:0:
402,192,250316,1,0,0:0:0:0:
475,192,250316,1,2,0:0:0:0:
36,192,250549,1,0,0:0:0:0:
182,192,250549,1,0,0:0:0:0:
329,192,250781,1,0,0:0:0:0:
402,192,250781,1,0,0:0:0:0:
475,192,250781,1,2,0:0:0:0:
36,192,250897,1,0,0:0:0:0:
182,192,250897,1,0,0:0:0:0:
36,192,251246,1,0,0:0:0:0:
182,192,251246,1,0,0:0:0:0:
329,192,251246,1,0,0:0:0:0:
402,192,251246,1,0,0:0:0:0:
475,192,251246,1,2,0:0:0:0:
36,192,251595,1,0,0:0:0:0:
182,192,251595,1,0,0:0:0:0:
329,192,251711,1,0,0:0:0:0:
402,192,251711,1,0,0:0:0:0:
475,192,251711,1,2,0:0:0:0:
36,192,251944,1,0,0:0:0:0:
182,192,251944,1,0,0:0:0:0:
329,192,252177,1,0,0:0:0:0:
402,192,252177,1,0,0:0:0:0:
475,192,252177,1,2,0:0:0:0:
36,192,252293,1,0,0:0:0:0:
182,192,252293,1,0,0:0:0:0:
36,192,252642,1,0,0:0:0:0:
182,192,252642,1,0,0:0:0:0:
329,192,252642,1,0,0:0:0:0:
402,192,252642,1,0,0:0:0:0:
475,192,252642,1,2,0:0:0:0:
36,192,252990,1,0,0:0:0:0:
182,192,252990,1,0,0:0:0:0:
329,192,253107,1,0,0:0:0:0:
402,192,253107,1,0,0:0:0:0:
475,192,253107,1,2,0:0:0:0:
36,192,253339,1,0,0:0:0:0:
182,192,253339,1,0,0:0:0:0:
329,192,253572,1,0,0:0:0:0:
402,192,253572,1,0,0:0:0:0:
475,192,253572,1,2,0:0:0:0:
36,192,253688,1,0,0:0:0:0:
182,192,253688,1,0,0:0:0:0:
36,192,254037,1,0,0:0:0:0:
182,192,254037,1,0,0:0:0:0:
329,192,254037,1,0,0:0:0:0:
402,192,254037,1,0,0:0:0:0:
475,192,254037,1,2,0:0:0:0:
36,192,254386,1,0,0:0:0:0:
182,192,254386,1,0,0:0:0:0:
329,192,254502,1,0,0:0:0:0:
402,192,254502,1,0,0:0:0:0:
475,192,254502,1,2,0:0:0:0:
36,192,254735,1,0,0:0:0:0:
182,192,254735,1,0,0:0:0:0:
329,192,254967,1,0,0:0:0:0:
402,192,254967,1,0,0:0:0:0:
475,192,254967,1,2,0:0:0:0:
36,192,255083,1,0,0:0:0:0:
182,192,255083,1,0,0:0:0:0:
36,192,255432,1,0,0:0:0:0:
182,192,255432,1,0,0:0:0:0:
329,192,255432,1,0,0:0:0:0:
402,192,255432,1,0,0:0:0:0:
475,192,255432,1,2,0:0:0:0:
36,192,255781,5,0,0:0:0:0:
182,192,255781,1,0,0:0:0:0:
329,192,255897,1,0,0:0:0:0:
402,192,255897,1,0,0:0:0:0:
475,192,255897,1,2,0:0:0:0:
36,192,256130,1,0,0:0:0:0:
182,192,256130,1,0,0:0:0:0:
329,192,256363,1,0,0:0:0:0:
402,192,256363,1,0,0:0:0:0:
475,192,256363,1,2,0:0:0:0:
36,192,256479,1,0,0:0:0:0:
182,192,256479,1,0,0:0:0:0:
182,192,256828,1,0,0:0:0:0:
329,192,256828,1,0,0:0:0:0:
402,192,256828,1,0,0:0:0:0:
475,192,256828,1,2,0:0:0:0:
182,192,257177,1,0,0:0:0:0:
329,192,257293,1,0,0:0:0:0:
402,192,257293,1,0,0:0:0:0:
475,192,257293,1,2,0:0:0:0:
182,192,257525,1,0,0:0:0:0:
329,192,257758,1,0,0:0:0:0:
402,192,257758,1,0,0:0:0:0:
475,192,257758,1,2,0:0:0:0:
182,192,257874,1,0,0:0:0:0:
182,192,258223,1,0,0:0:0:0:
329,192,258223,1,0,0:0:0:0:
402,192,258223,1,0,0:0:0:0:
475,192,258223,1,2,0:0:0:0:
182,192,258572,1,0,0:0:0:0:
329,192,258688,1,0,0:0:0:0:
402,192,258688,1,0,0:0:0:0:
475,192,258688,1,2,0:0:0:0:
182,192,258921,1,0,0:0:0:0:
329,192,259153,1,0,0:0:0:0:
402,192,259153,1,0,0:0:0:0:
475,192,259153,1,2,0:0:0:0:
182,192,259270,1,0,0:0:0:0:
182,192,259618,1,0,0:0:0:0:
329,192,259618,1,0,0:0:0:0:
402,192,259618,1,0,0:0:0:0:
475,192,259618,1,2,0:0:0:0:
182,192,259967,1,0,0:0:0:0:
329,192,260083,1,0,0:0:0:0:
402,192,260083,1,0,0:0:0:0:
475,192,260083,1,2,0:0:0:0:
182,192,260316,1,0,0:0:0:0:
329,192,260549,1,0,0:0:0:0:
402,192,260549,1,0,0:0:0:0:
475,192,260549,1,2,0:0:0:0:
182,192,260665,1,0,0:0:0:0:
182,192,261014,1,0,0:0:0:0:
329,192,261014,1,0,0:0:0:0:
402,192,261014,1,0,0:0:0:0:
475,192,261014,1,2,0:0:0:0:
182,192,261363,1,0,0:0:0:0:
329,192,261479,1,0,0:0:0:0:
402,192,261479,1,0,0:0:0:0:
475,192,261479,1,2,0:0:0:0:
182,192,261711,1,0,0:0:0:0:
329,192,261944,1,0,0:0:0:0:
402,192,261944,1,0,0:0:0:0:
475,192,261944,1,2,0:0:0:0:
182,192,262060,1,0,0:0:0:0:
182,192,262409,1,0,0:0:0:0:
329,192,262409,1,0,0:0:0:0:
402,192,262409,1,0,0:0:0:0:
475,192,262409,1,2,0:0:0:0:
182,192,262758,1,0,0:0:0:0:
329,192,262874,1,0,0:0:0:0:
402,192,262874,1,0,0:0:0:0:
475,192,262874,1,2,0:0:0:0:
182,192,263107,1,0,0:0:0:0:
329,192,263339,1,0,0:0:0:0:
402,192,263339,1,0,0:0:0:0:
475,192,263339,1,2,0:0:0:0:
182,192,263456,1,0,0:0:0:0:
182,192,263804,1,0,0:0:0:0:
329,192,263804,1,0,0:0:0:0:
402,192,263804,1,0,0:0:0:0:
475,192,263804,1,2,0:0:0:0:
182,192,264153,1,0,0:0:0:0:
329,192,264270,1,0,0:0:0:0:
402,192,264270,1,0,0:0:0:0:
475,192,264270,1,2,0:0:0:0:
182,192,264502,1,0,0:0:0:0:
329,192,264735,1,0,0:0:0:0:
402,192,264735,1,0,0:0:0:0:
475,192,264735,1,2,0:0:0:0:
182,192,264851,1,0,0:0:0:0:
182,192,265200,1,0,0:0:0:0:
329,192,265200,1,0,0:0:0:0:
402,192,265200,1,0,0:0:0:0:
475,192,265200,1,2,0:0:0:0:
182,192,265549,1,0,0:0:0:0:
329,192,265665,1,0,0:0:0:0:
402,192,265665,1,0,0:0:0:0:
475,192,265665,1,2,0:0:0:0:
182,192,265897,1,0,0:0:0:0:
329,192,266130,1,0,0:0:0:0:
402,192,266130,1,0,0:0:0:0:
475,192,266130,1,2,0:0:0:0:
182,192,266246,1,0,0:0:0:0:
182,192,266595,1,0,0:0:0:0:
329,192,266595,1,0,0:0:0:0:
402,192,266595,1,0,0:0:0:0:
475,192,266595,1,2,0:0:0:0:
182,192,266944,1,0,0:0:0:0:
329,192,267060,1,0,0:0:0:0:
402,192,267060,1,0,0:0:0:0:
475,192,267060,1,2,0:0:0:0:
182,192,267293,1,0,0:0:0:0:
329,192,267525,1,0,0:0:0:0:
402,192,267525,1,0,0:0:0:0:
475,192,267525,1,2,0:0:0:0:
182,192,267642,1,0,0:0:0:0:
329,192,267990,1,0,0:0:0:0:
402,192,267990,1,0,0:0:0:0:
475,192,267990,1,2,0:0:0:0:
182,192,268223,1,0,0:0:0:0:
329,192,268456,1,0,0:0:0:0:
402,192,268456,1,0,0:0:0:0:
475,192,268456,1,2,0:0:0:0:
182,192,268688,1,0,0:0:0:0:
329,192,268921,1,0,0:0:0:0:
402,192,268921,1,0,0:0:0:0:
475,192,268921,1,2,0:0:0:0:
182,192,269153,1,0,0:0:0:0:
329,192,269386,1,0,0:0:0:0:
402,192,269386,1,0,0:0:0:0:
475,192,269386,1,2,0:0:0:0:
182,192,269618,1,0,0:0:0:0:
329,192,269851,1,0,0:0:0:0:
402,192,269851,1,0,0:0:0:0:
475,192,269851,1,2,0:0:0:0:
329,192,270316,1,0,0:0:0:0:
402,192,270316,1,0,0:0:0:0:
475,192,270316,1,2,0:0:0:0:
329,192,270781,1,0,0:0:0:0:
402,192,270781,1,0,0:0:0:0:
475,192,270781,1,2,0:0:0:0:
329,192,271246,1,0,0:0:0:0:
402,192,271246,1,0,0:0:0:0:
475,192,271246,1,2,0:0:0:0:
