osu file format v14

[General]
AudioFilename: audio.mp3
AudioLeadIn: 0
PreviewTime: 47893
Countdown: 0
SampleSet: Soft
StackLeniency: 0.7
Mode: 0
LetterboxInBreaks: 0
WidescreenStoryboard: 0

[Editor]
DistanceSpacing: 2
BeatDivisor: 4
GridSize: 32
TimelineZoom: 3.199999

[Metadata]
Title:Til Death (Nightcore Mix)
TitleUnicode:Til Death (Nightcore Mix)
Artist:Digital Sexy
ArtistUnicode:Digital Sexy
Creator:Sotarks
Version:Reform's Insane
Source:
Tags:Techno Trance Dance Technoposse Remix Mix Cut Edit Speed Up Version English Vocalist reform kujinn taeyang kowari akitoshi corinn -laura-
BeatmapID:2103566
BeatmapSetID:1002716

[Difficulty]
HPDrainRate:5
CircleSize:4
OverallDifficulty:8
ApproachRate:9
SliderMultiplier:1.62
SliderTickRate:1

[Events]
//Background and Video events
0,0,"bg_shinobu.jpg",0,0
//Break Periods
2,59532,64703
//Storyboard Layer 0 (Background)
//Storyboard Layer 1 (Fail)
//Storyboard Layer 2 (Pass)
//Storyboard Layer 3 (Foreground)
//Storyboard Sound Samples

[TimingPoints]
1781,360.923965351299,4,2,22,52,1,0
1781,-121.951219512195,4,2,22,52,0,0
13330,-108.695652173913,4,2,22,62,0,0
24158,-192.307692307692,4,2,22,52,0,0
24880,-98.0392156862745,4,2,22,72,0,0
36429,-89.2857142857143,4,2,22,72,0,0
46535,-121.951219512195,4,2,22,72,0,0
47257,-192.307692307692,4,2,22,72,0,0
47979,-89.2857142857143,4,2,22,72,0,0
59528,-121.951219512195,4,2,22,62,0,0
68191,-108.695652173913,4,2,22,72,0,0
71078,-89.2857142857143,4,2,22,82,0,0
81184,-108.695652173913,4,2,22,72,0,0
82627,-98.0392156862745,4,2,22,72,0,0
88402,-108.695652173913,4,2,22,62,0,0
99952,-161.290322580645,4,2,22,52,0,0
115832,-161.290322580645,4,2,22,12,0,0

[Colours]
Combo1 : 209,97,97
Combo2 : 255,215,138
Combo3 : 255,70,17
Combo4 : 255,145,186

[HitObjects]
165,229,1781,6,0,P|200:255|239:256,1,66.4200010134888,6|0,0:2|0:2,0:0:0:0:
287,171,2141,2,0,P|322:145|361:144,1,66.4200010134888,2|0,0:2|0:2,0:0:0:0:
442,194,2502,2,0,P|456:244|437:347,2,132.840002026978,2|0|0,0:2|0:2|0:2,0:0:0:0:
442,194,3585,2,0,P|402:197|363:169,1,66.4200010134888,2|0,0:2|0:2,0:0:0:0:
295,106,3946,2,0,P|246:92|180:169,1,132.840002026978,2|0,0:2|0:2,0:0:0:0:
184,137,4668,6,0,P|197:180|200:228,1,66.4200010134888,2|0,0:2|0:2,0:0:0:0:
311,259,5029,2,0,P|298:302|295:350,1,66.4200010134888,2|0,0:2|0:2,0:0:0:0:
182,370,5390,2,0,P|128:374|77:290,2,132.840002026978,2|2|0,0:2|0:2|0:2,0:0:0:0:
182,370,6473,2,0,P|214:348|257:346,1,66.4200010134888,2|0,0:2|0:2,0:0:0:0:
393,366,6833,2,0,P|375:326|390:211,1,132.840002026978,2|0,0:2|0:2,0:0:0:0:
377,238,7555,6,0,L|461:227,1,66.4200010134888,2|0,0:2|0:2,0:0:0:0:
352,128,7916,2,0,L|268:117,1,66.4200010134888,2|0,0:2|0:2,0:0:0:0:
194,236,8277,2,0,L|278:225,1,66.4200010134888,2|0,0:2|0:2,0:0:0:0:
102,170,8638,2,0,P|84:217|86:255,1,66.4200010134888,2|0,0:2|0:2,0:0:0:0:
203,353,8999,1,2,0:2:0:0:
203,353,9179,2,0,P|221:306|219:268,1,66.4200010134888,0|0,0:2|0:2,0:0:0:0:
181,155,9540,2,0,P|220:205|304:192,1,132.840002026978,2|0,0:2|0:2,0:0:0:0:
380,141,10082,1,2,0:2:0:0:
380,141,10443,6,0,P|371:92|357:52,1,66.4200010134888,2|0,0:2|0:2,0:0:0:0:
281,204,10804,1,2,0:2:0:0:
281,204,10984,1,0,0:2:0:0:
202,62,11165,2,0,P|192:95|186:130,1,66.4200010134888,2|0,0:2|0:2,0:0:0:0:
97,260,11525,2,0,P|91:225|81:191,1,66.4200010134888,2|0,0:2|0:2,0:0:0:0:
23,61,11886,2,0,P|65:81|103:79,1,66.4200010134888,6|0,0:2|0:2,0:0:0:0:
252,148,12247,2,0,P|217:151|186:168,1,66.4200010134888,2|0,0:2|0:2,0:0:0:0:
321,235,12608,2,0,P|362:194|350:96,1,132.840002026978,2|0,0:2|0:2,0:0:0:0:
365,122,13330,6,0,P|324:105|283:103,1,74.5199974984132,6|0,0:2|0:2,0:0:0:0:
232,208,13691,2,0,P|191:225|150:227,1,74.5199974984132,2|0,3:2|0:2,0:0:0:0:
65,177,14052,2,0,L|45:22,1,149.039994996826,0|0,0:2|3:2,0:0:0:0:
145,109,14593,1,0,0:2:0:0:
228,41,14774,2,0,P|266:28|315:34,1,74.5199974984132,2|0,0:2|0:2,0:0:0:0:
360,162,15135,2,0,P|322:163|288:150,1,74.5199974984132,2|0,3:2|0:2,0:0:0:0:
435,87,15496,2,0,P|409:151|400:259,1,149.039994996826,2|0,0:2|3:2,0:0:0:0:
453,346,16037,1,0,0:2:0:0:
453,346,16217,6,0,P|405:335|349:322,1,74.5199974984132,2|0,0:2|0:2,0:0:0:0:
237,242,16578,2,0,P|285:231|341:218,1,74.5199974984132,2|0,3:2|0:2,0:0:0:0:
261,333,16939,2,0,P|194:331|142:253,1,149.039994996826,2|0,0:2|3:2,0:0:0:0:
216,135,17481,1,0,0:2:0:0:
216,135,17661,2,0,P|227:181|236:231,1,74.5199974984132,2|0,0:2|0:2,0:0:0:0:
83,314,18022,2,0,P|90:277|99:241,1,74.5199974984132,2|0,3:2|0:2,0:0:0:0:
225,327,18383,2,0,B|314:332|268:268|385:280,1,149.039994996826,2|0,0:2|3:2,0:0:0:0:
477,348,18924,1,0,0:2:0:0:
477,348,19105,6,0,P|471:300|466:250,1,74.5199974984132,2|0,0:2|0:2,0:0:0:0:
339,178,19466,2,0,P|334:215|330:251,1,74.5199974984132,2|0,3:2|0:2,0:0:0:0:
431,129,19827,2,0,P|380:79|300:86,1,149.039994996826,2|0,0:2|3:2,0:0:0:0:
195,160,20368,1,0,0:2:0:0:
195,160,20549,6,0,P|148:159|107:130,1,74.5199974984132,2|0,0:2|0:2,0:0:0:0:
96,28,20909,2,0,P|143:29|184:58,1,74.5199974984132,2|0,3:2|0:2,0:0:0:0:
107,215,21270,2,0,P|100:160|93:123,1,74.5199974984132,2|0,0:2|0:2,0:0:0:0:
277,47,21631,2,0,P|270:83|266:120,1,74.5199974984132,2|0,3:2|0:2,0:0:0:0:
365,281,21992,6,0,P|424:298|486:217,1,149.039994996826,2|2,0:2|3:2,0:0:0:0:
333,146,22534,1,0,0:2:0:0:
444,95,22714,1,2,0:2:0:0:
412,210,22895,1,0,0:2:0:0:
285,85,23075,2,0,P|318:65|363:68,1,74.5199974984132,2|0,3:2|0:2,0:0:0:0:
275,235,23436,2,0,P|238:234|206:214,1,74.5199974984132,2|2,0:2|0:2,0:0:0:0:
107,49,23797,2,0,L|119:126,1,74.5199974984132,2|0,0:2|0:0,0:0:0:0:
46,265,24158,2,0,P|75:219|174:226,1,147.41999910022,2|0,0:2|0:2,0:0:0:0:
196,245,24880,6,0,P|247:270|328:204,1,165.240001008545,6|8,1:2|0:2,0:0:0:0:
269,124,25421,2,0,P|324:68|399:90,1,165.240001008545,0|0,1:2|1:2,0:0:0:0:
474,178,25962,1,8,0:2:0:0:
254,343,26323,5,0,1:2:0:0:
254,343,26684,2,0,P|246:294|236:253,1,82.6200005042725,10|0,0:2|1:2,0:0:0:0:
359,151,27045,2,0,P|349:191|343:232,1,82.6200005042725,2|0,0:2|1:2,0:0:0:0:
237,98,27406,1,10,0:2:0:0:
237,98,27767,6,0,B|142:85|186:160|69:143,1,165.240001008545,2|8,1:2|0:2,0:0:0:0:
21,50,28308,2,0,P|34:108|57:219,1,165.240001008545,0|0,1:2|1:2,0:0:0:0:
24,349,28850,1,8,0:2:0:0:
199,113,29211,5,0,1:2:0:0:
199,113,29572,2,0,P|243:133|285:128,1,82.6200005042725,10|2,0:2|1:2,0:0:0:0:
401,201,29933,2,0,P|360:200|323:218,1,82.6200005042725,2|0,0:2|1:2,0:0:0:0:
238,280,30293,1,10,0:2:0:0:
478,359,30654,5,0,1:2:0:0:
478,359,31015,2,0,L|486:266,1,82.6200005042725,10|0,0:2|1:2,0:0:0:0:
369,149,31376,2,0,L|376:231,1,82.6200005042725,2|0,0:2|1:2,0:0:0:0:
491,87,31737,2,0,P|461:38|352:49,1,165.240001008545,10|0,0:2|1:2,0:0:0:0:
362,39,32459,6,0,P|323:62|274:54,1,82.6200005042725,10|0,0:2|1:2,0:0:0:0:
204,141,32820,2,0,P|165:118|116:126,1,82.6200005042725,2|0,0:2|1:2,0:0:0:0:
49,227,33181,2,0,P|37:156|15:32,1,165.240001008545,10|0,0:2|0:2,0:0:0:0:
20,64,33903,6,0,L|10:158,1,82.6200005042725,2|0,3:2|0:2,0:0:0:0:
111,121,34264,2,0,L|121:215,1,82.6200005042725,2|0,0:2|0:2,0:0:0:0:
221,163,34625,2,0,L|211:257,1,82.6200005042725,2|0,3:2|0:2,0:0:0:0:
314,194,34986,1,6,0:2:0:0:
129,340,36429,6,0,P|119:285|126:236,1,90.7200011074219,6|0,1:2|0:2,0:0:0:0:
313,184,36790,2,0,P|315:229|306:273,1,90.7200011074219,2|0,1:2|0:2,0:0:0:0:
161,147,37151,1,2,1:2:0:0:
302,92,37332,1,0,0:2:0:0:
168,250,37512,2,0,P|116:241|76:199,1,90.7200011074219,2|0,1:2|0:2,0:0:0:0:
313,115,37873,6,0,P|365:124|405:166,1,90.7200011074219,2|0,1:2|0:2,0:0:0:0:
311,320,38234,2,0,P|300:260|298:212,1,90.7200011074219,2|0,1:2|0:2,0:0:0:0:
196,89,38595,2,0,P|192:134|183:178,1,90.7200011074219,2|0,1:2|0:2,0:0:0:0:
111,319,38956,1,0,1:2:0:0:
62,189,39136,1,0,0:2:0:0:
197,291,39317,6,0,P|249:312|292:311,1,90.7200011074219,2|0,1:2|0:2,0:0:0:0:
417,183,39678,1,2,1:2:0:0:
370,313,39858,1,0,0:2:0:0:
298,103,40038,2,0,P|252:105|211:124,1,90.7200011074219,2|0,1:2|0:2,0:0:0:0:
173,267,40399,1,2,1:2:0:0:
110,127,40580,1,0,0:2:0:0:
290,219,40760,6,0,P|283:268|277:327,1,90.7200011074219,2|0,1:2|0:2,0:0:0:0:
113,353,41121,2,0,P|106:304|100:245,1,90.7200011074219,2|0,1:2|0:2,0:0:0:0:
309,216,41482,2,0,P|302:265|296:324,1,90.7200011074219,2|0,1:2|0:2,0:0:0:0:
154,166,41843,1,0,1:2:0:0:
189,315,42024,1,0,0:2:0:0:
309,112,42204,5,2,1:2:0:0:
282,259,42384,1,0,0:2:0:0:
208,108,42565,2,0,P|166:84|99:89,1,90.7200011074219,10|0,1:2|0:2,0:0:0:0:
345,195,42926,2,0,P|389:191|428:168,1,90.7200011074219,2|0,1:2|0:2,0:0:0:0:
187,224,43287,1,10,1:2:0:0:
345,307,43467,1,0,0:2:0:0:
278,143,43648,5,2,1:2:0:0:
190,313,43828,2,0,P|145:309|106:286,1,90.7200011074219,2|8,0:2|1:2,0:0:0:0:
97,116,44189,2,0,P|141:119|180:142,1,90.7200011074219,2|0,0:2|1:2,0:0:0:0:
238,300,44550,1,0,0:2:0:0:
390,117,44730,2,0,P|345:120|306:143,1,90.7200011074219,10|0,1:2|0:2,0:0:0:0:
353,320,45091,6,0,P|365:254|372:221,1,90.7200011074219,2|0,1:2|0:2,0:0:0:0:
205,117,45452,1,10,1:2:0:0:
286,254,45633,1,0,0:2:0:0:
369,109,45813,1,2,1:2:0:0:
192,152,45994,1,0,0:2:0:0:
396,193,46174,1,10,1:2:0:0:
336,34,46355,1,0,0:2:0:0:
242,219,46535,6,0,P|207:237|169:236,1,66.4200010134888,2|0,0:2|0:2,0:0:0:0:
76,113,46896,2,0,P|108:115|137:132,1,66.4200010134888,2|0,3:2|0:2,0:0:0:0:
152,326,47257,2,0,P|112:303|90:209,1,147.41999910022,2|0,0:2|0:2,0:0:0:0:
120,171,47979,5,6,1:2:0:0:
322,235,48159,1,0,3:2:0:0:
322,235,48249,1,0,3:2:0:0:
322,235,48340,1,8,1:2:0:0:
166,327,48520,1,2,3:2:0:0:
248,144,48701,2,0,P|294:121|353:130,1,90.7200011074219,2|0,1:2|3:2,0:0:0:0:
455,309,49062,2,0,P|410:308|370:287,1,90.7200011074219,8|0,1:2|3:2,0:0:0:0:
435,144,49422,5,0,1:2:0:0:
289,312,49603,1,0,3:2:0:0:
289,312,49693,1,0,3:2:0:0:
289,312,49783,2,0,P|277:251|266:203,1,90.7200011074219,10|2,1:2|3:2,0:0:0:0:
177,75,50144,1,2,1:2:0:0:
100,235,50325,1,2,3:2:0:0:
336,137,50505,2,0,P|296:115|237:124,1,90.7200011074219,10|0,1:2|3:2,0:0:0:0:
87,149,50866,5,2,1:2:0:0:
281,238,51047,1,0,3:2:0:0:
281,238,51137,1,0,3:2:0:0:
281,238,51227,1,8,1:2:0:0:
106,305,51408,1,2,3:2:0:0:
192,103,51588,2,0,P|203:166|211:215,1,90.7200011074219,2|0,1:2|3:2,0:0:0:0:
408,331,51949,2,0,P|415:286|423:241,1,90.7200011074219,8|0,1:2|3:2,0:0:0:0:
346,77,52310,5,0,1:2:0:0:
299,280,52490,1,0,3:2:0:0:
299,280,52581,1,0,3:2:0:0:
299,280,52671,1,10,1:2:0:0:
192,103,52851,1,2,3:2:0:0:
365,200,53032,2,0,P|409:182|461:187,1,90.7200011074219,2|2,1:2|3:2,0:0:0:0:
275,321,53393,2,0,P|230:322|188:305,1,90.7200011074219,10|0,1:2|3:2,0:0:0:0:
80,100,53754,6,0,P|105:169|107:243,1,136.080001661133,0|0,1:2|3:2,0:0:0:0:
85,265,54114,2,0,P|46:290|-9:283,1,90.7200011074219,10|0,1:2|3:2,0:0:0:0:
170,128,54475,2,0,P|214:126|252:151,1,90.7200011074219,2|0,1:2|3:2,0:0:0:0:
209,338,54836,2,0,P|193:280|196:234,1,90.7200011074219,10|0,1:2|3:2,0:0:0:0:
378,76,55197,6,0,P|394:134|391:180,1,90.7200011074219,0|0,1:2|3:2,0:0:0:0:
379,209,55468,1,0,3:2:0:0:
379,209,55558,2,0,P|336:234|289:225,1,90.7200011074219,10|0,1:2|3:2,0:0:0:0:
120,100,55919,2,0,P|164:96|202:120,1,90.7200011074219,2|0,1:2|3:2,0:0:0:0:
210,310,56280,2,0,P|191:253|195:212,1,90.7200011074219,10|0,1:2|3:2,0:0:0:0:
341,52,56641,6,0,P|405:40|465:120,1,136.080001661133,0|0,1:2|3:2,0:0:0:0:
472,124,57002,2,0,P|459:175|460:232,1,90.7200011074219,10|0,1:2|3:2,0:0:0:0:
314,344,57363,2,0,P|311:298|299:255,1,90.7200011074219,2|0,1:2|3:2,0:0:0:0:
204,97,57724,1,10,1:2:0:0:
352,156,57904,1,2,3:2:0:0:
256,192,65303,12,2,67830,3:2:0:0:
155,87,68191,6,0,L|94:78,3,37.2599987492066,6|0|0|0,3:2|3:2|3:2|3:2,0:0:0:0:
241,139,68551,2,0,L|302:130,3,37.2599987492066,2|0|0|0,3:2|3:2|3:2|3:2,0:0:0:0:
147,195,68912,2,0,L|86:186,3,37.2599987492066,6|0|0|0,3:2|3:2|3:2|3:2,0:0:0:0:
227,250,69273,2,0,L|288:241,3,37.2599987492066,2|0|0|0,3:2|3:2|3:2|0:0,0:0:0:0:
354,331,69634,5,6,3:2:0:0:
354,331,69724,1,0,3:2:0:0:
354,331,69815,2,0,L|361:274,1,37.2599987492066,0|0,3:2|3:2,0:0:0:0:
328,145,69995,1,6,3:2:0:0:
328,145,70085,1,0,3:2:0:0:
328,145,70176,2,0,L|335:202,1,37.2599987492066,0|0,3:2|3:2,0:0:0:0:
261,288,70356,1,6,3:2:0:0:
261,288,70446,1,0,3:2:0:0:
261,288,70537,2,0,L|197:278,1,37.2599987492066,0|0,3:2|3:2,0:0:0:0:
129,212,70717,2,0,L|193:202,3,37.2599987492066,6|0|2|0,3:2|3:2|3:2|3:2,0:0:0:0:
220,98,71078,5,6,1:2:0:0:
378,194,71258,1,2,0:2:0:0:
378,194,71349,1,2,0:2:0:0:
378,194,71439,1,2,1:2:0:0:
224,312,71619,2,0,P|204:256|210:207,1,90.7200011074219,2|0,0:2|1:2,0:0:0:0:
395,105,71980,1,2,0:2:0:0:
329,291,72161,1,0,1:2:0:0:
236,129,72341,1,2,0:2:0:0:
414,269,72522,6,0,P|469:278|517:287,1,90.7200011074219,2|2,1:2|3:2,0:0:0:0:
244,169,72883,2,0,P|189:178|141:187,1,90.7200011074219,10|2,1:2|3:2,0:0:0:0:
366,67,73243,1,2,1:2:0:0:
298,270,73424,1,2,3:2:0:0:
142,96,73604,2,0,P|186:74|243:83,1,90.7200011074219,10|0,1:2|0:2,0:0:0:0:
371,191,73965,5,2,1:2:0:0:
153,271,74146,1,2,3:2:0:0:
153,271,74236,1,2,3:2:0:0:
153,271,74326,1,10,1:2:0:0:
403,325,74507,2,0,P|355:298|303:301,1,90.7200011074219,2|0,3:2|1:2,0:0:0:0:
120,370,74868,1,2,3:2:0:0:
200,151,75048,2,0,P|216:220|226:271,1,90.7200011074219,8|2,0:2|3:2,0:0:0:0:
398,106,75409,5,2,1:2:0:0:
320,311,75589,1,2,3:2:0:0:
261,74,75770,1,10,1:2:0:0:
405,246,75950,1,2,3:2:0:0:
171,149,76131,2,0,P|148:104|157:51,1,90.7200011074219,2|2,1:2|3:2,0:0:0:0:
397,95,76492,1,10,1:2:0:0:
224,246,76672,1,2,3:2:0:0:
285,48,76853,5,2,1:2:0:0:
363,234,77033,1,2,3:2:0:0:
363,234,77123,1,2,3:2:0:0:
363,234,77214,1,10,1:2:0:0:
167,139,77394,2,0,P|113:149|83:197,1,90.7200011074219,2|0,3:2|1:2,0:0:0:0:
232,326,77755,1,2,3:2:0:0:
325,135,77935,1,8,0:2:0:0:
171,229,78116,1,2,3:2:0:0:
400,194,78296,6,0,P|410:128|419:76,1,90.7200011074219,2|2,1:2|3:2,0:0:0:0:
278,279,78657,2,0,P|285:323|291:368,1,90.7200011074219,10|2,1:2|3:2,0:0:0:0:
172,94,79018,1,2,1:2:0:0:
332,157,79199,1,2,3:2:0:0:
165,272,79379,2,0,P|121:292|66:275,1,90.7200011074219,10|2,1:2|3:2,0:0:0:0:
172,94,79740,5,2,1:2:0:0:
309,264,79921,1,2,3:2:0:0:
309,264,80011,1,2,3:2:0:0:
309,264,80101,1,10,1:2:0:0:
287,49,80281,2,0,P|272:100|263:158,1,90.7200011074219,2|0,3:2|1:2,0:0:0:0:
389,82,80642,1,2,3:2:0:0:
132,117,80823,2,0,P|140:161|153:204,1,90.7200011074219,8|2,0:2|3:2,0:0:0:0:
338,278,81184,6,0,P|393:261|437:255,1,74.5199974984132,2|0,1:2|0:0,0:0:0:0:
191,367,81545,2,0,P|154:359|119:346,1,74.5199974984132,10|0,1:2|0:2,0:0:0:0:
243,205,81906,1,2,0:2:0:0:
243,205,81996,1,2,0:2:0:0:
243,205,82086,1,2,0:2:0:0:
332,372,82267,2,0,P|343:329|348:276,1,74.5199974984132,2|0,0:2|0:2,0:0:0:0:
189,82,82627,5,4,1:2:0:0:
330,163,82808,2,0,P|376:164|421:143,1,82.6200005042725,2|8,3:2|1:2,0:0:0:0:
201,217,83169,2,0,P|162:203|121:204,1,82.6200005042725,2|0,3:2|1:2,0:0:0:0:
300,344,83530,2,0,P|312:286|325:254,1,82.6200005042725,2|8,3:2|0:2,0:0:0:0:
245,112,83891,1,2,3:2:0:0:
245,112,83981,1,2,3:2:0:0:
245,112,84071,1,2,1:2:0:0:
141,284,84252,2,0,P|129:226|116:194,1,82.6200005042725,2|8,3:2|1:2,0:0:0:0:
61,65,84613,5,2,3:2:0:0:
254,135,84793,1,2,1:2:0:0:
83,212,84973,1,2,3:2:0:0:
198,63,85154,2,0,P|239:44|285:47,1,82.6200005042725,10|0,1:2|3:2,0:0:0:0:
400,158,85515,5,4,1:2:0:0:
277,225,85695,2,0,P|236:224|199:206,1,82.6200005042725,2|8,3:2|1:2,0:0:0:0:
381,77,86056,2,0,P|421:77|458:95,1,82.6200005042725,2|0,3:2|1:2,0:0:0:0:
360,296,86417,2,0,P|352:247|345:200,1,82.6200005042725,2|8,3:2|0:2,0:0:0:0:
209,92,86778,1,2,3:2:0:0:
209,92,86868,1,2,0:2:0:0:
209,92,86959,2,0,L|131:82,3,41.3100002521362,2|2|2|2,1:2|0:2|3:2|0:2,0:0:0:0:
282,148,87319,2,0,L|360:138,3,41.3100002521362,10|0|2|0,1:2|0:0|3:2|0:0,0:0:0:0:
172,209,87680,6,0,P|185:266|193:310,1,82.6200005042725,0|2,1:2|3:2,0:0:0:0:
340,369,88041,2,0,P|349:328|357:288,1,82.6200005042725,2|0,3:2|0:2,0:0:0:0:
266,123,88402,5,0,1:2:0:0:
172,209,88583,2,0,P|131:199|94:179,1,74.5199974984132,2|0,0:2|1:2,0:0:0:0:
278,282,88944,2,0,P|311:265|347:257,1,74.5199974984132,2|0,0:2|1:2,0:0:0:0:
170,217,89305,2,0,P|129:207|92:187,1,74.5199974984132,2|0,0:2|1:2,0:0:0:0:
276,290,89666,2,0,P|309:273|345:265,1,74.5199974984132,2|0,0:2|1:2,0:0:0:0:
182,352,90026,1,2,0:2:0:0:
258,217,90207,2,0,P|272:269|280:318,1,74.5199974984132,2|2,1:2|0:2,0:0:0:0:
169,81,90568,5,2,1:2:0:0:
325,149,90748,1,2,0:2:0:0:
150,194,90929,2,0,P|104:188|71:155,1,74.5199974984132,2|0,1:2|0:2,0:0:0:0:
290,67,91290,5,0,1:2:0:0:
246,181,91470,2,0,P|256:235|265:284,1,74.5199974984132,2|0,0:2|1:2,0:0:0:0:
381,327,91831,2,0,P|387:290|394:253,1,74.5199974984132,2|0,0:2|1:2,0:0:0:0:
237,180,92192,2,0,P|247:234|256:283,1,74.5199974984132,2|0,0:2|1:2,0:0:0:0:
388,330,92553,2,0,P|394:293|401:256,1,74.5199974984132,2|0,0:2|1:2,0:0:0:0:
250,336,92914,5,2,0:2:0:0:
348,179,93094,2,0,P|390:162|436:170,1,74.5199974984132,2|2,1:2|0:2,0:0:0:0:
239,249,93455,2,0,P|202:249|168:233,1,74.5199974984132,2|2,1:2|0:2,0:0:0:0:
233,105,93816,1,2,1:2:0:0:
346,201,93997,2,0,L|352:267,2,37.2599987492066,2|2|2,0:2|0:2|1:2,0:0:0:0:
260,44,94357,6,0,P|216:66|179:65,1,74.5199974984132,2|0,0:2|1:2,0:0:0:0:
65,152,94718,2,0,P|101:156|133:175,1,74.5199974984132,2|0,0:2|1:2,0:0:0:0:
259,54,95079,2,0,P|215:76|178:75,1,74.5199974984132,2|0,0:2|1:2,0:0:0:0:
49,34,95440,1,2,0:2:0:0:
49,34,95530,1,2,0:2:0:0:
49,34,95621,1,2,1:2:0:0:
158,177,95801,2,0,P|167:134|175:90,1,74.5199974984132,2|0,0:2|1:2,0:0:0:0:
31,179,96162,5,2,0:2:0:0:
31,179,96343,2,0,P|37:215|45:252,1,74.5199974984132,2|2,1:2|0:2,0:0:0:0:
161,342,96704,2,0,P|168:305|175:268,1,74.5199974984132,2|0,1:2|0:2,0:0:0:0:
272,171,97064,5,0,1:2:0:0:
272,171,97245,2,0,P|309:159|354:161,1,74.5199974984132,2|0,0:2|1:2,0:0:0:0:
273,179,97606,2,0,P|310:167|355:169,1,74.5199974984132,2|0,0:2|1:2,0:0:0:0:
275,186,97967,2,0,P|312:174|357:176,1,74.5199974984132,2|0,0:2|1:2,0:0:0:0:
455,241,98328,1,2,0:2:0:0:
455,241,98418,1,2,0:2:0:0:
455,241,98508,2,0,L|458:292,3,37.2599987492066,2|0|2|2,1:2|0:2|0:2|0:2,0:0:0:0:
449,147,98869,2,0,L|452:96,3,37.2599987492066,2|0|2|0,1:2|0:2|0:2|0:0,0:0:0:0:
344,50,99230,6,0,P|299:60|265:67,1,74.5199974984132,0|2,1:2|0:2,0:0:0:0:
132,148,99591,2,0,P|177:158|211:165,1,74.5199974984132,2|0,1:2|0:2,0:0:0:0:
392,259,99952,6,0,L|398:320,3,50.2199980076295,4|0|0|0,1:2|0:0|1:0|0:0,0:0:0:0:
302,184,100674,2,0,L|296:123,3,50.2199980076295,0|0|0|0,1:0|0:0|1:0|0:0,0:0:0:0:
207,308,101396,6,0,L|201:369,3,50.2199980076295,0|0|0|0,1:0|0:0|1:0|0:0,0:0:0:0:
297,233,102118,2,0,L|303:172,3,50.2199980076295,0|0|0|0,1:0|0:0|1:0|0:0,0:0:0:0:
124,67,102839,6,0,L|62:59,3,50.2199980076295,0|0|0|0,1:0|0:0|1:0|0:0,0:0:0:0:
252,176,103561,2,0,L|314:184,3,50.2199980076295,0|0|0|0,1:0|0:0|1:0|0:0,0:0:0:0:
74,291,104283,6,0,L|12:299,3,50.2199980076295,0|0|0|0,1:0|0:0|1:0|0:0,0:0:0:0:
202,182,105005,2,0,L|264:174,3,50.2199980076295,0|0|0|0,1:0|0:0|1:0|0:0,0:0:0:0:
376,327,105727,6,0,L|384:273,3,50.2199980076295,0|0|0|0,1:0|0:0|1:0|0:0,0:0:0:0:
259,125,106448,2,0,L|251:179,3,50.2199980076295,0|0|0|0,1:0|0:0|1:0|0:0,0:0:0:0:
134,277,107170,6,0,L|126:223,3,50.2199980076295,0|0|0|0,1:0|0:0|1:0|0:0,0:0:0:0:
251,75,107892,2,0,L|259:129,3,50.2199980076295,0|0|0|0,1:0|0:0|1:0|0:0,0:0:0:0:
393,230,108614,6,0,L|455:243,3,50.2199980076295,0|0|0|0,1:0|0:0|1:0|0:0,0:0:0:0:
237,324,109336,2,0,L|175:337,3,50.2199980076295,0|0|0|0,1:0|0:0|1:0|0:0,0:0:0:0:
386,279,110058,6,0,L|396:207,3,50.2199980076295,0|0|0|0,1:0|0:0|1:0|0:0,0:0:0:0:
197,91,110780,2,0,L|187:163,3,50.2199980076295,0|0|0|0,1:0|0:0|1:0|0:0,0:0:0:0:
171,231,111501,5,4,1:2:0:0:
256,192,111592,12,0,115832,0:0:0:0:
