osu file format v14

[General]
AudioFilename: audio.mp3
AudioLeadIn: 0
PreviewTime: 173372
Countdown: 0
SampleSet: Normal
StackLeniency: 0.2
Mode: 0
LetterboxInBreaks: 0
WidescreenStoryboard: 1

[Editor]
Bookmarks: 175288
DistanceSpacing: 1
BeatDivisor: 4
GridSize: 4
TimelineZoom: 1.3

[Metadata]
Title:Journey (Part 2)
TitleUnicode:Journey (Part 2)
Artist:Digital Math
ArtistUnicode:Digital Math
Creator:Incomp
Version:Novelty
Source:
Tags:electronic 8-bit instrumental
BeatmapID:1361603
BeatmapSetID:642230

[Difficulty]
HPDrainRate:6
CircleSize:4
OverallDifficulty:7.3
ApproachRate:9
SliderMultiplier:1.8
SliderTickRate:1

[Events]
//Background and Video events
0,0,"bg.jpg",0,0
//Break Periods
2,42905,52772
2,56238,58105
2,109571,111438
2,114904,116772
//Storyboard Layer 0 (Background)
//Storyboard Layer 1 (Fail)
//Storyboard Layer 2 (Pass)
//Storyboard Layer 3 (Foreground)
//Storyboard Sound Samples

[TimingPoints]
39,333.333333333333,4,1,1,100,1,0
39,-100,4,2,1,50,0,0
10038,-200,4,2,1,50,0,0
10622,-200,4,3,1,5,0,0
10705,-200,4,2,1,55,0,0
10955,-200,4,3,1,5,0,0
11038,-100,4,2,1,55,0,0
11205,-100,4,3,1,5,0,0
11372,-100,4,2,1,55,0,0
11872,-100,4,3,1,5,0,0
11955,-100,4,2,1,55,0,0
12038,-100,4,2,1,60,0,0
12288,-100,4,3,1,5,0,0
12372,-100,4,2,1,60,0,0
12622,-100,4,3,1,5,0,0
12705,-100,4,2,1,60,0,0
12955,-100,4,3,1,5,0,0
13038,-100,4,2,1,60,0,0
13288,-100,4,3,1,5,0,0
13372,-100,4,2,1,65,0,0
13872,-100,4,3,1,5,0,0
14038,-100,4,2,1,65,0,0
14538,-100,4,3,1,5,0,0
14622,-100,4,2,1,65,0,0
14705,-100,4,2,1,70,0,0
15205,-100,4,3,1,5,0,0
15372,-100,4,2,1,70,0,0
15872,-100,4,3,1,5,0,0
16038,-100,4,2,1,75,0,0
16288,-100,4,3,1,5,0,0
16372,-100,4,2,1,75,0,0
16622,-100,4,3,1,5,0,0
16705,-200,4,2,1,75,0,0
17288,-200,4,3,1,5,0,0
17372,-100,4,2,1,80,0,0
17538,-100,4,2,1,20,0,0
18038,-100,4,2,1,80,0,0
18205,-100,4,2,1,20,0,0
18705,-100,4,2,1,85,0,0
18872,-100,4,2,1,20,0,0
19372,-100,4,2,1,85,0,0
19538,-100,4,2,1,20,0,0
20038,-100,4,2,1,90,0,0
20372,-100,4,2,1,95,0,0
20705,-90.9090909090909,4,1,1,100,0,0
21622,-90.9090909090909,4,3,1,5,0,0
21705,-90.9090909090909,4,1,1,100,0,0
29705,-133.333333333333,4,1,1,100,0,0
38205,-133.333333333333,4,1,1,20,0,0
38372,-133.333333333333,4,1,1,100,0,0
38872,-133.333333333333,4,1,1,40,0,0
39038,-133.333333333333,4,1,1,100,0,0
39538,-133.333333333333,4,1,1,60,0,0
39705,-133.333333333333,4,1,1,100,0,0
40205,-133.333333333333,4,1,1,80,0,0
40372,-133.333333333333,4,1,1,100,0,0
42038,-200,4,1,2,100,0,0
42622,-200,4,3,1,5,0,0
42705,-200,4,1,1,100,0,0
53372,-200,4,2,1,20,0,0
53622,-200,4,3,1,5,0,0
53705,-200,4,2,1,20,0,0
55038,-200,4,3,1,5,0,0
55205,-200,4,2,1,20,0,0
61372,-200,4,2,1,50,0,0
62709,-200,4,2,1,100,0,0
63038,-200,4,2,1,20,0,0
63122,-200,4,2,1,25,0,0
63205,-200,4,2,1,30,0,0
63288,-200,4,2,1,35,0,0
63372,-200,4,2,1,40,0,0
64038,-80,4,1,1,100,0,1
65372,-200,4,1,1,100,0,1
65955,-200,4,3,1,5,0,1
66038,-80,4,1,1,100,0,1
73372,-200,4,1,1,100,0,1
73955,-200,4,3,1,5,0,1
74038,-80,4,1,1,100,0,1
74705,-200,4,1,1,100,0,0
75038,-80,4,1,2,100,0,0
75372,-80,4,1,1,100,0,1
76705,-133.333333333333,4,1,1,100,0,1
76955,-133.333333333333,4,3,1,5,0,1
77038,-79.9999999999999,4,1,1,100,0,1
78705,-200,4,1,1,100,0,1
79038,-80,4,1,1,100,0,1
79372,-117.647058823529,4,1,1,100,0,1
80038,-80,4,1,1,100,0,1
84038,-200,4,1,1,100,0,1
84372,-200,4,1,1,100,0,1
84705,-100,4,1,1,100,0,0
85372,-100,4,1,1,100,0,0
85538,-100,4,3,1,5,0,0
85622,-100,4,1,1,100,0,0
85872,-100,4,3,1,5,0,0
86038,-100,4,1,1,100,0,0
86372,-66.6666666666667,4,1,1,100,0,0
86622,-66.6666666666667,4,3,1,5,0,0
86705,-100,4,1,1,100,0,0
86872,-100,4,3,1,5,0,0
86955,-100,4,1,1,100,0,0
87205,-100,4,3,1,5,0,0
87372,-100,4,1,1,100,0,0
87538,-100,4,3,1,5,0,0
87622,-100,4,1,1,100,0,0
87872,-100,4,3,1,5,0,0
88038,-100,4,1,1,100,0,0
88205,-200,4,1,1,100,0,0
88705,-100,4,1,1,100,0,0
96038,-200,4,1,1,100,0,0
96705,-200,4,2,1,100,0,0
97372,-200,4,1,1,100,0,0
98038,-200,4,2,1,100,0,0
98705,-100,4,1,1,100,0,0
101372,-200,4,1,1,100,0,0
101955,-200,4,3,1,5,0,0
102038,-200,4,1,1,100,0,0
102538,-200,4,2,1,100,0,0
102705,-200,4,1,1,100,0,0
103288,-200,4,3,1,5,0,0
103372,-200,4,1,1,100,0,0
103872,-200,4,2,1,100,0,0
104038,-200,4,1,1,100,0,0
104622,-200,4,3,1,5,0,0
104705,-200,4,1,1,100,0,0
105372,-100,4,1,1,100,0,0
106705,-100,4,1,1,100,0,0
128038,-83.3333333333333,4,1,1,100,0,0
129038,-83.3333333333333,4,2,1,100,0,0
129372,-83.3333333333333,4,1,1,100,0,0
130372,-83.3333333333333,4,2,1,100,0,0
130705,-83.3333333333333,4,1,1,100,0,0
131955,-83.3333333333333,4,3,1,5,0,0
132038,-83.3333333333333,4,1,1,100,0,0
133205,-83.3333333333333,4,3,1,5,0,0
133372,-83.3333333333333,4,1,1,100,0,0
134372,-83.3333333333333,4,2,1,100,0,0
134705,-83.3333333333333,4,1,1,100,0,0
135705,-83.3333333333333,4,2,1,100,0,0
136038,-83.3333333333333,4,1,1,100,0,0
138705,-133.333333333333,4,1,1,100,0,0
139288,-133.333333333333,4,3,1,5,0,0
139372,-76.9230769230769,4,1,1,100,0,0
139705,-76.9230769230769,4,2,1,100,0,0
140038,-133.333333333333,4,1,1,100,0,0
140622,-133.333333333333,4,3,1,5,0,0
140705,-76.9230769230769,4,1,1,100,0,0
141038,-76.9230769230769,4,2,1,100,0,0
141372,-76.9230769230769,4,1,1,100,0,0
141955,-76.9230769230769,4,3,1,5,0,0
142038,-76.9230769230769,4,1,1,100,0,0
142372,-76.9230769230769,4,2,1,100,0,0
142705,-76.9230769230769,4,1,1,100,0,0
143288,-76.9230769230769,4,3,1,5,0,0
143372,-76.9230769230769,4,1,1,100,0,0
143705,-76.9230769230769,4,2,1,100,0,0
144038,-76.9230769230769,4,1,1,100,0,0
144622,-76.9230769230769,4,3,1,5,0,0
144705,-76.9230769230769,4,1,1,100,0,0
145288,-76.9230769230769,4,3,1,5,0,0
145372,-200,4,1,1,100,0,0
145955,-200,4,3,1,5,0,0
146038,-76.9230769230769,4,1,1,100,0,0
151372,-200,4,1,1,50,0,0
151955,-76.9230769230769,4,3,1,5,0,0
152038,-76.9230769230769,4,1,1,100,0,0
154372,-76.9230769230769,4,1,1,60,0,0
154705,-76.9230769230769,4,1,1,100,0,0
156038,-200,4,1,1,70,0,0
156622,-200,4,3,1,5,0,0
156705,-200,4,1,1,80,0,0
157288,-200,4,3,1,5,0,0
157372,-76.9230769230769,4,1,1,100,0,0
158705,-200,4,1,1,100,0,0
159288,-200,4,3,1,5,0,0
159372,-200,4,1,1,100,0,0
159955,-200,4,3,1,5,0,0
160038,-76.9230769230769,4,1,1,100,0,0
164038,-133.333333333333,4,1,1,100,0,0
166705,-76.9230769230769,4,1,1,100,0,0
168038,-133.333333333333,4,1,1,100,0,0
171705,-100,4,1,1,100,0,0
173372,-66.6666666666667,4,1,1,100,0,1
174705,-133.333333333333,4,1,1,100,0,1
175288,-133.333333333333,4,3,1,100,0,1
175372,-66.6666666666667,4,1,1,100,0,1
194038,-66.6666666666667,4,1,1,100,0,0
194705,-66.6666666666667,4,1,1,100,0,1
216038,-100,4,2,1,100,0,0

[Colours]
Combo1 : 192,192,192
Combo2 : 200,200,60
Combo3 : 15,135,15
Combo4 : 60,80,150
Combo5 : 210,15,220
Combo6 : 5,130,200
Combo7 : 125,65,245
Combo8 : 128,128,128

[HitObjects]
128,112,39,101,0,0:0:0:0:
128,112,205,1,0,0:0:0:0:
128,112,372,2,0,B|176:108|176:108|220:112,1,90
328,156,705,1,0,0:0:0:0:
328,156,872,1,0,0:0:0:0:
328,156,1038,2,0,B|285:178|285:178|243:191,1,90
204,204,1288,1,0,0:0:0:0:
160,216,1372,6,0,L|72:236,1,90
32,316,1705,2,0,L|120:296,1,90
160,216,2038,2,0,L|72:236,1,90
32,316,2372,2,0,L|120:296,1,90
164,288,2622,1,0,0:0:0:0:
208,276,2705,102,0,B|252:250|252:250|276:216,1,90
260,128,3038,2,0,B|216:154|216:154|193:185,1,90
208,276,3372,2,0,B|252:250|252:250|276:216,1,90
260,128,3705,2,0,B|216:154|216:154|193:185,1,90
172,224,3955,1,0,0:0:0:0:
168,268,4038,6,0,B|172:315|172:315|199:360,1,90
252,284,4372,2,0,B|247:236|247:236|220:191,1,90
160,140,4705,1,0,0:0:0:0:
160,140,4872,1,0,0:0:0:0:
144,232,5038,1,0,0:0:0:0:
144,232,5205,1,0,0:0:0:0:
220,320,5372,101,0,0:0:0:0:
220,320,5538,1,0,0:0:0:0:
220,320,5705,2,0,B|268:324|268:324|312:320,1,90
396,240,6038,1,0,0:0:0:0:
396,240,6205,1,0,0:0:0:0:
396,240,6371,2,0,B|347:239|347:239|304:231,1,90
263,224,6621,1,0,0:0:0:0:
220,208,6705,6,0,L|142:162,1,90
128,72,7038,2,0,L|205:117,1,90
220,208,7372,2,0,L|142:162,1,90
128,72,7705,2,0,L|205:117,1,90
244,140,7955,1,0,0:0:0:0:
280,164,8038,102,0,B|315:201|315:201|328:240,1,90
283,313,8372,2,0,B|248:276|248:276|236:240,1,90
280,164,8705,2,0,B|315:201|315:201|328:240,1,90
283,313,9039,2,0,B|248:276|248:276|236:240,1,90
228,196,9288,1,0,0:0:0:0:
228,152,9371,6,0,B|232:104|232:104|259:59,1,90
340,44,9705,2,0,B|335:91|335:91|308:136,1,90
256,196,10038,6,0,P|239:282|288:328,1,157.5
304,332,10705,86,0,P|344:324|368:308,1,67.5,2|0,0:0|0:0,0:0:0:0:
396,276,11038,2,0,P|380:225|382:184,1,90
412,104,11372,1,8,0:0:0:0:
412,104,11538,1,0,0:0:0:0:
336,56,11705,2,0,P|288:68|264:112,1,90
260,144,11955,1,0,0:0:0:0:
264,188,12038,6,0,B|264:236|276:272|276:272|252:260|216:260,1,135,2|0,0:0|0:0,0:0:0:0:
184,256,12372,2,0,B|132:252|88:268|88:268|120:300,1,135
148,324,12705,2,0,B|194:338|194:338|244:324|260:280,1,135,8|0,0:0|0:0,0:0:0:0:
268,240,13038,2,0,B|272:184|236:156|236:156|256:144|268:128,1,135
300,96,13372,101,2,0:0:0:0:
300,96,13538,1,0,0:0:0:0:
376,144,13705,2,0,B|412:176|412:176|428:220,1,90
436,304,14038,1,8,0:0:0:0:
436,304,14205,1,0,0:0:0:0:
348,296,14372,2,0,B|304:284|304:284|264:256,1,90
236,228,14622,1,0,0:0:0:0:
212,192,14705,5,2,0:0:0:0:
212,192,14872,1,0,0:0:0:0:
124,180,15038,2,0,B|88:216|88:216|72:256,1,90
64,344,15372,1,8,0:0:0:0:
64,344,15538,1,0,0:0:0:0:
148,308,15705,2,0,B|196:292|196:292|240:288,1,90
324,288,16038,102,0,P|400:256|420:188,1,135,2|0,0:0|0:0,0:0:0:0:
424,164,16372,2,0,P|392:88|324:68,1,135
304,64,16705,2,0,P|231:101|214:172,1,157.5,8|0,0:0|0:0,0:0:0:0:
244,256,17372,6,0,B|267:294|267:294|312:319,3,90,2|0|0|0,0:0|0:0|0:0|0:0,0:0:0:0:
292,136,18038,2,0,B|268:97|268:97|223:72,3,90,8|0|0|0,0:0|0:0|0:0|0:0,0:0:0:0:
336,220,18705,2,0,B|359:258|359:258|404:283,3,90,2|0|0|0,0:0|0:0|0:0|0:0,0:0:0:0:
376,100,19372,2,0,B|352:61|352:61|307:36,3,90,8|0|0|0,0:0|0:0|0:0|0:0,0:0:0:0:
156,176,20038,101,2,0:0:0:0:
148,264,20205,1,2,0:0:0:0:
216,324,20372,1,2,0:0:0:0:
304,324,20538,1,2,0:0:0:0:
368,260,20705,1,8,0:0:0:0:
92,200,21205,69,0,0:0:0:0:
92,200,21372,1,0,0:0:0:0:
92,200,21705,1,0,0:0:0:0:
92,200,21872,1,0,0:0:0:0:
288,228,22038,1,8,0:0:0:0:
268,156,22372,1,0,0:0:0:0:
268,156,22538,1,0,0:0:0:0:
109,274,22705,21,0,0:0:0:0:
300,228,23038,1,0,0:0:0:0:
300,228,23205,1,0,0:0:0:0:
104,196,23372,1,8,0:0:0:0:
268,304,23705,1,0,0:0:0:0:
268,304,23872,1,0,0:0:0:0:
160,140,24038,85,0,0:0:0:0:
188,336,24372,1,0,0:0:0:0:
188,336,24538,1,0,0:0:0:0:
240,144,24705,1,8,0:0:0:0:
116,296,25038,1,0,0:0:0:0:
116,296,25205,1,0,0:0:0:0:
292,204,25372,21,0,0:0:0:0:
256,192,25538,12,4,26705,0:0:0:0:
144,108,27038,85,0,0:0:0:0:
144,108,27205,1,0,0:0:0:0:
328,180,27372,1,8,0:0:0:0:
308,100,27705,1,0,0:0:0:0:
308,100,27872,1,0,0:0:0:0:
132,188,28038,21,0,0:0:0:0:
144,268,28372,1,0,0:0:0:0:
144,268,28539,1,0,0:0:0:0:
328,196,28706,1,8,0:0:0:0:
308,276,29039,1,0,0:0:0:0:
308,276,29206,1,0,0:0:0:0:
132,188,29372,85,0,0:0:0:0:
392,124,29705,2,0,L|464:108,2,67.5000025749208,0|0|8,0:0|0:0|0:0,0:0:0:0:
120,120,30372,2,0,L|55:99,2,67.5000025749208
392,260,31038,22,0,L|464:276,2,67.5000025749208,0|0|8,0:0|0:0|0:0,0:0:0:0:
120,264,31705,2,0,L|55:284,2,67.5000025749208,0|0|4,0:0|0:0|0:0,0:0:0:0:
356,132,32372,85,0,0:0:0:0:
224,108,32538,1,0,0:0:0:0:
128,204,32705,1,8,0:0:0:0:
128,204,33038,1,0,0:0:0:0:
260,180,33204,1,0,0:0:0:0:
356,276,33371,21,0,0:0:0:0:
356,276,33705,1,0,0:0:0:0:
224,300,33871,1,0,0:0:0:0:
128,204,34038,1,8,0:0:0:0:
128,204,34372,1,0,0:0:0:0:
175,77,34538,1,0,0:0:0:0:
306,45,34705,85,0,0:0:0:0:
306,45,35038,1,0,0:0:0:0:
402,141,35205,1,0,0:0:0:0:
378,273,35371,1,8,0:0:0:0:
378,273,35705,1,0,0:0:0:0:
246,297,35871,1,0,0:0:0:0:
140,216,36038,1,0,0:0:0:0:
256,192,36205,12,4,37372,0:0:0:0:
100,88,37705,21,0,0:0:0:0:
100,88,37872,1,0,0:0:0:0:
100,88,38038,2,0,P|136:104|172:108,1,67.5000025749208,8|0,0:0|0:0,0:0:0:0:
300,112,38372,1,0,0:0:0:0:
300,112,38538,1,0,0:0:0:0:
300,112,38705,86,0,P|280:144|252:164,1,67.5000025749208
132,212,39038,1,0,0:0:0:0:
132,212,39204,1,0,0:0:0:0:
132,212,39371,2,0,P|152:244|180:264,1,67.5000025749208,8|0,0:0|0:0,0:0:0:0:
308,300,39705,1,0,0:0:0:0:
308,300,39871,1,0,0:0:0:0:
308,300,40038,22,0,P|345:307|378:300,1,67.5000025749208
476,216,40372,1,0,0:0:0:0:
476,216,40538,1,0,0:0:0:0:
476,216,40705,2,0,P|443:197|409:192,1,67.5000025749208,8|0,0:0|0:0,0:0:0:0:
280,192,41038,1,0,0:0:0:0:
280,192,41204,1,0,0:0:0:0:
280,192,41371,86,0,P|242:188|212:171,1,67.5000025749208
120,80,41705,1,0,0:0:0:0:
120,80,41871,1,0,0:0:0:0:
120,80,42038,2,0,P|196:48|280:56,1,157.5,10|0,0:0|0:0,0:0:0:0:
312,72,42705,69,4,0:0:0:0:
152,108,53372,86,0,P|172:144|196:168,1,67.5,4|0,0:0|0:0,0:0:0:0:
228,188,53705,2,0,P|272:204|328:200,2,90
76,92,54705,6,0,P|60:144|76:180,1,90
132,240,55205,1,0,0:0:0:0:
132,240,55288,1,0,0:0:0:0:
132,240,55372,1,0,0:0:0:0:
212,284,55538,1,0,0:0:0:0:
216,192,55705,2,0,P|208:168|192:152,1,45
112,116,56038,101,4,0:0:0:0:
396,72,58705,5,2,0:0:0:0:
368,248,59038,2,0,L|388:272,2,22.5
308,180,59372,2,0,P|272:148|216:144,1,90
156,192,59872,1,0,0:0:0:0:
239,224,60038,2,0,P|265:260|268:304,1,90
212,372,60538,1,0,0:0:0:0:
187,288,60705,2,0,P|159:253|153:209,1,90
276,76,61372,101,2,0:0:0:0:
276,76,61538,1,0,0:0:0:0:
276,76,61705,2,0,P|300:84|320:96,1,45
280,176,62038,1,0,0:0:0:0:
280,176,62205,1,0,0:0:0:0:
280,176,62372,2,0,P|260:165|239:158,1,45
104,164,62705,5,2,0:0:0:0:
180,328,63038,2,0,L|160:344,3,22.5
236,288,63372,2,8,L|256:280,1,22.5,8|0,0:0|0:0,0:0:0:0:
344,252,63622,1,0,0:0:0:0:
384,172,63788,1,2,0:0:0:0:
384,172,63872,1,2,0:0:0:0:
128,88,64038,5,2,0:0:0:0:
128,88,64122,1,0,0:0:0:0:
128,88,64205,1,0,0:0:0:0:
128,88,64288,1,0,0:0:0:0:
128,88,64372,2,0,P|104:108|92:132,2,56.25
240,80,64705,5,8,0:0:0:0:
240,80,64789,1,0,0:0:0:0:
240,80,64872,1,0,0:0:0:0:
240,80,64955,1,0,0:0:0:0:
240,80,65039,2,0,P|264:60|276:36,2,56.25
196,168,65372,6,0,P|240:240|304:268,1,157.5,2|0,0:0|0:0,0:0:0:0:
360,276,66038,1,8,0:0:0:0:
428,188,66205,1,0,0:0:0:0:
428,188,66288,1,0,0:0:0:0:
428,188,66372,2,0,P|392:140|328:128,1,112.5,0|8,0:0|0:0,0:0:0:0:
232,124,66705,6,0,B|200:124|200:124|172:116,2,56.25,2|0|0,0:0|0:0|0:0,0:0:0:0:
344,116,67038,2,0,B|376:116|376:116|404:124,2,56.25
237,95,67372,2,0,B|209:79|209:79|189:58,2,56.25,8|0|0,0:0|0:0|0:0,0:0:0:0:
338,144,67705,2,0,B|366:160|366:160|386:181,2,56.25
256,73,68038,2,0,B|240:45|240:45|233:17,2,56.25,2|0|0,0:0|0:0|0:0,0:0:0:0:
319,166,68371,2,0,B|335:194|335:194|342:222,2,56.25
256,72,68705,1,8,0:0:0:0:
160,212,68872,5,0,0:0:0:0:
232,352,69038,1,0,0:0:0:0:
124,316,69205,1,0,0:0:0:0:
228,268,69372,1,2,0:0:0:0:
252,256,69455,1,0,0:0:0:0:
272,236,69538,1,0,0:0:0:0:
284,208,69622,1,0,0:0:0:0:
288,180,69705,2,0,P|288:148|280:124,2,56.25
188,44,70038,5,8,0:0:0:0:
164,28,70122,1,0,0:0:0:0:
136,24,70205,1,0,0:0:0:0:
108,28,70288,1,0,0:0:0:0:
80,36,70372,2,0,P|52:56|40:84,2,56.25
68,204,70705,37,2,0:0:0:0:
92,220,70789,1,0,0:0:0:0:
120,224,70872,1,0,0:0:0:0:
148,220,70955,1,0,0:0:0:0:
176,212,71039,2,0,P|204:192|216:164,2,56.25
244,56,71372,5,8,0:0:0:0:
320,180,71538,1,0,0:0:0:0:
216,136,71705,1,0,0:0:0:0:
368,92,71872,1,0,0:0:0:0:
224,188,72038,5,2,0:0:0:0:
228,216,72122,1,0,0:0:0:0:
244,240,72205,1,0,0:0:0:0:
264,256,72288,1,0,0:0:0:0:
292,268,72372,2,0,L|352:288,2,56.25
440,276,72705,5,8,0:0:0:0:
436,248,72789,1,0,0:0:0:0:
420,224,72872,1,0,0:0:0:0:
400,208,72955,1,0,0:0:0:0:
372,196,73039,2,0,L|312:176,2,56.25
292,268,73372,6,0,B|254:223|254:223|236:200|240:164|240:164|224:176|208:184,1,157.5,2|0,0:0|0:0,0:0:0:0:
184,196,74038,2,0,L|132:220,1,56.25,8|0,0:0|0:0,0:0:0:0:
160,144,74205,2,0,L|183:195,1,56.25
211,120,74372,2,0,L|159:144,1,56.25
187,68,74538,2,0,L|211:120,1,56.25
226,46,74705,6,0,L|180:71,2,45,0|0|2,0:0|0:0|0:0,0:0:0:0:
432,40,75372,53,8,0:0:0:0:
404,33,75455,1,0,0:0:0:0:
376,30,75538,1,0,0:0:0:0:
348,30,75621,1,0,0:0:0:0:
320,33,75705,2,0,P|293:37|264:48,2,56.25
320,144,76038,5,2,0:0:0:0:
292,150,76121,1,0,0:0:0:0:
264,153,76204,1,0,0:0:0:0:
236,153,76287,1,0,0:0:0:0:
208,150,76371,2,0,P|180:145|151:135,2,56.25
132,236,76705,6,0,P|160:268|228:280,1,101.250003862381,8|0,0:0|0:0,0:0:0:0:
272,276,77038,1,0,0:0:0:0:
380,244,77205,1,0,0:0:0:0:
240,148,77372,6,0,B|228:136|228:136|180:132,2,56.25,2|0|0,0:0|0:0|0:0,0:0:0:0:
116,168,77705,2,0,B|104:156|104:156|100:108,2,56.25
252,264,78038,2,0,B|264:252|264:252|268:204,2,56.25,8|0|0,0:0|0:0|0:0,0:0:0:0:
232,140,78371,2,0,B|244:128|244:128|292:124,2,56.25
188,212,78705,6,0,B|172:236|172:236|172:300,1,90,2|0,0:0|0:0,0:0:0:0:
260,272,79372,38,0,B|276:248|276:248|276:124,1,153.000002918243,8|0,0:0|0:0,0:0:0:0:
224,315,80038,5,2,0:0:0:0:
224,315,80122,1,0,0:0:0:0:
224,315,80205,1,0,0:0:0:0:
224,315,80288,1,0,0:0:0:0:
224,315,80372,2,0,L|260:271,2,56.25
224,145,80705,37,8,0:0:0:0:
224,145,80789,1,0,0:0:0:0:
224,145,80872,1,0,0:0:0:0:
224,145,80955,1,0,0:0:0:0:
224,145,81039,2,0,L|188:189,2,56.25
332,108,81372,5,2,0:0:0:0:
352,140,81455,1,0,0:0:0:0:
360,176,81538,1,0,0:0:0:0:
352,216,81622,1,0,0:0:0:0:
332,248,81705,2,0,P|306:270|274:284,2,56.25
256,180,82038,37,8,0:0:0:0:
224,160,82121,1,0,0:0:0:0:
188,152,82204,1,0,0:0:0:0:
148,160,82288,1,0,0:0:0:0:
116,180,82371,2,0,P|94:206|80:238,2,56.25
116,272,82705,6,0,P|164:300|240:288,1,112.5,2|0,0:0|0:0,0:0:0:0:
272,276,82955,1,0,0:0:0:0:
320,248,83038,2,0,P|344:224|356:196,2,56.25
426,120,83372,2,0,P|378:92|302:104,1,112.5,8|0,0:0|0:0,0:0:0:0:
270,116,83622,1,0,0:0:0:0:
222,144,83705,2,0,P|198:168|186:196,2,56.25
152,300,84038,38,0,P|130:293|108:276,1,45,2|0,0:0|0:0,0:0:0:0:
140,168,84372,2,0,P|163:175|184:195,1,45
240,288,84705,85,2,0:0:0:0:
296,328,84872,1,2,0:0:0:0:
365,328,85038,1,2,0:0:0:0:
424,292,85205,1,2,0:0:0:0:
460,160,85372,54,0,P|432:124|376:112,1,90,2|0,0:0|0:0,0:0:0:0:
390,110,85622,1,0,0:0:0:0:
390,110,85705,2,0,L|299:111,1,90
165,110,86038,1,8,0:0:0:0:
165,110,86372,2,0,P|196:228|268:256,1,202.500007724762
364,212,86705,102,0,P|336:176|292:160,1,90,2|0,0:0|0:0,0:0:0:0:
295,160,86955,1,0,0:0:0:0:
295,160,87038,2,0,B|248:164|248:164|204:184,1,90
88,244,87372,2,0,B|72:216|72:216|88:148,1,90,8|0,0:0|0:0,0:0:0:0:
85,159,87622,1,0,0:0:0:0:
85,159,87705,2,0,B|96:117|96:117|122:79,1,90
240,8,88038,5,0,0:0:0:0:
240,8,88205,2,0,P|244:52|276:92,1,90
384,164,88705,1,8,0:0:0:0:
261,224,88872,1,0,0:0:0:0:
220,232,88955,1,0,0:0:0:0:
180,228,89038,1,0,0:0:0:0:
144,212,89122,1,0,0:0:0:0:
120,180,89205,1,0,0:0:0:0:
116,140,89288,1,0,0:0:0:0:
124,100,89372,102,0,B|132:88|148:80|148:80|180:84|216:76,1,90
288,68,89705,1,0,0:0:0:0:
288,68,89816,1,0,0:0:0:0:
288,68,89927,1,0,0:0:0:0:
288,68,90038,1,8,0:0:0:0:
404,132,90261,2,0,P|420:134|436:140,1,30
412,156,90372,2,0,P|416:228|372:288,1,135
349,301,90705,5,0,0:0:0:0:
169,287,91038,1,8,0:0:0:0:
349,301,91205,2,0,B|381:271|381:271|390:174|390:174|370:136,1,180
342,105,91622,1,0,0:0:0:0:
312,71,91705,2,0,B|278:57|278:57|210:58,1,90
135,68,92038,101,0,0:0:0:0:
135,68,92205,1,0,0:0:0:0:
196,188,92372,1,0,0:0:0:0:
229,218,92455,1,0,0:0:0:0:
271,230,92538,1,0,0:0:0:0:
316,226,92622,1,0,0:0:0:0:
355,205,92705,2,0,P|385:167|392:94,2,120,8|0|0,0:0|0:0|0:0,0:0:0:0:
251,266,93372,5,0,0:0:0:0:
161,264,93538,1,0,0:0:0:0:
207,186,93705,2,0,L|190:162,2,30
203,341,94038,1,8,0:0:0:0:
203,341,94205,1,0,0:0:0:0:
203,341,94372,2,0,P|270:352|292:340,1,90
369,261,94705,101,0,0:0:0:0:
369,261,94872,2,0,B|376:246|376:246|371:212,1,45
359,174,95038,2,0,B|356:166|356:166|349:165|349:165|346:157|346:157|339:157|339:157|335:149|335:149|327:149|327:149|324:142|324:142|317:142|317:142|296:134|269:130,1,90
200,132,95372,1,0,0:0:0:0:
156,141,95455,1,0,0:0:0:0:
121,170,95538,1,0,0:0:0:0:
102,211,95622,1,0,0:0:0:0:
102,255,95705,2,0,P|117:300|156:331,1,90,8|0,0:0|0:0,0:0:0:0:
236,348,96038,6,0,B|268:356|296:344|296:344|280:296|280:296|304:268|312:224,1,180,2|0,0:0|0:0,0:0:0:0:
304,56,97372,102,0,B|292:96|260:104|260:104|224:88|200:92|188:116|196:140|220:144|236:136|232:116,1,180,2|0,0:0|0:0,0:0:0:0:
140,216,98705,6,0,B|124:248|124:248|96:264|96:264|84:288,3,90,2|0|0|0,0:0|0:0|0:0|0:0,0:0:0:0:
140,356,99372,2,0,B|156:324|156:324|184:308|184:308|196:284,3,90,8|0|0|0,0:0|0:0|0:0|0:0,0:0:0:0:
232,208,100038,102,0,L|268:120,1,90
296,160,100372,2,0,L|332:72,1,90
436,160,100705,1,0,0:0:0:0:
427,203,100788,1,0,0:0:0:0:
405,242,100871,1,0,0:0:0:0:
370,271,100954,1,0,0:0:0:0:
328,286,101038,1,8,0:0:0:0:
148,304,101372,6,0,B|112:296|96:272|100:244|100:244|132:244|156:236|180:208,1,157.5
184,208,102038,2,0,P|200:192|216:164,1,45,8|0,0:0|0:0,0:0:0:0:
252,248,102538,101,0,0:0:0:0:
268,104,102705,2,0,B|274:129|274:129|291:152|287:169|296:192|272:232|245:255,1,157.5
236,264,103372,2,0,P|220:280|184:300,1,45,8|0,0:0|0:0,0:0:0:0:
144,143,103872,5,0,0:0:0:0:
124,284,104038,2,0,B|112:252|112:252|128:212|104:208|108:196|108:196|120:164|152:136,1,157.5
164,132,104705,2,0,P|194:120|226:121,3,45,8|0|0|0,0:0|0:0|0:0|0:0,0:0:0:0:
328,180,105372,102,0,B|336:208|336:208|312:272,1,90
184,308,105705,2,0,B|176:280|176:280|200:216,1,90
260,104,106038,1,0,0:0:0:0:
348,204,106205,1,0,0:0:0:0:
216,168,106372,1,0,0:0:0:0:
344,124,106538,1,0,0:0:0:0:
264,236,106705,6,0,B|232:280|232:280|156:300|96:248|76:200|96:164|134:134|172:156|172:200|152:248|152:248|120:296|88:320|88:320|121:339|167:363|231:355|231:355|262:351|280:338|289:328|289:328|311:296,2,720
400,96,112038,102,0,B|336:152|336:152|332:200|377:223|402:219|431:190|432:167|424:144|392:120|364:104|364:104|328:84|300:84|300:84|272:104|261:123|260:144|260:144|260:198|281:227|281:227|340:314|218:332|199:288|226:247|254:248,2,720
144,108,117372,6,0,B|136:136|112:156|112:156|176:144|232:168|232:168|240:216|172:244|172:244|146:227|146:227|124:228|113:232|113:232|56:232|25:193|7:137|29:99|66:98|83:105|86:93|66:87|57:50|101:8|167:16|196:46|208:73,2,720
424,112,121372,102,0,B|344:112|308:168|300:200|300:200|260:184|228:208|216:248|216:296|284:316|332:296|320:248|320:248,2,360
200,240,124038,6,0,B|160:248|108:244|40:272|52:152|112:132|156:160|152:268|132:304|132:304|149:324|218:310|218:310|255:301|287:268|285:221|268:188|236:168|200:168|200:168|260:160|284:108,2,720
200,240,127372,1,2,0:0:0:0:
200,240,128038,54,0,P|259:233|328:152,1,161.999995056153,2|0,0:0|0:0,0:0:0:0:
325,160,128372,1,0,0:0:0:0:
148,36,128705,1,8,0:0:0:0:
283,335,129038,1,0,0:0:0:0:
283,335,129205,1,0,0:0:0:0:
448,196,129372,22,0,P|464:108|436:28,1,161.999995056153,2|0,0:0|0:0,0:0:0:0:
443,40,129705,1,0,0:0:0:0:
248,128,130038,1,8,0:0:0:0:
422,253,130372,1,0,0:0:0:0:
422,253,130538,1,0,0:0:0:0:
208,284,130705,86,0,P|120:280|60:228,1,161.999995056153,2|0,0:0|0:0,0:0:0:0:
64,235,131038,1,0,0:0:0:0:
196,64,131372,1,8,0:0:0:0:
228,168,131538,1,0,0:0:0:0:
236,192,131622,1,0,0:0:0:0:
252,212,131705,2,0,B|276:252|304:264|304:264|300:224|316:196|340:184,1,161.999995056153
360,176,132038,21,2,0:0:0:0:
448,312,132288,1,0,0:0:0:0:
448,312,132372,1,0,0:0:0:0:
448,312,132705,1,8,0:0:0:0:
448,312,132872,2,0,B|380:324|344:288|344:288|340:308|316:340|292:348|247:350,1,215.999993408203
264,264,133372,86,0,B|280:229|307:206|355:199|394:223|394:223|419:238,1,161.999995056153,2|0,0:0|0:0,0:0:0:0:
399,226,133705,1,0,0:0:0:0:
251,69,134038,1,8,0:0:0:0:
189,277,134372,1,0,0:0:0:0:
189,277,134538,1,0,0:0:0:0:
399,226,134705,22,2,B|386:271|386:271|267:330,1,161.999995056153
282,322,135038,1,0,0:0:0:0:
70,279,135372,1,8,0:0:0:0:
282,322,135705,1,0,0:0:0:0:
282,322,135872,1,0,0:0:0:0:
70,279,136038,86,2,B|34:248|34:248|26:116,1,161.999995056153
27,133,136372,1,0,0:0:0:0:
236,189,136705,1,8,0:0:0:0:
171,39,136872,1,0,0:0:0:0:
146,86,136955,1,0,0:0:0:0:
132,138,137038,2,0,B|124:191|124:191|148:250,1,107.999996704102
236,189,137372,22,0,B|252:240|252:240|237:302,1,107.999996704102,2|0,0:0|0:0,0:0:0:0:
144,241,137705,1,0,0:0:0:0:
132,189,137788,1,0,0:0:0:0:
147,138,137871,1,0,0:0:0:0:
186,100,137955,1,0,0:0:0:0:
237,87,138038,1,8,0:0:0:0:
444,149,138372,2,0,L|477:191,1,53.9999983520508
480,272,138538,2,0,L|447:314,1,53.9999983520508
361,339,138705,6,0,B|316:346|316:346|317:303|280:262|238:251|238:251|241:292|228:319,1,236.250009012223,2|0,0:0|0:0,0:0:0:0:
231,309,139372,1,8,0:0:0:0:
231,309,139705,1,0,0:0:0:0:
231,309,139872,1,0,0:0:0:0:
117,176,140038,86,0,B|128:148|151:129|151:129|196:122|241:107|265:75|265:75|256:108|264:130,1,236.250009012223,2|0,0:0|0:0,0:0:0:0:
261,122,140705,1,8,0:0:0:0:
261,122,141038,1,0,0:0:0:0:
261,122,141205,1,0,0:0:0:0:
332,284,141372,22,0,P|440:200|264:124,1,409.499981254578,2|0,0:0|0:0,0:0:0:0:
261,122,142038,1,8,0:0:0:0:
342,184,142372,1,0,0:0:0:0:
342,184,142538,1,0,0:0:0:0:
196,284,142705,86,0,P|60:300|130:122,1,409.499981254578,2|0,0:0|0:0,0:0:0:0:
131,119,143371,1,8,0:0:0:0:
118,220,143705,1,0,0:0:0:0:
118,220,143871,1,0,0:0:0:0:
256,108,144038,22,0,B|320:100|360:52|360:52|352:112|368:140|368:140|336:168|316:212|332:280|396:308,1,409.499981254578,2|0,0:0|0:0,0:0:0:0:
390,305,144705,1,8,0:0:0:0:
432,216,144872,2,0,B|360:172|308:176|308:176|256:208|216:192|184:168|172:124,1,292.499986610413,2|0,0:0|0:0,0:0:0:0:
256,108,145372,86,0,P|225:182|156:220,1,157.5,2|0,0:0|0:0,0:0:0:0:
160,219,146038,1,8,0:0:0:0:
129,96,146372,1,0,0:0:0:0:
256,108,146705,22,0,B|296:125|311:152|311:152|336:208|400:192|416:148|392:104|324:96|308:144|320:192|311:232|311:232|320:257|364:265|404:245,1,409.499981254578,2|0,0:0|0:0,0:0:0:0:
377,254,147372,1,8,0:0:0:0:
446,130,147538,2,0,B|433:81|399:71|372:52|326:66|326:66|341:41|379:32|404:34,1,233.999989288331,2|0,0:0|0:0,0:0:0:0:
339,199,148038,86,0,B|318:226|318:226|238:262,1,116.999994644165,10|0,0:0|0:0,0:0:0:0:
274,168,148372,2,0,B|198:201|198:201|178:229,1,116.999994644165,10|0,0:0|0:0,0:0:0:0:
243,260,148705,2,0,B|318:226|318:226|339:199,1,116.999994644165,10|0,0:0|0:0,0:0:0:0:
274,168,149038,1,10,0:0:0:0:
238,183,149121,1,8,0:0:0:0:
202,199,149204,1,8,0:0:0:0:
178,229,149288,1,8,0:0:0:0:
164,256,149372,70,0,L|136:312,2,58.4999973220826
128,144,149705,2,0,L|155:92,2,58.4999973220826
238,183,150038,2,0,L|186:155,2,58.4999973220826
21,165,150371,2,0,L|73:191,2,58.4999973220826
21,165,151372,86,0,P|48:228|132:248,1,157.5
108,164,152038,22,0,L|168:164,2,58.4999973220826
276,108,152372,2,0,L|332:89,2,58.4999973220826
444,164,152705,2,0,L|503:161,2,58.4999973220826
272,208,153038,2,0,L|324:235,2,58.4999973220826
408,72,154372,85,0,0:0:0:0:
408,72,154538,1,0,0:0:0:0:
244,140,154705,22,0,B|216:140|216:140|184:132,2,58.4999973220826
72,112,155038,2,0,B|100:112|100:112|132:120,2,58.4999973220826
148,216,155372,2,0,B|148:188|148:188|155:158,2,58.4999973220826
176,44,155705,2,0,B|176:72|176:72|168:101,2,58.4999973220826
148,216,156038,86,0,B|144:256|144:256|196:364,1,157.5
224,240,156705,2,0,B|228:200|228:200|176:92,1,157.5
148,216,157372,22,0,B|144:240|144:240|156:280,2,58.4999973220826
256,356,157705,2,0,B|280:360|280:360|320:348,2,58.4999973220826
404,256,158038,2,0,B|408:232|408:232|396:192,2,58.4999973220826
296,116,158371,2,0,B|272:112|272:112|232:124,2,58.4999973220826
472,116,158705,86,0,B|456:132|448:144|438:163|438:163|404:161|370:179|351:217,1,157.5
432,248,159372,2,0,B|417:277|383:295|349:293|349:293|344:312|336:328|315:340,1,157.5
268,272,160038,22,0,P|258:241|256:212,2,58.4999973220826,2|0|0,0:0|0:0|0:0,0:0:0:0:
255,215,160372,2,0,P|225:217|198:227,2,58.4999973220826
198,227,160705,2,0,P|189:199|186:170,2,58.4999973220826,2|0|0,0:0|0:0|0:0,0:0:0:0:
186,170,161038,2,0,P|187:140|196:112,2,58.4999973220826
304,156,161372,5,2,0:0:0:0:
333,158,161455,1,0,0:0:0:0:
361,153,161538,1,0,0:0:0:0:
388,141,161622,1,0,0:0:0:0:
411,123,161705,2,0,P|432:96|444:72,2,58.4999973220826
324,44,162038,1,2,0:0:0:0:
172,188,162705,21,2,0:0:0:0:
156,212,162788,1,0,0:0:0:0:
140,236,162872,1,0,0:0:0:0:
256,212,163038,1,2,0:0:0:0:
272,188,163121,1,0,0:0:0:0:
288,164,163205,1,0,0:0:0:0:
264,40,163372,1,2,0:0:0:0:
374,80,163539,1,0,0:0:0:0:
264,40,163705,2,0,L|192:136,1,116.999994644165
132,232,164038,6,0,B|148:252|152:280|152:280|172:308|220:320|256:308,1,135.000005149842,2|0,0:0|0:0,0:0:0:0:
360,300,164705,2,0,B|376:268|392:256|392:256|380:228|380:228|384:200|380:172,1,135.000005149842,2|0,0:0|0:0,0:0:0:0:
304,68,165372,2,0,B|268:56|268:56|160:88,1,135.000005149842,10|0,0:0|0:0,0:0:0:0:
80,116,165872,1,0,0:0:0:0:
232,188,166038,1,10,0:0:0:0:
80,116,166372,1,0,0:0:0:0:
232,188,166705,6,0,B|272:200|272:200|360:176,1,116.999994644165,2|0,0:0|0:0,0:0:0:0:
256,104,167038,2,0,B|216:92|216:92|128:116,1,116.999994644165,0|8,0:0|0:0,0:0:0:0:
32,148,167372,1,2,0:0:0:0:
464,324,168038,70,0,B|456:248|456:248|424:192,1,135.000005149842,10|0,0:0|0:0,0:0:0:0:
324,64,168538,1,8,0:0:0:0:
260,220,168705,1,0,0:0:0:0:
324,64,169038,1,2,0:0:0:0:
260,220,169372,1,10,0:0:0:0:
208,132,169538,5,0,0:0:0:0:
208,132,169622,1,0,0:0:0:0:
208,132,169705,2,0,L|188:92,2,33.7500012874604
260,220,170038,5,10,0:0:0:0:
271,232,170121,1,0,0:0:0:0:
285,241,170204,1,0,0:0:0:0:
300,249,170288,1,0,0:0:0:0:
316,254,170371,1,10,0:0:0:0:
333,255,170454,1,0,0:0:0:0:
350,255,170538,1,0,0:0:0:0:
366,251,170621,1,0,0:0:0:0:
382,244,170705,1,2,0:0:0:0:
132,88,171705,21,2,0:0:0:0:
260,216,172038,1,0,0:0:0:0:
316,232,172150,1,0,0:0:0:0:
376,220,172261,1,0,0:0:0:0:
424,188,172372,2,0,L|468:148,2,60
352,92,172705,22,0,P|280:76|212:120,1,135,8|0,0:0|0:0,0:0:0:0:
296,164,173038,2,0,L|356:176,2,60,8|0|0,0:0|0:0|0:0,0:0:0:0:
172,148,173372,5,2,0:0:0:0:
138,147,173455,1,0,0:0:0:0:
106,156,173538,1,0,0:0:0:0:
77,174,173622,1,0,0:0:0:0:
55,199,173705,2,0,L|18:255,2,67.5000025749208
224,285,174038,5,0,0:0:0:0:
257,285,174121,1,0,0:0:0:0:
289,276,174204,1,0,0:0:0:0:
318,258,174288,1,0,0:0:0:0:
340,233,174372,2,0,L|377:177,2,67.5000025749208,2|0|0,0:0|0:0|0:0,0:0:0:0:
218,86,174705,6,0,B|207:94|197:106|191:115|191:115|182:129|187:144|187:144|206:175|208:238|165:267|132:272|108:270,1,236.250009012223,8|0,0:0|0:0,0:0:0:0:
124,269,175372,1,8,0:0:0:0:
113,186,175538,1,0,0:0:0:0:
113,186,175622,1,0,0:0:0:0:
113,186,175705,2,0,L|249:203,1,135.000005149842
382,205,176038,6,0,B|407:201|407:201|448:177,2,67.5000025749208,2|0|0,0:0|0:0|0:0,0:0:0:0:
246,213,176372,2,0,B|220:216|220:216|179:240,2,67.5000025749208
308,143,176705,2,0,B|304:117|304:117|280:76,2,67.5000025749208
316,279,177039,2,0,B|319:304|319:304|343:345,2,67.5000025749208,2|0|0,0:0|0:0|0:0,0:0:0:0:
