osu file format v14

[General]
AudioFilename: audio.mp3
AudioLeadIn: 0
PreviewTime: 56569
Countdown: 0
SampleSet: Soft
StackLeniency: 0.3
Mode: 0
LetterboxInBreaks: 0
WidescreenStoryboard: 1

[Editor]
Bookmarks: 28279,49260,66154,70863,85297,96037,98404
DistanceSpacing: 0.7
BeatDivisor: 4
GridSize: 4
TimelineZoom: 2.3

[Metadata]
Title:Feel Like Horrible
TitleUnicode:Feel Like Horrible
Artist:Different Heaven & Sian Area
ArtistUnicode:Different Heaven & Sian Area
Creator:FinnB
Version:Terrible
Source:
Tags:ncs
BeatmapID:1660182
BeatmapSetID:789096

[Difficulty]
HPDrainRate:6
CircleSize:3.8
OverallDifficulty:8
ApproachRate:9.8
SliderMultiplier:1.2
SliderTickRate:2

[Events]
//Background and Video events
0,0,"feel like horrible bg.jpg",0,0
//Break Periods
2,12118,21750
//Storyboard Layer 0 (Background)
//Storyboard Layer 1 (Fail)
//Storyboard Layer 2 (Pass)
//Storyboard Layer 3 (Foreground)
//Storyboard Sound Samples

[TimingPoints]
756,348.837209302326,4,2,1,90,1,0
1104,-133.333333333333,4,2,2,50,0,0
11918,-117.647058823529,4,2,2,50,0,0
34244,-105.263157894737,4,2,2,60,0,0
45407,-100,4,2,1,80,0,0
50988,-80,4,2,1,80,0,0
52383,-66.6666666666667,4,2,1,80,0,0
53779,-57.1428571428571,4,2,1,80,0,0
55174,-133.333333333333,4,2,1,90,0,0
56569,-50,4,2,1,100,0,1
68953,-33.3333333333333,4,2,1,100,0,1
69476,-50,4,2,1,100,0,1
78546,-50,4,2,2,100,0,1
78895,-133.333333333333,4,2,2,80,0,0
81686,-66.6666666666667,4,2,1,100,0,1
89535,-66.6666666666667,4,2,2,100,0,1
90058,-66.6666666666667,4,2,1,100,0,1
101221,-133.333333333333,4,2,2,75,0,0
104011,-133.333333333333,4,2,2,65,0,0
106802,-133.333333333333,4,2,2,55,0,0
109593,-133.333333333333,4,2,2,45,0,0
112383,-133.333333333333,4,2,2,5,0,0

[Colours]
Combo1 : 92,92,92
Combo2 : 159,159,159

[HitObjects]
84,236,756,5,2,0:0:0:0:
292,364,1104,6,0,L|348:352,1,45.0000017166138
416,316,1453,2,0,P|423:272|406:231,1,90.0000034332276,2|2,0:0|0:0,0:0:0:0:
406,231,2151,2,0,P|401:197|406:167,1,45.0000017166138,2|0,0:0|0:0,0:0:0:0:
504,284,2500,2,0,P|510:317|508:332,1,45.0000017166138,2|0,0:0|0:0,0:0:0:0:
360,356,2849,2,0,L|292:360,2,67.5000025749207,2|0|2,0:0|0:0|0:0,0:0:0:0:
196,356,3546,6,0,P|204:304|232:280,1,90.0000034332277,2|2,0:0|0:0,0:0:0:0:
384,168,4069,1,0,0:0:0:0:
384,272,4244,2,0,P|340:264|307:234,1,90.0000034332277,2|2,0:0|0:0,0:0:0:0:
280,216,4942,2,0,L|243:190,1,45.0000017166138,2|0,0:0|0:0,0:0:0:0:
384,168,5290,2,0,L|421:194,1,45.0000017166138,2|0,0:0|0:0,0:0:0:0:
472,300,5639,2,0,L|418:258,2,67.5000025749207,2|0|2,0:0|0:0|0:0,0:0:0:0:
310,264,6337,6,0,L|230:200,1,90.0000034332277
284,124,6860,1,0,0:0:0:0:
192,112,7035,2,0,L|155:86,1,45.0000017166138,2|0,0:0|0:0,0:0:0:0:
240,208,7383,2,0,L|277:234,1,45.0000017166138,2|0,0:0|0:0,0:0:0:0:
148,192,7732,6,0,L|92:263,1,90.0000034332277,2|2,0:0|0:0,0:0:0:0:
200,304,8256,1,0,0:0:0:0:
276,232,8430,2,0,L|331:160,1,90.0000034332277,2|2,0:0|0:0,0:0:0:0:
256,92,8953,2,0,P|152:73|88:158,1,225.000008583069,2|0,0:0|0:0,0:0:0:0:
201,269,10000,5,2,0:0:0:0:
377,225,10174,1,2,0:0:0:0:
256,92,10349,2,0,P|92:136|200:268,1,405.000015449524,2|4,0:0|0:0,0:0:0:0:
512,104,23430,5,2,0:0:0:0:
452,204,23604,1,2,0:0:0:0:
352,176,23779,1,2,0:0:0:0:
304,256,23953,2,0,L|204:276,1,102.000001945496,2|2,0:0|0:0,0:0:0:0:
203,276,24651,2,0,P|188:241|195:208,1,51.0000009727478,2|0,0:0|0:0,0:0:0:0:
52,316,25000,2,0,P|68:352|56:384,1,51.0000009727478
160,384,25349,1,0,0:0:0:0:
203,276,25523,1,2,0:0:0:0:
188,168,25697,1,0,0:0:0:0:
88,120,25872,6,0,P|112:80|180:60,1,102.000001945496,2|0,0:0|0:0,0:0:0:0:
260,4,26395,1,2,0:0:0:0:
280,120,26569,2,0,L|338:131,2,51.0000009727478,2|2|0,0:0|0:0|0:0,0:0:0:0:
259,208,27093,2,0,L|360:228,1,102.000001945496,2|0,0:0|0:0,0:0:0:0:
452,264,27616,2,0,P|423:305|376:323,1,102.000001945496,2|0,0:0|0:0,0:0:0:0:
292,280,28139,2,0,P|248:296|212:360,1,102.000001945496,2|0,0:0|0:0,0:0:0:0:
308,376,28662,1,0,0:0:0:0:
72,264,29011,5,2,0:0:0:0:
72,264,29186,1,2,0:0:0:0:
72,264,29360,2,0,L|140:276,1,51.0000009727478,2|2,0:0|0:0,0:0:0:0:
122,272,29883,2,0,P|152:231|153:180,1,102.000001945496,2|2,0:0|0:0,0:0:0:0:
304,128,30407,2,0,P|274:169|273:220,1,102.000001945496,2|2,0:0|0:0,0:0:0:0:
360,252,30930,1,0,0:0:0:0:
288,320,31104,2,0,L|236:300,1,51.0000009727478,2|0,0:0|0:0,0:0:0:0:
140,348,31453,6,0,P|116:260|204:192,1,204.000003890991,2|0,0:0|0:0,0:0:0:0:
364,233,32325,1,0,0:0:0:0:
236,360,32500,1,2,0:0:0:0:
192,192,32674,1,2,0:0:0:0:
408,168,32849,6,0,P|358:157|309:168,1,102.000001945496,2|0,0:0|0:0,0:0:0:0:
140,256,33372,2,0,P|189:266|238:255,1,102.000001945496,2|0,0:0|0:0,0:0:0:0:
192,192,33895,1,0,0:0:0:0:
276,144,34593,6,0,P|253:127|225:122,1,56.9999984779358,2|0,0:0|0:0,0:0:0:0:
192,212,34942,2,2,P|150:274|94:275,1,113.999996955872
40,196,35465,2,0,P|64:120|144:76,1,170.999995433807,2|0,0:0|0:0,0:0:0:0:
244,160,36162,2,0,L|328:160,1,56.9999984779358,2|0,0:0|0:0,0:0:0:0:
232,272,36511,2,0,L|148:272,1,56.9999984779358,2|0,0:0|0:0,0:0:0:0:
128,184,36860,1,2,0:0:0:0:
180,88,37035,6,0,P|216:80|244:100,1,56.9999984779358,2|2,0:0|0:0,0:0:0:0:
300,135,37383,1,0,0:0:0:0:
404,136,37558,2,0,P|356:156|296:132,1,113.999996955872,2|0,0:0|0:0,0:0:0:0:
198,247,38081,1,2,0:0:0:0:
94,246,38256,2,0,P|142:226|202:250,1,113.999996955872,2|0,0:0|0:0,0:0:0:0:
320,220,38779,2,0,B|286:225|286:225|266:177|222:165,1,113.999996955872,2|2,0:0|0:0,0:0:0:0:
144,200,39302,1,0,0:0:0:0:
156,112,39476,2,0,P|212:76|260:88,1,113.999996955872,2|0,0:0|0:0,0:0:0:0:
255,85,40174,5,2,0:0:0:0:
356,104,40348,1,0,0:0:0:0:
452,68,40523,2,2,P|476:104|488:180,1,113.999996955872
472,284,41046,2,2,P|448:248|436:172,1,113.999996955872
264,180,41569,1,0,0:0:0:0:
168,288,41744,1,2,0:0:0:0:
168,288,42093,2,0,P|142:278|114:277,1,56.9999984779358,2|2,0:0|0:0,0:0:0:0:
261,360,42442,6,0,P|289:359|316:348,1,56.9999984779358,2|0,0:0|0:0,0:0:0:0:
408,244,42790,1,0,0:0:0:0:
324,132,42965,1,0,0:0:0:0:
184,128,43139,2,0,P|116:104|60:100,1,113.999996955872,2|2,0:0|0:0,0:0:0:0:
256,28,43662,1,0,0:0:0:0:
436,100,43837,2,0,P|379:108|327:129,1,113.999996955872,2|2,0:0|0:0,0:0:0:0:
256,328,44360,2,0,L|256:200,1,113.999996955872,2|2,0:0|0:0,0:0:0:0:
152,204,44883,1,0,0:0:0:0:
360,204,45058,1,2,0:0:0:0:
376,208,45407,6,0,P|375:238|367:267,1,60,2|0,0:0|0:0,0:0:0:0:
276,156,45756,2,0,P|277:126|285:97,1,60,2|0,0:0|0:0,0:0:0:0:
388,208,46104,2,0,P|387:238|379:267,2,60,2|0|2,0:0|0:0|0:0,0:0:0:0:
276,156,46628,1,0,0:0:0:0:
200,48,46802,2,0,P|140:24|76:28,1,120,2|2,0:0|0:0,0:0:0:0:
0,132,47325,1,0,0:0:0:0:
36,260,47500,2,0,L|104:284,1,60,2|0,0:0|0:0,0:0:0:0:
172,372,47849,2,0,L|104:348,1,60,2|2,0:0|0:0,0:0:0:0:
92,279,48110,1,2,0:0:0:0:
144,228,48197,6,0,L|212:252,1,60,2|0,0:0|0:0,0:0:0:0:
300,188,48546,2,0,L|232:164,1,60,2|0,0:0|0:0,0:0:0:0:
124,240,48895,2,0,L|192:264,1,60,2|0,0:0|0:0,0:0:0:0:
291,310,49244,1,2,0:0:0:0:
231,147,49418,1,2,0:0:0:0:
343,199,49593,1,2,0:0:0:0:
180,259,49767,1,2,0:0:0:0:
296,308,49942,2,0,L|355:307,1,60,2|2,0:0|0:0,0:0:0:0:
320,216,50290,2,0,L|188:216,1,120,2|2,0:0|0:0,0:0:0:0:
408,276,50814,5,2,0:0:0:0:
408,276,50901,1,2,0:0:0:0:
408,276,50988,2,0,P|420:202|360:132,1,150,10|2,0:0|0:0,0:0:0:0:
284,108,51511,2,0,L|192:132,1,75,2|8,0:0|0:0,0:0:0:0:
88,236,51860,2,0,L|184:208,1,75,2|0,0:0|0:0,0:0:0:0:
343,262,52209,2,0,P|262:224|291:102,1,225,2|2,0:0|0:0,0:0:0:0:
119,83,52907,6,0,P|164:83|204:62,1,90.0000034332277,2|8,0:0|0:0,0:0:0:0:
420,152,53256,2,0,P|356:160|316:196,1,90.0000034332277,2|0,0:0|0:0,0:0:0:0:
396,248,53604,1,2,0:0:0:0:
224,292,53779,5,8,0:0:0:0:
196,316,53866,1,0,0:0:0:0:
160,328,53953,1,0,0:0:0:0:
124,316,54040,1,0,0:0:0:0:
100,288,54128,1,8,0:0:0:0:
88,252,54215,1,0,0:0:0:0:
100,216,54302,1,0,0:0:0:0:
124,188,54389,1,0,0:0:0:0:
160,176,54476,5,8,0:0:0:0:
196,164,54564,1,0,0:0:0:0:
224,140,54651,1,0,0:0:0:0:
248,116,54738,1,0,0:0:0:0:
276,92,54825,1,8,0:0:0:0:
308,76,54912,1,0,0:0:0:0:
344,68,55000,1,0,0:0:0:0:
380,76,55087,1,0,0:0:0:0:
408,92,55174,1,2,0:0:0:0:
408,92,55697,5,2,0:0:0:0:
52,176,56221,1,8,0:0:0:0:
48,72,56569,6,0,P|145:81|121:225,1,240,6|8,0:0|0:0,0:0:0:0:
124,316,57093,1,0,0:0:0:0:
32,202,57267,2,0,L|204:202,1,120,0|2,0:0|0:0,0:0:0:0:
328,80,57616,2,0,L|156:80,1,120,8|0,0:0|0:0,0:0:0:0:
288,296,57965,6,2,P|368:308|404:164,1,240,0|8,0:0|0:0,0:0:0:0:
332,216,58488,1,0,0:0:0:0:
251,103,58662,1,0,0:0:0:0:
188,244,58837,1,2,0:0:0:0:
140,152,59011,2,0,L|4:152,1,120,8|0,0:0|0:0,0:0:0:0:
188,244,59360,6,0,L|324:244,2,120,2|0|8,0:0|0:0|0:0,0:0:0:0:
308,244,59883,2,0,P|356:184|224:124,1,240,0|2,0:0|0:0,0:0:0:0:
176,160,60407,1,8,0:0:0:0:
360,32,60581,2,0,P|241:16|137:102,1,240,0|2,0:0|0:0,0:0:0:0:
12,136,61104,2,0,P|84:164|64:320,1,240,8|0,0:0|0:0,0:0:0:0:
252,342,61628,1,2,0:0:0:0:
431,307,61802,2,0,P|440:248|451:227,1,60,8|0,0:0|0:0,0:0:0:0:
424,184,61976,2,0,P|416:120|404:104,1,60,0|2,0:0|0:0,0:0:0:0:
356,148,62151,6,0,P|282:205|262:373,1,240,2|8,0:0|0:0,0:0:0:0:
392,280,62674,1,0,0:0:0:0:
268,224,62849,2,0,B|196:232|196:232|144:284,1,120,0|2,0:0|0:0,0:0:0:0:
16,196,63197,2,0,B|88:188|88:188|140:136,1,120,8|0,0:0|0:0,0:0:0:0:
192,80,63546,5,0,0:0:0:0:
356,96,63721,1,2,0:0:0:0:
267,223,63895,1,8,0:0:0:0:
494,177,64069,2,0,B|382:185|382:185|350:217|350:217|242:225,1,240,0|2,0:0|0:0,0:0:0:0:
156,288,64593,2,0,P|204:322|262:330,1,120,8|0,0:0|0:0,0:0:0:0:
156,180,64942,6,0,P|92:140|36:140,1,120,2|0,0:0|0:0,0:0:0:0:
72,236,65290,1,8,0:0:0:0:
252,192,65465,6,0,P|204:252|308:372,1,240,0|2,0:0|0:0,0:0:0:0:
304,276,65988,1,8,0:0:0:0:
252,192,66162,2,0,B|168:192|164:232|0:232,1,240,0|2,0:0|0:0,0:0:0:0:
224,292,66686,2,0,P|136:204|196:100,1,240,8|0,0:0|0:0,0:0:0:0:
276,184,67209,1,2,0:0:0:0:
176,111,67383,6,0,L|276:79,1,60,8|0,0:0|0:0,0:0:0:0:
304,68,67558,2,0,L|361:49,1,60
424,96,67732,6,0,P|444:172|324:280,1,240,2|8,0:0|0:0,0:0:0:0:
200,256,68256,1,0,0:0:0:0:
96,224,68430,2,0,P|172:160|304:236,1,240,0|8,0:0|0:0,0:0:0:0:
52,168,68953,2,0,B|156:144|176:244|176:244|228:260|228:260|264:308|264:308|340:280|332:248,1,360.000013732911
341,139,69476,1,8,0:0:0:0:
400,327,69651,2,0,P|430:277|422:218,1,120,2|0,0:0|0:0,0:0:0:0:
341,139,70000,6,0,P|310:188|317:246,1,120,2|8,0:0|0:0,0:0:0:0:
400,327,70349,1,0,0:0:0:0:
272,356,70523,2,0,P|215:336|156:341,1,120,2|0,0:0|0:0,0:0:0:0:
16,200,70872,1,8,0:0:0:0:
120,88,71046,1,0,0:0:0:0:
120,88,71395,1,2,0:0:0:0:
232,316,71569,1,0,0:0:0:0:
335,223,71743,1,2,0:0:0:0:
335,223,72267,6,0,P|217:208|98:223,1,240,8|0,0:0|0:0,0:0:0:0:
136,28,72790,1,2,0:0:0:0:
24,128,72965,1,8,0:0:0:0:
280,136,73139,1,0,0:0:0:0:
380,68,73314,6,0,P|404:152|268:248,1,240,2|8,0:0|0:0,0:0:0:0:
88,264,73837,2,8,P|224:216|312:268,2,240,0|2|2,0:0|0:0|0:0,0:0:0:0:
344,160,74709,2,0,P|280:124|372:48,1,240,2|8,0:0|0:0,0:0:0:0:
184,128,75232,2,8,P|92:160|-12:272,2,240,0|2|0,0:0|0:0|0:0,0:0:0:0:
92,316,76104,2,0,B|124:256|184:236|184:236|300:236,1,240,2|8,0:0|0:0,0:0:0:0:
348,144,76628,1,0,0:0:0:0:
280,52,76802,6,0,P|144:56|128:60,1,120,0|2,0:0|0:0,0:0:0:0:
348,144,77151,2,0,P|484:140|500:136,1,120,8|0,0:0|0:0,0:0:0:0:
380,252,77500,2,0,P|320:246|260:251,1,120,2|0,0:0|0:0,0:0:0:0:
324,336,77849,1,8,0:0:0:0:
380,228,78023,2,0,P|320:214|260:228,1,120,2|0,0:0|0:0,0:0:0:0:
324,336,78372,1,2,0:0:0:0:
117,337,78546,5,2,0:0:0:0:
157,337,78633,1,0,0:0:0:0:
201,337,78721,1,0,0:0:0:0:
241,337,78808,1,0,0:0:0:0:
281,337,78895,1,0,0:0:0:0:
352,336,79244,6,0,P|356:313|380:288,1,45.0000017166138,2|0,0:0|0:0,0:0:0:0:
271,167,79593,2,0,P|268:215|240:248,1,90.0000034332277,2|2,0:0|0:0,0:0:0:0:
132,248,80116,1,0,0:0:0:0:
24,112,80290,6,0,L|89:124,1,45.0000017166138,2|0,0:0|0:0,0:0:0:0:
132,248,80639,2,0,L|67:236,1,45.0000017166138,2|0,0:0|0:0,0:0:0:0:
60,348,80988,2,0,P|119:381|133:380,1,67.5000025749207,2|0,0:0|0:0,0:0:0:0:
140,380,81337,1,2,0:0:0:0:
164,380,81424,1,2,0:0:0:0:
188,380,81511,1,2,0:0:0:0:
212,380,81599,1,2,0:0:0:0:
244,380,81686,6,0,P|268:316|216:212,1,180.000006866455,2|0,0:0|0:0,0:0:0:0:
136,184,82209,1,2,0:0:0:0:
84,256,82383,2,0,L|180:312,1,90.0000034332277,8|0,0:0|0:0,0:0:0:0:
304,264,82732,2,0,L|208:208,1,90.0000034332277,2|0,0:0|0:0,0:0:0:0:
136,184,83081,2,0,P|168:112|296:116,1,180.000006866455,0|2,0:0|0:0,0:0:0:0:
352,144,83604,1,0,0:0:0:0:
316,232,83779,6,0,B|268:216|272:256|204:220,1,90.0000034332277,8|0,0:0|0:0,0:0:0:0:
336,316,84128,2,0,B|384:332|380:292|448:328,1,90.0000034332277
216,320,84476,2,0,P|140:268|152:184,1,180.000006866455,2|0,0:0|0:0,0:0:0:0:
224,120,85000,1,2,0:0:0:0:
316,240,85174,6,0,L|204:228,1,90.0000034332277,8|0,0:0|0:0,0:0:0:0:
134,110,85523,2,0,L|246:122,1,90.0000034332277,2|0,0:0|0:0,0:0:0:0:
312,44,85872,2,0,P|404:76|388:160,1,180.000006866455,0|2,0:0|0:0,0:0:0:0:
328,236,86395,1,0,0:0:0:0:
392,328,86569,2,0,L|212:388,1,180.000006866455,8|0,0:0|0:0,0:0:0:0:
124,320,87093,6,2,P|52:232|288:116,1,450.000017166138,0|8,0:0|0:0,0:0:0:0:
328,236,88139,5,0,0:0:0:0:
248,332,88314,1,2,0:0:0:0:
124,320,88488,2,0,P|52:232|288:116,1,450.000017166138,0|8,0:0|0:0,0:0:0:0:
460,116,89535,5,2,0:0:0:0:
408,128,89622,1,2,0:0:0:0:
364,156,89710,1,0,0:0:0:0:
332,200,89796,1,0,0:0:0:0:
292,232,89884,1,2,0:0:0:0:
244,248,89971,1,2,0:0:0:0:
192,248,90058,6,0,P|160:208|240:128,1,180.000006866455,2|0,0:0|0:0,0:0:0:0:
344,192,90581,1,0,0:0:0:0:
488,192,90756,6,0,L|484:80,1,90.0000034332277,8|0,0:0|0:0,0:0:0:0:
344,192,91104,2,0,L|348:304,1,90.0000034332277
208,340,91453,2,0,B|160:296|160:232|160:232|164:148,1,180.000006866455,0|2,0:0|0:0,0:0:0:0:
252,192,91976,1,0,0:0:0:0:
72,224,92151,6,0,L|76:92,1,90.0000034332277,8|0,0:0|0:0,0:0:0:0:
252,192,92500,2,0,L|248:324,1,90.0000034332277
404,232,92849,6,0,P|432:144|356:76,1,180.000006866455,2|0,0:0|0:0,0:0:0:0:
176,136,93371,1,0,0:0:0:0:
404,232,93546,1,8,0:0:0:0:
264,340,93721,1,2,0:0:0:0:
264,340,94069,6,0,P|404:316|416:256,1,180.000006866455,2|0,0:0|0:0,0:0:0:0:
264,252,94593,2,0,P|124:276|112:336,1,180.000006866455,2|8,0:0|0:0,0:0:0:0:
87,373,95116,1,0,0:0:0:0:
264,340,95290,1,0,0:0:0:0:
368,149,95465,1,0,0:0:0:0:
368,232,95639,6,0,P|372:272|496:320,1,180.000006866455,2|0,0:0|0:0,0:0:0:0:
336,364,96162,1,0,0:0:0:0:
208,296,96337,1,0,0:0:0:0:
76,320,96511,1,0,0:0:0:0:
164,216,96686,2,0,L|260:220,1,90.0000034332277
344,244,97035,6,0,P|345:200|232:132,1,180.000006866455,2|0,0:0|0:0,0:0:0:0:
164,216,97558,1,0,0:0:0:0:
339,331,97733,1,0,0:0:0:0:
408,184,97907,1,0,0:0:0:0:
254,240,98082,2,0,L|350:244,1,90.0000034332277
379,51,98430,6,0,L|376:96,3,45.0000017166138,2|0|0|0,0:0|0:0|0:0|0:0,0:0:0:0:
408,184,98779,2,0,L|404:228,3,45.0000017166138
317,280,99128,6,0,L|272:276,3,45.0000017166138,2|0|0|0,0:0|0:0|0:0|0:0,0:0:0:0:
219,193,99477,2,0,L|263:196,3,45.0000017166138
332,160,99825,5,2,0:0:0:0:
360,176,99912,1,0,0:0:0:0:
380,200,100000,1,0,0:0:0:0:
388,232,100087,1,0,0:0:0:0:
376,260,100174,1,2,0:0:0:0:
356,284,100261,1,0,0:0:0:0:
328,300,100349,1,0,0:0:0:0:
296,296,100436,1,0,0:0:0:0:
264,300,100525,5,2,0:0:0:0:
236,316,100612,1,0,0:0:0:0:
216,340,100699,1,2,0:0:0:0:
188,352,100787,1,0,0:0:0:0:
156,360,100873,1,2,0:0:0:0:
128,348,100959,1,0,0:0:0:0:
108,324,101045,1,2,0:0:0:0:
108,292,101133,1,0,0:0:0:0:
116,268,101221,5,4,0:0:0:0:
88,156,101395,1,0,0:0:0:0:
188,88,101569,2,0,L|152:52,1,45.0000017166138,2|2,0:0|0:0,0:0:0:0:
128,284,101918,5,0,0:0:0:0:
76,156,102092,1,0,0:0:0:0:
192,72,102267,2,0,L|156:36,1,45.0000017166138,2|2,0:0|0:0,0:0:0:0:
56,320,102616,5,0,0:0:0:0:
184,368,102790,1,0,0:0:0:0:
320,332,102965,2,0,L|384:324,1,45.0000017166138,2|2,0:0|0:0,0:0:0:0:
52,336,103314,5,0,0:0:0:0:
188,380,103488,1,0,0:0:0:0:
336,340,103662,2,0,L|400:332,1,45.0000017166138,2|2,0:0|0:0,0:0:0:0:
480,148,104011,5,0,0:0:0:0:
348,104,104186,1,0,0:0:0:0:
224,164,104360,2,0,L|212:208,1,45.0000017166138,2|2,0:0|0:0,0:0:0:0:
496,152,104709,5,0,0:0:0:0:
344,96,104884,1,0,0:0:0:0:
208,172,105058,2,0,L|196:216,1,45.0000017166138,2|2,0:0|0:0,0:0:0:0:
324,272,105407,5,0,0:0:0:0:
196,215,105581,1,0,0:0:0:0:
84,304,105756,2,0,L|56:256,1,45.0000017166138,2|2,0:0|0:0,0:0:0:0:
336,288,106104,5,0,0:0:0:0:
200,208,106279,1,0,0:0:0:0:
76,320,106453,2,0,L|48:272,1,45.0000017166138,2|2,0:0|0:0,0:0:0:0:
40,44,106802,5,0,0:0:0:0:
16,116,106976,1,0,0:0:0:0:
92,104,107151,2,0,L|144:116,1,45.0000017166138,2|2,0:0|0:0,0:0:0:0:
348,132,107500,5,0,0:0:0:0:
368,224,107674,1,0,0:0:0:0:
288,196,107849,2,0,L|236:184,1,45.0000017166138,2|2,0:0|0:0,0:0:0:0:
148,340,108197,5,0,0:0:0:0:
60,300,108371,1,0,0:0:0:0:
136,248,108546,2,0,L|156:192,1,45.0000017166138,2|2,0:0|0:0,0:0:0:0:
332,140,108895,5,0,0:0:0:0:
364,28,109069,1,0,0:0:0:0:
247,57,109244,2,0,L|227:113,1,45.0000017166138,2|2,0:0|0:0,0:0:0:0:
452,112,109593,5,0,0:0:0:0:
452,112,109767,1,0,0:0:0:0:
247,57,109942,1,2,0:0:0:0:
452,112,110116,1,2,0:0:0:0:
296,224,110290,5,0,0:0:0:0:
296,224,110465,1,0,0:0:0:0:
128,308,110639,1,2,0:0:0:0:
296,224,110814,1,2,0:0:0:0:
256,192,110988,12,4,112383,0:0:0:0:
