osu file format v14

[General]
AudioFilename: audio.mp3
AudioLeadIn: 0
PreviewTime: 56569
Countdown: 0
SampleSet: Soft
StackLeniency: 0.3
Mode: 0
LetterboxInBreaks: 0
WidescreenStoryboard: 1

[Editor]
DistanceSpacing: 1.5
BeatDivisor: 2
GridSize: 4
TimelineZoom: 2.3

[Metadata]
Title:Feel Like Horrible
TitleUnicode:Feel Like Horrible
Artist:Different Heaven & Sian Area
ArtistUnicode:Different Heaven & Sian Area
Creator:FinnB
Version:Normal
Source:
Tags:ncs
BeatmapID:1660181
BeatmapSetID:789096

[Difficulty]
HPDrainRate:4
CircleSize:3
OverallDifficulty:3
ApproachRate:5
SliderMultiplier:1
SliderTickRate:2

[Events]
//Background and Video events
0,0,"feel like horrible bg.jpg",0,0
//Break Periods
2,12118,21641
//Storyboard Layer 0 (Background)
//Storyboard Layer 1 (Fail)
//Storyboard Layer 2 (Pass)
//Storyboard Layer 3 (Foreground)
//Storyboard Sound Samples

[TimingPoints]
756,348.837209302326,4,2,1,90,1,0
1104,-133.333333333333,4,2,2,50,0,0
11918,-125,4,2,2,50,0,0
34244,-117.647058823529,4,2,2,60,0,0
45407,-111.111111111111,4,2,1,80,0,0
50988,-105.263157894737,4,2,1,80,0,0
53779,-100,4,2,1,80,0,0
55174,-133.333333333333,4,2,1,90,0,0
56569,-90.9090909090909,4,2,1,100,0,1
78895,-117.647058823529,4,2,2,80,0,0
81686,-100,4,2,1,100,0,1
101221,-133.333333333333,4,2,2,75,0,0
104011,-133.333333333333,4,2,2,65,0,0
106802,-133.333333333333,4,2,2,55,0,0
109593,-133.333333333333,4,2,2,45,0,0
112383,-133.333333333333,4,2,2,5,0,0

[Colours]
Combo1 : 92,92,92
Combo2 : 159,159,159

[HitObjects]
172,120,756,5,0,0:0:0:0:
84,156,1104,2,0,P|120:208|208:212,1,150.000005722046,2|0,0:0|0:0,0:0:0:0:
288,168,2151,2,0,P|360:170|405:227,2,150.000005722046,2|2|2,0:0|0:0|0:0,0:0:0:0:
312,256,3895,1,0,0:0:0:0:
248,320,4244,6,0,L|156:320,1,75.000002861023,2|0,0:0|0:0,0:0:0:0:
76,320,4942,2,0,P|88:268|176:232,2,150.000005722046,2|2|2,0:0|0:0|0:0,0:0:0:0:
168,320,6686,5,0,0:0:0:0:
252,288,7035,2,0,P|321:266|328:256,1,75.000002861023,2|0,0:0|0:0,0:0:0:0:
336,176,7732,2,0,P|266:197|260:208,1,75.000002861023,2|0,0:0|0:0,0:0:0:0:
184,228,8430,2,0,L|166:155,1,75.000002861023,2|0,0:0|0:0,0:0:0:0:
224,84,9128,6,0,P|343:156|302:289,2,300.000011444092,2|2|4,0:0|0:0|0:0,0:0:0:0:
380,144,23081,6,0,P|256:120|144:152,1,240
112,244,24476,2,0,P|112:292|140:320,1,80,2|0,0:0|0:0,0:0:0:0:
232,340,25174,2,0,P|235:300|212:268,1,80,2|0,0:0|0:0,0:0:0:0:
188,184,25872,6,0,P|196:152|380:108,1,240,2|0,0:0|0:0,0:0:0:0:
404,184,27267,2,0,L|484:184,1,80
440,272,27965,2,0,L|360:272,1,80,2|0,0:0|0:0,0:0:0:0:
284,228,28662,5,0,0:0:0:0:
268,316,29011,2,0,P|192:240|260:144,1,240
340,140,30407,1,2,0:0:0:0:
404,200,30756,1,0,0:0:0:0:
340,260,31104,1,2,0:0:0:0:
268,312,31453,6,0,L|28:312,1,240
72,232,32849,2,2,L|204:232,2,120,2|2|0,0:0|0:0|0:0,0:0:0:0:
188,320,34593,5,0,0:0:0:0:
292,316,34942,2,0,L|364:244,1,85.0000016212464,2|0,0:0|0:0,0:0:0:0:
324,164,35639,2,0,L|196:293,1,170.000003242493,2|0,0:0|0:0,0:0:0:0:
140,348,36686,1,0,0:0:0:0:
76,276,37035,6,0,B|176:248,1,85.0000016212464,2|0,0:0|0:0,0:0:0:0:
240,192,37732,2,0,B|159:166,1,85.0000016212464,2|0,0:0|0:0,0:0:0:0:
84,124,38430,2,0,P|100:80|220:64,2,170.000003242493,2|2|0,0:0|0:0|0:0,0:0:0:0:
136,196,40174,1,0,0:0:0:0:
80,264,40523,6,0,P|96:308|140:336,1,85.0000016212464,2|0,0:0|0:0,0:0:0:0:
216,328,41221,2,0,L|392:328,1,170.000003242493,2|0,0:0|0:0,0:0:0:0:
428,248,42267,1,0,0:0:0:0:
336,224,42616,6,0,P|352:185|388:163,1,85.0000016212464,2|0,0:0|0:0,0:0:0:0:
456,104,43314,2,0,P|491:81|508:43,1,85.0000016212464,2|0,0:0|0:0,0:0:0:0:
408,16,44011,2,0,P|348:12|232:156,1,255.000004863739,2|0,0:0|0:0,0:0:0:0:
184,224,45407,6,0,L|88:220,1,89.9999972534181,2|2,0:0|0:0,0:0:0:0:
24,304,46104,2,0,L|120:308,1,89.9999972534181,2|2,0:0|0:0,0:0:0:0:
196,360,46802,2,0,L|292:356,2,89.9999972534181,2|2|2,0:0|0:0|0:0,0:0:0:0:
113,307,47849,1,2,0:0:0:0:
160,232,48197,6,0,L|228:160,1,89.9999972534181,2|2,0:0|0:0,0:0:0:0:
300,212,48895,2,0,L|360:146,1,89.9999972534181,2|2,0:0|0:0,0:0:0:0:
424,80,49593,6,2,L|469:80,2,44.999998626709
332,48,50290,1,2,0:0:0:0:
240,88,50639,1,2,0:0:0:0:
168,156,50988,6,0,P|144:196|168:340,1,189.999994926453,10|2,0:0|0:0,0:0:0:0:
256,312,52035,1,0,0:0:0:0:
352,332,52383,2,0,P|379:242|345:155,1,189.999994926453,10|2,0:0|0:0,0:0:0:0:
256,112,53430,1,0,0:0:0:0:
256,192,53779,12,8,56221,0:0:0:0:
292,308,56569,6,0,P|324:296|336:128,1,220.000006713867,2|0,0:0|0:0,0:0:0:0:
268,208,57616,1,8,0:0:0:0:
196,272,57965,2,0,P|132:272|84:244,1,110.000003356934,0|8,0:0|0:0,0:0:0:0:
60,152,58662,2,0,P|124:152|172:180,1,110.000003356934,0|8,0:0|0:0,0:0:0:0:
260,184,59360,6,0,L|288:124,2,55.0000016784668,2|0|8,0:0|0:0|0:0,0:0:0:0:
360,196,60058,2,0,L|312:308,1,110.000003356934,0|8,0:0|0:0,0:0:0:0:
196,324,60756,2,0,L|244:212,1,110.000003356934,0|8,0:0|0:0,0:0:0:0:
156,192,61453,2,0,L|184:132,2,55.0000016784668,0|2|8,0:0|0:0|0:0,0:0:0:0:
356,192,62500,5,8,0:0:0:0:
296,124,62849,2,0,P|240:80|160:88,1,110.000003356934,0|8,0:0|0:0,0:0:0:0:
112,64,63546,2,0,P|110:171|162:275,1,220.000006713867
201,347,64593,1,8,0:0:0:0:
248,268,64942,6,0,L|248:152,1,110.000003356934,0|8,0:0|0:0,0:0:0:0:
340,100,65639,2,0,L|340:228,1,110.000003356934,0|8,0:0|0:0,0:0:0:0:
376,300,66337,2,0,P|420:260|428:188,1,110.000003356934,0|8,0:0|0:0,0:0:0:0:
432,124,67035,2,0,L|487:124,2,55.0000016784668,0|2|8,0:0|0:0|0:0,0:0:0:0:
240,64,68081,5,8,0:0:0:0:
164,120,68430,2,0,P|168:184|248:216,1,110.000003356934,0|8,0:0|0:0,0:0:0:0:
288,168,69128,2,0,B|316:224|276:276|276:276|324:308|320:368,1,220.000006713867
416,384,70174,1,8,0:0:0:0:
448,296,70523,6,0,P|464:176|444:128,1,165.000005035401,2|0,0:0|0:0,0:0:0:0:
328,88,71395,2,0,P|264:96|216:132,1,110.000003356934,2|2,0:0|0:0,0:0:0:0:
304,216,72267,5,8,0:0:0:0:
208,240,72616,2,0,L|152:284,2,55.0000016784668,0|2|8,0:0|0:0|0:0,0:0:0:0:
184,140,73314,6,0,P|112:160|76:300,1,220.000006713867,2|0,0:0|0:0,0:0:0:0:
156,332,74360,1,8,0:0:0:0:
176,244,74709,2,0,P|248:224|284:84,1,220.000006713867
212,48,75756,1,8,0:0:0:0:
256,192,76104,12,2,78895,0:0:0:0:
224,272,81686,6,0,B|344:276|344:276|448:240,1,200,2|8,0:0|0:0,0:0:0:0:
472,172,82732,1,2,0:0:0:0:
432,88,83081,2,0,P|376:148|372:200,1,100,0|2,0:0|0:0,0:0:0:0:
284,184,83779,2,0,P|304:229|343:259,1,100,8|0,0:0|0:0,0:0:0:0:
440,260,84476,6,0,P|492:180|443:99,1,200,2|8,0:0|0:0,0:0:0:0:
348,88,85523,1,2,0:0:0:0:
384,180,85872,2,0,L|184:180,1,200,0|8,0:0|0:0,0:0:0:0:
100,217,86918,1,0,0:0:0:0:
124,300,87267,2,0,P|276:264|224:60,2,400,2|0|2,0:0|0:0|0:0,0:0:0:0:
32,216,90756,6,0,P|12:121|74:47,1,200,8|0,0:0|0:0,0:0:0:0:
160,76,91802,1,2,0:0:0:0:
220,144,92151,2,0,B|272:136|272:136|332:144,1,100,8|0,0:0|0:0,0:0:0:0:
368,64,92849,6,0,P|412:108|328:228,1,200,0|8,0:0|0:0,0:0:0:0:
268,232,93895,2,0,B|216:240|216:240|156:232,1,100
92,188,94593,1,2,0:0:0:0:
58,272,94942,2,0,P|102:312|270:320,1,200,8|2,0:0|0:0,0:0:0:0:
256,192,96337,12,4,101221,0:0:0:0:
