osu file format v14

[General]
AudioFilename: audio.mp3
AudioLeadIn: 0
PreviewTime: 56569
Countdown: 0
SampleSet: Soft
StackLeniency: 0.3
Mode: 0
LetterboxInBreaks: 0
WidescreenStoryboard: 1

[Editor]
Bookmarks: 28279,66154,70863,85297,96037,98404
DistanceSpacing: 0.5
BeatDivisor: 4
GridSize: 4
TimelineZoom: 2.3

[Metadata]
Title:Feel Like Horrible
TitleUnicode:Feel Like Horrible
Artist:Different Heaven & Sian Area
ArtistUnicode:Different Heaven & Sian Area
Creator:FinnB
Version:Insane
Source:
Tags:ncs
BeatmapID:1666823
BeatmapSetID:789096

[Difficulty]
HPDrainRate:7
CircleSize:3.6
OverallDifficulty:8
ApproachRate:9
SliderMultiplier:1.2
SliderTickRate:2

[Events]
//Background and Video events
0,0,"feel like horrible bg.jpg",0,0
//Break Periods
2,12118,22830
2,79095,80737
//Storyboard Layer 0 (Background)
//Storyboard Layer 1 (Fail)
//Storyboard Layer 2 (Pass)
//Storyboard Layer 3 (Foreground)
//Storyboard Sound Samples

[TimingPoints]
756,348.837209302326,4,2,1,90,1,0
1104,-133.333333333333,4,2,2,50,0,0
11918,-117.647058823529,4,2,2,50,0,0
34244,-105.263157894737,4,2,2,60,0,0
45407,-100,4,2,1,80,0,0
50988,-80,4,2,1,80,0,0
52383,-66.6666666666667,4,2,1,80,0,0
53779,-57.1428571428571,4,2,1,80,0,0
55174,-133.333333333333,4,2,1,90,0,0
56569,-50,4,2,1,100,0,1
78895,-133.333333333333,4,2,2,80,0,0
81686,-66.6666666666667,4,2,1,100,0,1
89535,-66.6666666666667,4,2,2,100,0,1
90058,-66.6666666666667,4,2,1,100,0,1
101221,-133.333333333333,4,2,2,75,0,0
104011,-133.333333333333,4,2,2,65,0,0
106802,-133.333333333333,4,2,2,55,0,0
109593,-133.333333333333,4,2,2,45,0,0
112383,-133.333333333333,4,2,2,5,0,0

[Colours]
Combo1 : 92,92,92
Combo2 : 159,159,159

[HitObjects]
376,144,756,5,0,0:0:0:0:
244,104,1104,6,0,L|188:116,1,45.0000017166138,2|0,0:0|0:0,0:0:0:0:
104,80,1453,2,0,P|97:124|114:165,1,90.0000034332276,2|2,0:0|0:0,0:0:0:0:
120,192,2151,2,0,L|112:248,1,45.0000017166138,2|0,0:0|0:0,0:0:0:0:
216,196,2500,2,0,L|224:140,1,45.0000017166138,2|0,0:0|0:0,0:0:0:0:
296,232,2849,2,0,L|364:236,2,67.5000025749207,2|2|2,0:0|0:0|0:0,0:0:0:0:
376,256,3546,6,0,L|465:249,1,90.0000034332277,2|2,0:0|0:0,0:0:0:0:
400,336,4069,1,0,0:0:0:0:
316,320,4244,2,0,L|226:326,1,90.0000034332277,2|2,0:0|0:0,0:0:0:0:
200,344,4942,2,0,L|140:348,1,45.0000017166138,2|0,0:0|0:0,0:0:0:0:
64,256,5290,2,0,L|124:252,1,45.0000017166138,2|0,0:0|0:0,0:0:0:0:
156,160,5639,2,0,P|208:180|224:196,2,67.5000025749207,2|2|2,0:0|0:0|0:0,0:0:0:0:
164,72,6337,6,0,P|108:92|80:124,1,90.0000034332277,2|2,0:0|0:0,0:0:0:0:
84,188,6860,1,0,0:0:0:0:
156,156,7035,1,2,0:0:0:0:
152,236,7209,1,0,0:0:0:0:
224,204,7384,1,2,0:0:0:0:
300,224,7558,1,2,0:0:0:0:
376,192,7732,6,0,L|480:188,1,90.0000034332277,2|0,0:0|0:0,0:0:0:0:
416,272,8430,2,0,L|312:276,1,90.0000034332277,2|0,0:0|0:0,0:0:0:0:
364,356,8953,2,0,P|260:327|252:220,1,225.000008583069,2|0,0:0|0:0,0:0:0:0:
156,212,10000,5,2,0:0:0:0:
220,140,10174,1,2,0:0:0:0:
248,224,10349,2,0,P|152:308|136:120,1,405.000015449524,2|4,0:0|0:0,0:0:0:0:
168,208,23430,5,0,0:0:0:0:
76,352,23604,1,0,0:0:0:0:
64,220,23779,1,2,0:0:0:0:
132,288,23953,2,0,L|240:288,1,102.000001945496,0|2,0:0|0:0,0:0:0:0:
260,288,24651,6,0,B|297:288|297:288|361:256|361:256|405:256,1,153.000002918243,2|0,0:0|0:0,0:0:0:0:
348,344,25349,1,0,0:0:0:0:
260,288,25523,1,2,0:0:0:0:
296,200,25697,1,0,0:0:0:0:
296,200,25872,6,0,L|192:200,1,102.000001945496,2|0,0:0|0:0,0:0:0:0:
136,140,26395,1,2,0:0:0:0:
112,220,26569,2,0,L|72:272,2,51.0000009727478,2|2|0,0:0|0:0|0:0,0:0:0:0:
200,200,27093,2,0,L|236:148,1,51.0000009727478,2|0,0:0|0:0,0:0:0:0:
260,68,27442,1,2,0:0:0:0:
354,97,27616,2,0,P|325:138|226:157,2,153.000002918243,2|2|0,0:0|0:0|0:0,0:0:0:0:
170,225,29011,5,0,0:0:0:0:
229,157,29186,1,0,0:0:0:0:
263,240,29360,1,2,0:0:0:0:
202,309,29535,1,0,0:0:0:0:
202,309,29883,6,0,P|150:305|94:325,1,102.000001945496,2|0,0:0|0:0,0:0:0:0:
40,268,30407,1,0,0:0:0:0:
116,232,30581,1,0,0:0:0:0:
180,176,30756,1,0,0:0:0:0:
260,204,30930,1,0,0:0:0:0:
323,147,31104,2,0,P|347:147|391:131,1,51.0000009727478,2|0,0:0|0:0,0:0:0:0:
331,63,31453,6,0,P|271:79|263:207,1,204.000003890991,2|0,0:0|0:0,0:0:0:0:
339,223,32325,1,0,0:0:0:0:
323,143,32500,1,2,0:0:0:0:
243,115,32674,1,0,0:0:0:0:
259,203,32849,2,0,P|227:235|123:243,2,153.000002918243,2|2|0,0:0|0:0|0:0,0:0:0:0:
340,236,34593,5,0,0:0:0:0:
259,203,34767,1,0,0:0:0:0:
200,264,34942,2,0,B|140:276|140:276|80:244,1,113.999996955872,2|0,0:0|0:0,0:0:0:0:
148,188,35465,2,0,B|208:176|208:176|268:208,1,113.999996955872,2|0,0:0|0:0,0:0:0:0:
292,276,35988,1,0,0:0:0:0:
376,280,36162,2,0,L|460:280,1,56.9999984779358,2|0,0:0|0:0,0:0:0:0:
488,156,36511,2,0,L|404:156,1,56.9999984779358,2|0,0:0|0:0,0:0:0:0:
356,48,36860,5,2,0:0:0:0:
300,168,37035,1,0,0:0:0:0:
428,156,37209,1,0,0:0:0:0:
376,280,37383,1,2,0:0:0:0:
300,168,37558,6,0,P|252:148|192:172,1,113.999996955872,0|2,0:0|0:0,0:0:0:0:
252,232,38081,1,0,0:0:0:0:
303,295,38256,2,0,P|251:316|200:296,1,113.999996955872,2|0,0:0|0:0,0:0:0:0:
112,240,38779,2,0,L|48:240,1,56.9999984779358,2|0,0:0|0:0,0:0:0:0:
96,144,39128,1,2,0:0:0:0:
184,88,39302,1,0,0:0:0:0:
287,89,39476,2,0,P|235:68|183:88,1,113.999996955872,2|0,0:0|0:0,0:0:0:0:
228,152,40174,5,0,0:0:0:0:
287,89,40348,1,0,0:0:0:0:
320,168,40523,2,0,P|376:200|404:268,1,113.999996955872,2|0,0:0|0:0,0:0:0:0:
392,336,41046,2,0,P|336:304|308:236,1,113.999996955872,2|0,0:0|0:0,0:0:0:0:
320,168,41569,1,0,0:0:0:0:
232,192,41744,1,2,0:0:0:0:
232,192,42093,6,0,L|160:192,1,56.9999984779358,2|0,0:0|0:0,0:0:0:0:
140,116,42442,1,2,0:0:0:0:
180,272,42616,1,0,0:0:0:0:
220,116,42790,1,0,0:0:0:0:
256,272,42965,1,2,0:0:0:0:
320,180,43139,6,0,B|360:184|360:184|392:208|392:208|440:212,1,113.999996955872,0|2,0:0|0:0,0:0:0:0:
400,300,43662,1,0,0:0:0:0:
308,268,43837,2,0,P|236:212|236:176,1,113.999996955872,2|0,0:0|0:0,0:0:0:0:
368,208,44360,2,0,P|440:264|440:300,1,113.999996955872,2|2,0:0|0:0,0:0:0:0:
360,288,44883,1,0,0:0:0:0:
312,192,45058,1,2,0:0:0:0:
68,236,45407,6,0,L|144:244,1,60,2|0,0:0|0:0,0:0:0:0:
96,156,45756,2,0,L|172:164,1,60,2|0,0:0|0:0,0:0:0:0:
128,76,46104,2,0,L|204:84,1,60,2|0,0:0|0:0,0:0:0:0:
312,148,46453,2,0,L|236:140,1,60,2|2,0:0|0:0,0:0:0:0:
376,216,46802,6,0,P|400:168|404:136,1,60,2|0,0:0|0:0,0:0:0:0:
264,224,47151,2,0,P|240:272|236:304,1,60,2|0,0:0|0:0,0:0:0:0:
308,356,47500,2,0,P|332:308|336:276,1,60,2|0,0:0|0:0,0:0:0:0:
208,368,47849,1,2,0:0:0:0:
88,296,48023,1,2,0:0:0:0:
88,296,48110,1,2,0:0:0:0:
92,300,48197,5,2,0:0:0:0:
124,168,48372,1,0,0:0:0:0:
236,232,48546,2,0,L|304:256,1,60,2|0,0:0|0:0,0:0:0:0:
396,204,48895,2,0,L|328:180,1,60,2|0,0:0|0:0,0:0:0:0:
288,296,49244,5,2,0:0:0:0:
176,244,49419,1,2,0:0:0:0:
339,184,49593,1,2,0:0:0:0:
288,296,49767,1,2,0:0:0:0:
176,244,49942,2,0,L|117:245,1,60,2|2,0:0|0:0,0:0:0:0:
20,160,50290,2,0,L|152:160,1,120,2|0,0:0|0:0,0:0:0:0:
440,220,50814,1,2,0:0:0:0:
440,220,50901,1,2,0:0:0:0:
440,220,50988,6,0,B|392:220|392:220|328:252|328:252|280:252,1,150,10|0,0:0|0:0,0:0:0:0:
344,328,51511,2,8,P|384:272|356:192,2,150,0|0|0,0:0|0:0|0:0,0:0:0:0:
292,252,52383,2,0,P|248:224|112:264,1,180.000006866455,10|0,0:0|0:0,0:0:0:0:
40,212,52907,2,2,P|64:308|160:336,2,180.000006866455,0|0|0,0:0|0:0|0:0,0:0:0:0:
152,180,53779,6,0,L|212:184,3,52.500000500679,10|0|0|0,0:0|0:0|0:0|0:0,0:0:0:0:
232,192,54128,1,10,0:0:0:0:
256,204,54215,1,0,0:0:0:0:
276,220,54302,1,0,0:0:0:0:
292,240,54389,1,0,0:0:0:0:
304,264,54476,5,10,0:0:0:0:
320,284,54563,1,0,0:0:0:0:
340,300,54650,1,0,0:0:0:0:
364,312,54737,1,0,0:0:0:0:
392,316,54825,2,0,L|404:252,1,52.500000500679,10|0,0:0|0:0,0:0:0:0:
416,196,55000,2,0,L|425:144,1,52.500000500679,10|0,0:0|0:0,0:0:0:0:
256,192,55174,12,10,56221,0:0:0:0:
80,84,56569,6,0,P|108:148|268:152,1,240,6|8,0:0|0:0,0:0:0:0:
324,84,57093,1,0,0:0:0:0:
416,132,57267,2,0,L|444:248,1,120,0|2,0:0|0:0,0:0:0:0:
416,336,57616,1,8,0:0:0:0:
348,272,57790,2,0,P|276:280|216:344,1,120
312,360,58139,5,2,0:0:0:0:
272,184,58314,1,8,0:0:0:0:
128,296,58488,2,8,P|68:240|132:112,2,240,0|2|0,0:0|0:0|0:0,0:0:0:0:
172,208,59360,5,2,0:0:0:0:
224,128,59535,1,0,0:0:0:0:
123,101,59709,1,8,0:0:0:0:
176,208,59883,2,0,B|288:156|312:284|424:204,1,240,0|2,0:0|0:0,0:0:0:0:
352,140,60407,1,8,0:0:0:0:
236,284,60581,6,0,P|312:316|472:276,1,240,0|2,0:0|0:0,0:0:0:0:
488,200,61104,2,0,L|508:24,1,120,8|0,0:0|0:0,0:0:0:0:
400,144,61453,2,0,L|380:320,2,120,0|2|8,0:0|0:0|0:0,0:0:0:0:
340,60,61976,2,0,L|348:-4,2,60,2|2|0,0:0|0:0|0:0,0:0:0:0:
228,80,62500,6,0,P|200:140|228:208,1,120,8|0,0:0|0:0,0:0:0:0:
100,168,62849,2,0,P|128:228|100:296,1,120,0|2,0:0|0:0,0:0:0:0:
24,236,63197,1,8,0:0:0:0:
216,192,63372,2,0,P|316:176|376:208,1,120
280,260,63721,1,2,0:0:0:0:
360,96,63895,1,8,0:0:0:0:
408,200,64069,2,0,L|380:320,1,120
252,376,64418,2,0,L|280:256,1,120,2|8,0:0|0:0,0:0:0:0:
256,164,64767,6,0,B|208:156|208:156|176:164|176:164|108:156,2,120,0|2|0,0:0|0:0|0:0,0:0:0:0:
156,64,65290,1,8,0:0:0:0:
64,112,65465,2,0,P|64:220|196:232,1,240
204,156,65988,5,8,0:0:0:0:
344,269,66162,2,0,P|284:325|184:201,1,240,0|2,0:0|0:0,0:0:0:0:
264,224,66686,2,0,P|364:188|380:196,1,120,8|0,0:0|0:0,0:0:0:0:
420,256,67035,1,0,0:0:0:0:
452,176,67209,1,2,0:0:0:0:
388,112,67383,2,0,L|152:40,1,240,8|2,0:0|0:0,0:0:0:0:
158,41,68081,5,8,0:0:0:0:
0,104,68255,1,0,0:0:0:0:
152,164,68430,2,2,P|224:192|160:348,1,240,0|8,0:0|0:0,0:0:0:0:
64,244,68953,2,2,B|128:284|128:284|184:252|256:280|256:280|320:264|320:264|388:288|448:256,1,360,0|8,0:0|0:0,0:0:0:0:
376,192,69651,2,0,B|312:180|312:180|252:192,1,120
192,352,70000,2,0,B|256:364|256:364|316:352,1,120,2|8,0:0|0:0,0:0:0:0:
404,271,70349,1,0,0:0:0:0:
464,152,70523,6,0,B|412:116|412:116|348:104,2,120,2|0|8,0:0|0:0|0:0,0:0:0:0:
512,212,71046,1,0,0:0:0:0:
512,212,71395,5,0,0:0:0:0:
271,257,71569,1,0,0:0:0:0:
432,360,71744,1,2,0:0:0:0:
432,360,72267,6,0,P|360:376|272:256,1,240,8|0,0:0|0:0,0:0:0:0:
344,104,72790,1,2,0:0:0:0:
372,280,72965,1,8,0:0:0:0:
256,156,73139,1,0,0:0:0:0:
248,240,73314,6,0,B|180:208|120:248|120:248|80:216|76:136,1,240,2|8,0:0|0:0,0:0:0:0:
12,96,73837,2,8,P|156:96|164:184,2,240,0|2|0,0:0|0:0|0:0,0:0:0:0:
252,104,74709,6,0,P|252:208|130:255,1,240,2|8,0:0|0:0,0:0:0:0:
172,164,75232,2,8,B|264:172|264:172|328:240|328:240|416:280,2,240,0|2|0,0:0|0:0|0:0,0:0:0:0:
272,288,76104,6,0,P|308:180|440:184,1,240,2|8,0:0|0:0,0:0:0:0:
504,128,76628,1,0,0:0:0:0:
512,220,76802,2,0,L|480:348,2,120,0|2|8,0:0|0:0|0:0,0:0:0:0:
480,352,77325,1,0,0:0:0:0:
256,192,77500,12,2,78895,0:0:0:0:
44,144,81337,6,2,L|88:144,1,22.5000008583069
108,176,81511,2,2,L|152:176,1,22.5000008583069
172,216,81686,6,0,B|228:176|216:132|216:132|312:104,1,180.000006866455,2|0,0:0|0:0,0:0:0:0:
348,28,82209,1,2,0:0:0:0:
400,108,82383,2,0,P|388:160|348:192,1,90.0000034332277,8|0,0:0|0:0,0:0:0:0:
424,300,82732,2,0,P|436:248|476:216,1,90.0000034332277,2|0,0:0|0:0,0:0:0:0:
284,268,83081,5,0,0:0:0:0:
172,216,83256,1,0,0:0:0:0:
32,288,83430,2,0,L|132:292,1,90.0000034332277,2|0,0:0|0:0,0:0:0:0:
168,216,83779,2,0,L|16:212,2,135.000005149841,8|0|0,0:0|0:0|0:0,0:0:0:0:
32,132,84476,6,0,L|220:136,1,180.000006866455,2|0,0:0|0:0,0:0:0:0:
240,220,85000,1,2,0:0:0:0:
152,212,85174,6,0,P|144:152|156:112,1,90.0000034332277,8|0,0:0|0:0,0:0:0:0:
184,292,85523,2,0,P|192:352|180:392,1,90.0000034332277,2|0,0:0|0:0,0:0:0:0:
240,220,85872,6,0,L|336:220,1,90.0000034332277
408,136,86221,2,0,L|312:136,1,90.0000034332277,2|0,0:0|0:0,0:0:0:0:
216,128,86569,2,0,P|248:72|364:52,1,180.000006866455,8|0,0:0|0:0,0:0:0:0:
320,136,87093,2,2,P|288:204|224:32,1,450.000017166138,0|8,0:0|0:0,0:0:0:0:
364,48,88139,5,0,0:0:0:0:
372,216,88313,1,2,0:0:0:0:
224,128,88488,2,0,P|280:298|113:231,1,450.000017166138,0|8,0:0|0:0,0:0:0:0:
212,224,89535,1,0,0:0:0:0:
300,268,89709,1,0,0:0:0:0:
384,240,89883,1,0,0:0:0:0:
208,224,90058,6,0,B|168:176|168:176|100:148|100:148|52:92,1,180.000006866455,2|0,0:0|0:0,0:0:0:0:
180,48,90581,1,2,0:0:0:0:
264,148,90756,2,0,L|340:232,1,90.0000034332277,8|0,0:0|0:0,0:0:0:0:
180,316,91104,2,0,L|104:232,1,90.0000034332277,2|0,0:0|0:0,0:0:0:0:
240,248,91453,6,0,P|300:296|344:304,1,90.0000034332277
464,328,91802,2,0,P|404:280|360:272,1,90.0000034332277,2|0,0:0|0:0,0:0:0:0:
328,212,92151,2,0,B|404:160|480:232,2,135.000005149841,8|0|0,0:0|0:0|0:0,0:0:0:0:
304,136,92849,6,0,P|384:112|496:144,1,180.000006866455,2|0,0:0|0:0,0:0:0:0:
376,4,93372,1,2,0:0:0:0:
256,64,93546,2,0,L|144:64,1,90.0000034332277,8|0,0:0|0:0,0:0:0:0:
88,120,93895,1,2,0:0:0:0:
144,288,94069,1,0,0:0:0:0:
156,288,94593,6,0,B|212:288|212:288|256:232|320:232,1,180.000006866455,2|8,0:0|0:0,0:0:0:0:
304,316,95116,1,0,0:0:0:0:
248,160,95290,1,0,0:0:0:0:
408,196,95465,1,0,0:0:0:0:
312,316,95639,6,0,B|272:360|240:372|240:372|152:372,1,180.000006866455,2|0,0:0|0:0,0:0:0:0:
76,300,96162,1,0,0:0:0:0:
120,212,96337,2,0,L|160:112,1,90.0000034332277
272,48,96686,2,0,L|232:148,1,90.0000034332277
264,296,97035,6,0,L|340:112,1,180.000006866455,2|0,0:0|0:0,0:0:0:0:
272,28,97558,1,0,0:0:0:0:
228,124,97732,2,0,L|194:207,1,90.0000034332277
328,364,98081,2,0,L|361:280,1,90.0000034332277
360,180,98430,6,0,P|280:224|240:324,1,180.000006866455,2|0,0:0|0:0,0:0:0:0:
448,304,98953,1,0,0:0:0:0:
344,172,99128,2,0,P|264:216|232:304,1,180.000006866455,2|0,0:0|0:0,0:0:0:0:
448,304,99651,1,0,0:0:0:0:
340,168,99825,6,0,L|272:152,3,45.0000017166138
184,180,100174,2,0,L|252:196,3,45.0000017166138,2|0|0|0,0:0|0:0|0:0|0:0,0:0:0:0:
244,208,100523,5,2,0:0:0:0:
260,224,100610,1,0,0:0:0:0:
280,236,100697,1,2,0:0:0:0:
300,244,100785,1,0,0:0:0:0:
320,248,100872,1,2,0:0:0:0:
344,244,100959,1,0,0:0:0:0:
364,240,101046,1,2,0:0:0:0:
384,228,101133,1,0,0:0:0:0:
400,216,101221,1,6,0:0:0:0:
256,192,101395,12,0,112383,0:0:0:0:
