osu file format v14

[General]
AudioFilename: audio.mp3
AudioLeadIn: 0
PreviewTime: 56569
Countdown: 0
SampleSet: Soft
StackLeniency: 0.3
Mode: 0
LetterboxInBreaks: 0
WidescreenStoryboard: 1

[Editor]
DistanceSpacing: 0.4
BeatDivisor: 2
GridSize: 4
TimelineZoom: 2.2

[Metadata]
Title:Feel Like Horrible
TitleUnicode:Feel Like Horrible
Artist:Different Heaven & Sian Area
ArtistUnicode:Different Heaven & Sian Area
Creator:FinnB
Version:Hard
Source:
Tags:ncs
BeatmapID:1660179
BeatmapSetID:789096

[Difficulty]
HPDrainRate:6
CircleSize:3.2
OverallDifficulty:5
ApproachRate:7
SliderMultiplier:1
SliderTickRate:2

[Events]
//Background and Video events
0,0,"feel like horrible bg.jpg",0,0
//Break Periods
2,12118,22530
2,79095,80437
//Storyboard Layer 0 (Background)
//Storyboard Layer 1 (Fail)
//Storyboard Layer 2 (Pass)
//Storyboard Layer 3 (Foreground)
//Storyboard Sound Samples

[TimingPoints]
756,348.837209302326,4,2,1,90,1,0
1104,-133.333333333333,4,2,2,50,0,0
11918,-117.647058823529,4,2,2,50,0,0
34244,-105.263157894737,4,2,2,60,0,0
45407,-100,4,2,1,80,0,0
50988,-80,4,2,1,80,0,0
52383,-66.6666666666667,4,2,1,80,0,0
53779,-57.1428571428571,4,2,1,80,0,0
55174,-133.333333333333,4,2,1,90,0,0
56569,-50,4,2,1,100,0,1
78895,-133.333333333333,4,2,2,80,0,0
81686,-66.6666666666667,4,2,1,100,0,1
101221,-133.333333333333,4,2,2,75,0,0
104011,-133.333333333333,4,2,2,65,0,0
106802,-133.333333333333,4,2,2,55,0,0
109593,-133.333333333333,4,2,2,45,0,0
112383,-133.333333333333,4,2,2,5,0,0

[Colours]
Combo1 : 92,92,92
Combo2 : 159,159,159

[HitObjects]
256,312,756,5,2,0:0:0:0:
168,196,1104,6,0,L|116:188,1,37.5000014305115,2|0,0:0|0:0,0:0:0:0:
168,108,1453,2,0,L|244:116,1,75.0000028610231,2|0,0:0|0:0,0:0:0:0:
300,224,2151,2,0,L|376:232,1,75.0000028610231,2|0,0:0|0:0,0:0:0:0:
452,336,2849,2,0,L|400:340,1,37.5000014305115,2|0,0:0|0:0,0:0:0:0:
320,320,3372,6,0,P|288:292|296:220,1,112.500004291535,2|2,0:0|0:0,0:0:0:0:
228,160,4069,1,0,0:0:0:0:
184,232,4244,2,0,L|108:240,1,75.0000028610231,2|2,0:0|0:0,0:0:0:0:
244,296,4942,2,0,L|320:288,1,75.0000028610231,2|0,0:0|0:0,0:0:0:0:
448,340,5639,2,0,L|396:344,1,37.5000014305115,2|0,0:0|0:0,0:0:0:0:
320,288,6162,6,0,P|312:228|324:164,1,112.500004291535,2|2,0:0|0:0,0:0:0:0:
288,92,6860,1,0,0:0:0:0:
220,144,7035,2,0,P|184:160|140:152,1,75.0000028610231,2|2,0:0|0:0,0:0:0:0:
168,68,7558,1,0,0:0:0:0:
220,144,7732,6,0,P|256:128|300:136,1,75.0000028610231,2|2,0:0|0:0,0:0:0:0:
368,216,8430,2,0,P|332:232|288:224,1,75.0000028610231,2|0,0:0|0:0,0:0:0:0:
220,144,8953,2,0,P|156:72|88:112,1,187.500007152558,2|0,0:0|0:0,0:0:0:0:
52,184,10000,5,2,0:0:0:0:
89,109,10174,1,2,0:0:0:0:
140,180,10349,2,0,P|224:236|280:64,1,337.500012874604,2|4,0:0|0:0,0:0:0:0:
360,136,23430,5,0,0:0:0:0:
360,136,23604,1,0,0:0:0:0:
360,136,23779,2,0,L|304:136,1,42.5000008106232,2|0,0:0|0:0,0:0:0:0:
208,184,24302,2,0,P|236:228|272:240,1,85.0000016212464,2|2,0:0|0:0,0:0:0:0:
448,244,25523,1,0,0:0:0:0:
265,239,25872,6,0,P|213:239|153:291,1,127.50000243187,2|2,0:0|0:0,0:0:0:0:
240,328,26569,1,2,0:0:0:0:
164,372,26744,1,0,0:0:0:0:
164,372,27093,2,0,P|108:364|76:372,1,85.0000016212464,2|0,0:0|0:0,0:0:0:0:
32,280,27616,2,0,P|88:288|120:280,1,85.0000016212464,2|0,0:0|0:0,0:0:0:0:
76,200,28139,1,2,0:0:0:0:
200,116,29011,6,0,L|252:128,1,42.5000008106232
312,232,29360,2,0,L|260:220,1,42.5000008106232,2|2,0:0|0:0,0:0:0:0:
124,304,29883,1,0,0:0:0:0:
48,160,30232,1,2,0:0:0:0:
144,100,31104,1,0,0:0:0:0:
56,164,31453,6,0,P|136:212|252:112,1,255.000004863739,2|0,0:0|0:0,0:0:0:0:
328,216,32849,2,0,P|375:272|435:264,2,127.50000243187,2|0|2,0:0|0:0|0:0,0:0:0:0:
24,192,34593,5,0,0:0:0:0:
24,192,34768,1,0,0:0:0:0:
24,192,34942,2,0,B|64:184|64:184|92:192|92:192|136:184,1,94.9999974632264,2|0,0:0|0:0,0:0:0:0:
188,256,35465,2,0,P|220:184|140:104,1,189.999994926453,2|2,0:0|0:0,0:0:0:0:
155,106,36511,2,0,L|268:92,1,94.9999974632264,2|0,0:0|0:0,0:0:0:0:
328,136,37035,5,0,0:0:0:0:
272,200,37209,1,0,0:0:0:0:
344,244,37384,1,2,0:0:0:0:
312,316,37558,2,0,L|217:328,1,94.9999974632264,0|2,0:0|0:0,0:0:0:0:
212,248,38081,1,0,0:0:0:0:
136,288,38256,2,0,P|140:200|196:156,1,142.49999619484,2|2,0:0|0:0,0:0:0:0:
175,164,39128,5,2,0:0:0:0:
112,92,39302,1,0,0:0:0:0:
204,64,39476,2,0,L|312:68,1,94.9999974632264,2|0,0:0|0:0,0:0:0:0:
340,220,40174,6,0,L|408:220,1,47.4999987316132
464,264,40523,1,2,0:0:0:0:
344,308,40871,1,0,0:0:0:0:
344,308,41046,2,0,P|276:288|256:172,1,189.999994926453,2|2,0:0|0:0,0:0:0:0:
251,182,42092,2,0,L|148:192,1,94.9999974632264,2|2,0:0|0:0,0:0:0:0:
176,112,42616,5,0,0:0:0:0:
256,96,42790,1,0,0:0:0:0:
320,152,42964,1,2,0:0:0:0:
332,64,43139,2,0,P|396:96|408:128,1,94.9999974632264,0|2,0:0|0:0,0:0:0:0:
392,204,43662,1,0,0:0:0:0:
320,152,43837,6,0,P|256:184|244:216,1,94.9999974632264,2|0,0:0|0:0,0:0:0:0:
280,292,44360,2,0,P|208:292|176:268,1,94.9999974632264,2|2,0:0|0:0,0:0:0:0:
100,228,44883,2,0,L|40:240,1,47.4999987316132,2|0,0:0|0:0,0:0:0:0:
200,60,45407,5,2,0:0:0:0:
312,32,45756,1,2,0:0:0:0:
280,152,46104,2,0,P|332:156|344:160,1,50,2|0,0:0|0:0,0:0:0:0:
232,248,46453,2,0,P|180:244|168:240,1,50,2|0,0:0|0:0,0:0:0:0:
180,128,46802,5,2,0:0:0:0:
60,204,47151,1,2,0:0:0:0:
136,328,47500,2,0,L|200:336,1,50,2|0,0:0|0:0,0:0:0:0:
300,264,47849,2,0,L|236:256,1,50,2|2,0:0|0:0,0:0:0:0:
164,208,48197,6,0,L|100:200,1,50,2|0,0:0|0:0,0:0:0:0:
32,132,48546,1,2,0:0:0:0:
120,64,48721,2,2,P|164:104|224:112,1,100,0|0,0:0|0:0,0:0:0:0:
300,84,49244,1,2,0:0:0:0:
288,184,49418,1,2,0:0:0:0:
384,148,49593,5,2,0:0:0:0:
384,148,49767,1,2,0:0:0:0:
408,244,49942,1,2,0:0:0:0:
368,336,50116,1,2,0:0:0:0:
272,304,50290,2,2,P|200:284|160:292,1,100
56,192,50814,1,2,0:0:0:0:
68,180,50901,1,2,0:0:0:0:
80,168,50988,6,0,P|152:192|200:180,1,125,10|2,0:0|0:0,0:0:0:0:
272,116,51511,2,10,L|408:108,2,125,0|0|0,0:0|0:0|0:0,0:0:0:0:
200,180,52383,2,0,P|228:244|312:292,1,150.000005722046,10|0,0:0|0:0,0:0:0:0:
228,360,52907,2,10,L|76:376,2,150.000005722046,0|0|0,0:0|0:0|0:0,0:0:0:0:
308,312,53779,6,0,L|380:304,3,43.7500004172325,10|0|0|0,0:0|0:0|0:0|0:0,0:0:0:0:
384,256,54128,2,0,L|456:248,3,43.7500004172325,10|0|0|0,0:0|0:0|0:0|0:0,0:0:0:0:
388,196,54476,2,0,L|316:204,3,43.7500004172325,10|0|0|0,0:0|0:0|0:0|0:0,0:0:0:0:
288,176,54825,1,10,0:0:0:0:
248,180,54912,1,0,0:0:0:0:
208,184,55000,1,2,0:0:0:0:
168,188,55087,1,0,0:0:0:0:
256,192,55174,12,10,56221,0:0:0:0:
376,264,56569,6,0,B|312:232|248:276|168:248,1,200,6|8,0:0|0:0,0:0:0:0:
144,160,57093,1,0,0:0:0:0:
236,168,57267,2,2,P|320:160|448:204,1,200,0|8,0:0|0:0,0:0:0:0:
408,104,57790,6,0,L|388:4,1,100
336,160,58139,2,0,L|356:260,2,100,2|8|0,0:0|0:0|0:0,0:0:0:0:
272,84,58662,1,0,0:0:0:0:
176,104,58837,2,8,P|208:156|344:152,1,200,2|0,0:0|0:0,0:0:0:0:
416,196,59360,5,2,0:0:0:0:
348,252,59535,1,0,0:0:0:0:
320,336,59709,1,8,0:0:0:0:
252,280,59883,2,0,P|188:264|64:328,1,200,0|2,0:0|0:0,0:0:0:0:
12,256,60407,1,8,0:0:0:0:
48,176,60581,6,0,B|116:184|116:184|280:120,1,200,0|2,0:0|0:0,0:0:0:0:
344,176,61104,2,0,L|146:254,1,200,8|0,0:0|0:0,0:0:0:0:
196,320,61628,1,2,0:0:0:0:
270,284,61802,6,8,B|392:236|392:236|460:244,1,200,8|2,0:0|0:0,0:0:0:0:
460,244,62500,5,8,0:0:0:0:
372,220,62674,1,0,0:0:0:0:
284,196,62849,2,2,P|352:248|308:352,1,200,0|8,0:0|0:0,0:0:0:0:
168,284,63372,2,2,B|264:284|264:284|360:252|360:252|488:252,1,300,0|8,0:0|0:0,0:0:0:0:
376,172,64069,2,0,L|256:172,1,100
328,92,64418,2,0,L|432:92,2,100,2|8|0,0:0|0:0|0:0,0:0:0:0:
228,84,64942,5,2,0:0:0:0:
272,172,65116,1,0,0:0:0:0:
200,236,65290,1,8,0:0:0:0:
148,148,65465,2,0,P|83:205|144:312,1,200,0|2,0:0|0:0,0:0:0:0:
224,328,65988,1,8,0:0:0:0:
328,264,66162,6,0,B|276:200|276:200|220:232|220:232|160:232,1,200,0|2,0:0|0:0,0:0:0:0:
184,148,66686,2,0,P|296:104|360:152,1,200,8|0,0:0|0:0,0:0:0:0:
424,204,67209,1,2,0:0:0:0:
396,288,67383,2,0,B|360:344|360:344|292:264|204:296,1,200,8|2,0:0|0:0,0:0:0:0:
244,287,68081,5,8,0:0:0:0:
188,340,68256,1,0,0:0:0:0:
260,368,68430,2,2,P|328:312|260:216,1,200,0|8,0:0|0:0,0:0:0:0:
111,201,68953,2,2,B|134:184|202:180|202:180|250:136|250:136|332:131|377:191,1,300,0|8,0:0|0:0,0:0:0:0:
470,124,69651,6,0,L|484:236,1,100
375,188,70000,2,0,L|360:76,1,100,2|8,0:0|0:0,0:0:0:0:
344,0,70349,1,0,0:0:0:0:
256,44,70523,6,0,L|152:72,1,100,2|0,0:0|0:0,0:0:0:0:
64,164,70872,1,8,0:0:0:0:
176,216,71046,1,0,0:0:0:0:
176,216,71395,6,0,L|276:216,1,100,2|0,0:0|0:0,0:0:0:0:
400,220,71744,1,2,0:0:0:0:
400,220,72267,6,0,B|380:128|380:128|324:148|276:108,1,200,8|0,0:0|0:0,0:0:0:0:
184,104,72790,1,2,0:0:0:0:
340,52,72965,1,8,0:0:0:0:
300,220,73139,1,0,0:0:0:0:
364,304,73314,6,0,B|248:304|248:304|200:312|172:368,1,200,2|8,0:0|0:0,0:0:0:0:
84,336,73837,2,0,P|152:248|236:212,1,200,0|2,0:0|0:0,0:0:0:0:
396,216,74535,2,2,B|328:216|328:216|320:144|244:124,1,200
232,220,75058,1,8,0:0:0:0:
152,168,75232,6,0,P|160:80|256:32,1,200,0|2,0:0|0:0,0:0:0:0:
432,96,75930,2,2,B|332:96|332:96|220:124,1,200,0|0,0:0|0:0,0:0:0:0:
139,135,76453,1,8,0:0:0:0:
196,208,76628,1,0,0:0:0:0:
100,220,76802,6,0,P|50:214|4:192,1,100,0|2,0:0|0:0,0:0:0:0:
44,112,77151,2,0,P|93:117|140:136,1,100,8|0,0:0|0:0,0:0:0:0:
180,224,77500,2,0,P|248:128|128:36,2,300,2|0|0,0:0|0:0|0:0,0:0:0:0:
328,336,78895,1,2,0:0:0:0:
352,128,81337,6,2,L|370:128,3,18.7500007152558
320,128,81686,6,0,P|320:200|240:236,1,150.000005722046,2|0,0:0|0:0,0:0:0:0:
224,152,82209,1,2,0:0:0:0:
156,212,82383,2,0,B|108:212|108:212|56:236,1,75.0000028610231,8|0,0:0|0:0,0:0:0:0:
112,320,82732,2,0,B|160:320|160:320|212:296,1,75.0000028610231,2|0,0:0|0:0,0:0:0:0:
260,256,83081,6,0,L|416:256,1,150.000005722046,0|2,0:0|0:0,0:0:0:0:
440,168,83604,1,0,0:0:0:0:
348,168,83779,2,0,L|256:168,1,75.0000028610231,8|0,0:0|0:0,0:0:0:0:
180,168,84128,1,0,0:0:0:0:
80,184,84302,6,2,P|100:240|252:240,1,225.000008583069,0|0,0:0|0:0,0:0:0:0:
280,164,85000,1,2,0:0:0:0:
424,220,85174,2,0,L|320:220,1,75.0000028610231,8|0,0:0|0:0,0:0:0:0:
248,252,85523,2,0,P|288:296|324:304,1,75.0000028610231,2|0,0:0|0:0,0:0:0:0:
376,352,85872,2,0,P|376:244|328:212,1,150.000005722046,0|2,0:0|0:0,0:0:0:0:
220,120,86569,2,0,P|220:228|268:260,1,150.000005722046,8|0,0:0|0:0,0:0:0:0:
296,172,87093,6,2,B|408:120|392:236|520:172,1,225.000008583069,0|0,0:0|0:0,0:0:0:0:
460,60,87965,1,8,0:0:0:0:
376,72,88139,2,0,L|272:88,1,75.0000028610231,0|2,0:0|0:0,0:0:0:0:
304,191,88488,2,2,P|154:226|206:81,1,375.000014305115,0|8,0:0|0:0,0:0:0:0:
220,168,89535,1,0,0:0:0:0:
304,191,89709,1,0,0:0:0:0:
364,260,89883,1,0,0:0:0:0:
276,280,90058,6,0,P|216:268|140:328,1,150.000005722046,2|0,0:0|0:0,0:0:0:0:
228,360,90581,1,2,0:0:0:0:
320,356,90756,2,0,P|377:311|450:320,1,150.000005722046,8|2,0:0|0:0,0:0:0:0:
348,276,91453,6,0,L|272:240,1,75.0000028610231
384,204,91802,2,0,L|460:240,1,75.0000028610231,2|0,0:0|0:0,0:0:0:0:
448,140,92151,2,0,B|364:96|312:164|312:164|272:144|232:164,1,225.000008583069,8|0,0:0|0:0,0:0:0:0:
152,160,92849,6,0,P|164:220|240:252,1,150.000005722046,2|0,0:0|0:0,0:0:0:0:
352,264,93372,1,2,0:0:0:0:
312,168,93546,1,8,0:0:0:0:
332,72,93721,1,2,0:0:0:0:
332,72,94069,2,0,B|224:144|188:32|84:92,1,225.000008583069,2|2,0:0|0:0,0:0:0:0:
16,164,94942,6,0,L|100:172,1,75.0000028610231,8|0,0:0|0:0,0:0:0:0:
160,240,95290,2,0,L|76:248,1,75.0000028610231
48,324,95639,2,0,L|216:324,1,150.000005722046,2|0,0:0|0:0,0:0:0:0:
256,248,96162,1,0,0:0:0:0:
332,192,96337,2,0,P|388:212|432:208,1,75.0000028610231
376,124,96686,2,0,P|320:104|276:108,1,75.0000028610231
244,168,97035,6,0,P|248:224|348:288,1,150.000005722046,2|0,0:0|0:0,0:0:0:0:
308,372,97558,1,0,0:0:0:0:
224,332,97732,2,0,P|124:332|68:348,1,150.000005722046
28,272,98256,1,0,0:0:0:0:
88,204,98430,6,0,L|148:212,7,37.5000014305115,2|0|0|0|0|0|0|0,0:0|0:0|0:0|0:0|0:0|0:0|0:0|0:0,0:0:0:0:
184,252,99128,2,0,L|221:247,7,37.5000014305115,2|0|0|0|0|0|0|0,0:0|0:0|0:0|0:0|0:0|0:0|0:0|0:0,0:0:0:0:
260,184,99825,2,0,L|248:120,3,37.5000014305115,2|0|0|0,0:0|0:0|0:0|0:0,0:0:0:0:
304,92,100174,2,0,L|310:55,3,37.5000014305115,2|0|0|0,0:0|0:0|0:0|0:0,0:0:0:0:
380,100,100523,1,2,0:0:0:0:
384,116,100610,1,0,0:0:0:0:
388,132,100697,1,2,0:0:0:0:
392,148,100785,1,0,0:0:0:0:
396,164,100872,1,2,0:0:0:0:
400,180,100959,1,0,0:0:0:0:
404,196,101046,1,2,0:0:0:0:
408,212,101133,1,0,0:0:0:0:
412,228,101221,1,6,0:0:0:0:
256,192,101395,12,4,112383,0:0:0:0:
