osu file format v14

[General]
AudioFilename: audio.mp3
AudioLeadIn: 0
PreviewTime: -1
Countdown: 1
SampleSet: Normal
StackLeniency: 0.7
Mode: 0
LetterboxInBreaks: 0
WidescreenStoryboard: 0

[Editor]
DistanceSpacing: 1.1
BeatDivisor: 4
GridSize: 4
TimelineZoom: 1.2

[Metadata]
Title:My Heart
TitleUnicode:My Heart
Artist:Different Heaven & EH!DE
ArtistUnicode:Different Heaven & EH!DE
Creator:TD_Kerman
Version:Heartbeat
Source:Geometry Dash
Tags:
BeatmapID:1669289
BeatmapSetID:794757

[Difficulty]
HPDrainRate:6
CircleSize:4
OverallDifficulty:9
ApproachRate:9
SliderMultiplier:1.4
SliderTickRate:1

[Events]
//Background and Video events
//Break Periods
//Storyboard Layer 0 (Background)
//Storyboard Layer 1 (Fail)
//Storyboard Layer 2 (Pass)
//Storyboard Layer 3 (Foreground)
//Storyboard Sound Samples

[TimingPoints]
240,344.827586206897,4,1,0,33,1,0
11198,-80,4,1,0,33,0,0
11298,-71.4285714285714,4,1,0,33,0,0
12567,-100,4,1,0,33,0,0
13612,-80,4,1,0,33,0,0
15163,-100,4,1,0,33,0,0
16715,-80,4,1,0,33,0,0
18612,-100,4,1,0,33,0,0
19474,-80,4,1,0,33,0,0
20853,-200,4,1,0,33,0,0
22222,-71.4285714285714,4,1,0,33,0,0
23439,-166.666666666667,4,1,0,33,0,0
24990,-71.4285714285714,4,1,0,33,0,0
26188,-133.333333333333,4,1,0,33,0,0
27750,-71.4285714285714,4,1,0,33,0,0
33181,-66.6666666666667,4,1,0,33,0,0
43602,-166.666666666667,4,1,0,33,0,0
43946,-71.4285714285714,4,1,0,33,0,0
54636,-166.666666666667,4,1,0,33,0,0
55067,-71.4285714285714,4,1,0,33,0,0
66274,-166.666666666667,4,1,0,33,0,0

[HitObjects]
104,144,240,6,0,L|176:172,1,70
272,80,584,2,0,P|224:80|184:92,1,70
276,176,929,2,0,L|356:204,2,70
216,256,1446,1,0,0:0:0:0:
104,264,1619,6,0,P|116:204|136:176,1,70
64,100,1964,2,0,L|136:80,1,70
216,148,2308,2,0,L|272:96,2,70
216,256,2826,1,0,0:0:0:0:
316,324,2998,6,0,P|368:336|400:328,1,70
400,184,3343,2,0,L|360:248,1,70
304,120,3688,2,0,L|376:104,2,70
216,44,4205,1,0,0:0:0:0:
184,144,4377,6,0,P|160:184|120:204,1,70
256,272,4722,2,0,L|180:272,1,70
92,328,5067,2,0,L|24:288,2,70
56,212,5584,1,0,0:0:0:0:
148,186,5757,6,0,P|129:142|82:115,1,70
216,92,6102,2,0,L|292:140,1,70
292,248,6446,2,0,P|240:244|204:224,1,70
152,156,6791,1,0,0:0:0:0:
160,288,6964,1,0,0:0:0:0:
292,244,7136,6,0,P|340:228|384:224,1,70
464,260,7481,2,0,P|468:216|456:172,1,70
440,76,7826,2,0,P|404:88|376:112,1,70
359,225,8171,1,0,0:0:0:0:
280,140,8343,1,0,0:0:0:0:
164,168,8515,6,0,P|124:128|108:88,1,70
196,252,8860,2,0,L|196:336,1,70
280,208,9205,2,0,P|304:164|348:144,1,70
308,280,9550,1,0,0:0:0:0:
208,172,9722,1,0,0:0:0:0:
88,256,9895,6,0,P|56:228|36:188,1,70
112,96,10240,2,0,L|208:96,1,70
288,212,10584,1,0,0:0:0:0:
176,200,10757,1,0,0:0:0:0:
276,120,10929,6,0,P|316:124|364:156,1,70
349,273,11274,2,0,L|282:206,1,87.5
176,287,11619,2,0,L|176:172,1,97.9999970092774
52,180,11964,2,0,L|112:96,1,97.9999970092774
96,260,12308,1,0,0:0:0:0:
210,88,12481,1,0,0:0:0:0:
304,136,12653,2,0,L|346:211,2,70
404,114,13171,2,0,L|421:39,2,70
392,284,13688,6,0,P|440:268|468:236,1,87.5
376,168,14033,2,0,L|332:88,1,87.5
188,112,14377,2,0,P|156:168|152:220,1,87.5
308,268,14722,2,0,P|272:208|236:188,1,87.5
212,284,15067,1,0,0:0:0:0:
354,183,15240,2,0,B|403:158|446:196|446:196|463:131,1,140
411,75,15757,1,0,0:0:0:0:
330,21,15929,2,0,P|314:69|321:116,1,70
280,180,16274,2,0,P|225:171|186:145,1,70
145,112,16619,5,0,0:0:0:0:
33,161,16791,2,0,P|53:197|93:225,1,87.5
169,336,17136,1,0,0:0:0:0:
230,233,17308,1,0,0:0:0:0:
289,325,17481,2,0,P|329:345|377:345,1,87.5
412,174,17826,2,0,P|376:206|356:246,1,87.5
272,132,18171,2,0,P|228:112|160:112,1,87.5
100,192,18515,1,0,0:0:0:0:
166,272,18688,2,0,L|246:303,2,70
281,213,19205,2,0,L|356:242,1,70
464,180,19550,2,0,L|372:144,1,87.5
264,148,19895,6,0,P|276:96|304:64,1,87.5
152,152,20240,1,0,0:0:0:0:
260,252,20412,1,0,0:0:0:0:
348,153,20584,2,0,P|312:141|248:156,1,87.5
148,276,20929,2,0,L|108:288,1,35
68,204,21274,1,0,0:0:0:0:
88,116,21446,1,0,0:0:0:0:
164,56,21619,2,0,B|192:60|224:92|224:92|272:76,1,122.5
284,76,22308,6,0,L|372:160,1,97.9999970092774
244,240,22653,2,0,P|220:184|236:124,1,97.9999970092774
360,256,22998,2,0,P|348:300|292:348,1,97.9999970092774
152,308,23343,1,0,0:0:0:0:
96,172,23515,6,0,L|132:76,1,83.9999974365235
214,125,24033,1,0,0:0:0:0:
290,35,24205,1,0,0:0:0:0:
194,41,24377,1,0,0:0:0:0:
307,119,24550,1,0,0:0:0:0:
430,97,24722,1,0,0:0:0:0:
384,205,24895,1,0,0:0:0:0:
220,244,25067,6,0,P|188:204|172:140,1,97.9999970092774
376,116,25412,2,0,P|324:156|288:160,1,97.9999970092774
136,52,25757,2,0,P|92:80|68:128,1,97.9999970092774
220,244,26102,5,0,0:0:0:0:
312,260,26274,2,0,L|372:244,1,52.5000020027161
408,156,26619,1,0,0:0:0:0:
320,128,26791,1,0,0:0:0:0:
388,68,26964,1,0,0:0:0:0:
290,33,27136,1,0,0:0:0:0:
217,109,27308,1,0,0:0:0:0:
138,34,27481,1,0,0:0:0:0:
92,143,27653,1,0,0:0:0:0:
196,220,27826,6,0,P|248:228|296:208,1,97.9999970092774
424,296,28171,2,0,P|464:256|468:180,1,97.9999970092774
352,68,28515,2,0,L|376:164,1,97.9999970092774
320,296,28860,1,0,0:0:0:0:
260,140,29033,1,0,0:0:0:0:
216,280,29205,6,0,L|293:210,1,97.9999970092774
120,156,29550,1,0,0:0:0:0:
96,312,29722,1,0,0:0:0:0:
204,192,29895,1,0,0:0:0:0:
68,64,30067,1,0,0:0:0:0:
48,232,30240,1,0,0:0:0:0:
184,104,30412,1,0,0:0:0:0:
320,152,30584,5,0,0:0:0:0:
333,181,30671,1,0,0:0:0:0:
335,213,30757,1,0,0:0:0:0:
324,244,30843,1,0,0:0:0:0:
304,272,30929,1,0,0:0:0:0:
328,293,31015,1,0,0:0:0:0:
356,310,31102,1,0,0:0:0:0:
387,321,31188,1,0,0:0:0:0:
416,328,31274,5,0,0:0:0:0:
437,298,31360,1,0,0:0:0:0:
456,266,31446,1,0,0:0:0:0:
469,232,31533,1,0,0:0:0:0:
480,200,31619,1,0,0:0:0:0:
444,152,31705,1,0,0:0:0:0:
408,112,31791,2,0,L|344:112,1,48.9999985046387
260,112,31964,1,0,0:0:0:0:
260,112,32912,5,0,0:0:0:0:
260,112,32998,1,0,0:0:0:0:
120,128,33171,1,0,0:0:0:0:
232,264,33343,6,0,P|197:305|220:256,1,157.500006008148
236,252,33688,2,0,P|300:256|368:232,1,105.000004005432
468,116,34033,2,0,P|392:96|328:100,1,105.000004005432
204,152,34377,2,0,P|192:96|208:32,1,105.000004005432
280,96,34722,1,0,0:0:0:0:
160,244,34895,5,0,0:0:0:0:
376,176,35067,1,0,0:0:0:0:
116,140,35240,1,0,0:0:0:0:
296,280,35412,1,0,0:0:0:0:
360,76,35584,1,0,0:0:0:0:
408,284,35757,1,0,0:0:0:0:
232,164,35929,1,0,0:0:0:0:
124,336,36102,6,0,P|80:304|44:232,1,105.000004005432
176,108,36446,1,0,0:0:0:0:
344,216,36619,2,0,P|392:184|424:128,1,105.000004005432
304,72,36964,2,0,L|196:24,2,105.000004005432
448,248,37481,5,0,0:0:0:0:
232,188,37653,1,0,0:0:0:0:
420,144,37826,1,0,0:0:0:0:
208,304,37998,1,0,0:0:0:0:
144,84,38171,1,0,0:0:0:0:
44,252,38343,2,0,P|96:296|144:308,1,105.000004005432
324,252,38688,1,0,0:0:0:0:
208,100,38860,6,0,P|250:66|217:109,1,157.500006008148
204,112,39205,2,0,P|136:124|76:176,1,105.000004005432
252,316,39550,2,0,P|303:346|370:336,1,105.000004005432
399,133,39895,2,0,P|347:102|280:112,1,105.000004005432
408,40,40240,5,0,0:0:0:0:
370,216,40412,2,0,L|360:268,1,52.5000020027161
283,230,40584,2,0,L|252:272,1,52.5000020027161
193,211,40757,2,0,L|152:244,1,52.5000020027161
304,88,40929,1,0,0:0:0:0:
456,200,41102,2,0,L|504:228,1,52.5000020027161
436,284,41274,2,0,L|472:344,1,52.5000020027161
420,88,41446,1,0,0:0:0:0:
192,128,41619,6,0,B|183:125|183:125|181:134|181:134|175:127|175:127|173:136|173:136|167:129|167:129|165:138|165:138|159:131|159:131|157:139|157:139|152:133|152:133|150:141|150:141|144:134|144:134|142:143|142:143|136:136|136:136|134:145|134:145|128:138|128:138|126:147|126:147|120:140|120:140|118:148|118:148|113:142|113:142|111:150|111:150|105:143|105:143|103:152|103:152|97:145|97:145,1,157.500006008148
108,148,41964,1,0,0:0:0:0:
252,272,42136,2,0,P|312:236|336:192,1,105.000004005432
176,48,42481,2,0,L|68:32,2,105.000004005432
184,224,42998,5,0,0:0:0:0:
292,116,43171,2,0,L|348:100,1,52.5000020027161
356,180,43343,2,0,L|420:180,1,52.5000020027161
400,256,43515,2,0,L|460:276,1,52.5000020027161
148,288,43688,2,0,P|103:306|77:326,1,62.9999980773926
76,328,44033,1,0,0:0:0:0:
162,129,44205,1,0,0:0:0:0:
352,180,44377,6,0,P|316:220|340:172,1,146.999995513916
360,176,44722,2,0,P|427:168|488:132,1,97.9999970092774
224,55,45067,2,0,P|176:103|152:164,1,97.9999970092774
292,320,45412,2,0,P|297:252|272:188,1,97.9999970092774
252,144,45757,5,0,0:0:0:0:
132,288,45929,1,0,0:0:0:0:
368,180,46102,1,0,0:0:0:0:
168,32,46274,1,0,0:0:0:0:
216,292,46446,1,0,0:0:0:0:
72,84,46619,1,0,0:0:0:0:
324,96,46791,1,0,0:0:0:0:
112,208,46964,1,0,0:0:0:0:
359,251,47136,6,0,P|372:178|341:113,1,146.999995513916
324,96,47481,1,0,0:0:0:0:
168,224,47653,2,0,P|214:268|268:288,1,97.9999970092774
424,164,47998,1,0,0:0:0:0:
204,116,48171,2,0,P|156:80|132:36,1,97.9999970092774
92,224,48515,5,0,0:0:0:0:
280,116,48688,1,0,0:0:0:0:
252,280,48860,1,0,0:0:0:0:
84,108,49033,1,0,0:0:0:0:
328,52,49205,1,0,0:0:0:0:
172,252,49377,1,0,0:0:0:0:
424,164,49550,1,0,0:0:0:0:
204,116,49722,1,0,0:0:0:0:
420,264,49895,6,0,P|384:304|408:256,1,146.999995513916
427,259,50240,2,0,P|492:232|516:168,1,97.9999970092774
272,192,50584,2,0,P|240:248|248:312,1,97.9999970092774
424,164,50929,2,0,P|456:107|444:40,1,97.9999970092774
256,68,51274,5,0,0:0:0:0:
128,176,51446,2,0,L|80:224,1,48.9999985046387
176,248,51619,2,0,L|160:304,1,48.9999985046387
244,296,51791,2,0,L|244:356,1,48.9999985046387
244,176,51964,1,0,0:0:0:0:
352,104,52136,2,0,L|396:76,1,48.9999985046387
424,160,52308,2,0,L|484:160,1,48.9999985046387
128,176,52481,1,0,0:0:0:0:
324,328,52653,6,0,B|332:330|332:330|335:322|335:322|341:329|341:329|342:320|342:320|349:327|349:327|350:318|350:318|356:325|356:325|359:317|359:317|364:323|364:323|366:315|366:315|372:322|372:322|374:313|374:313|380:320|380:320|382:311|382:311|387:318|387:318|390:309|390:309|396:316|396:316|398:308|398:308|403:314|403:314|405:306|405:306|411:313|411:313|412:304|412:304,1,146.999995513916
400,308,52998,1,0,0:0:0:0:
244,176,53171,2,0,P|204:140|176:80,1,97.9999970092774
400,76,53515,2,0,L|512:75,2,97.9999970092774
152,20,54033,5,0,0:0:0:0:
244,176,54205,2,0,L|280:240,1,48.9999985046387
184,240,54377,2,0,L|184:328,1,48.9999985046387
104,280,54550,2,0,L|76:336,1,48.9999985046387
136,120,54722,2,0,P|180:96|200:72,1,62.9999980773926
212,64,55067,2,0,P|264:84|316:84,1,97.9999970092774
432,84,55412,6,0,P|420:136|360:196,1,97.9999970092774
320,304,55757,2,0,P|388:268|448:280,1,97.9999970092774
288,156,56102,1,0,0:0:0:0:
168,248,56274,1,0,0:0:0:0:
208,124,56446,1,0,0:0:0:0:
288,232,56619,1,0,0:0:0:0:
376,148,56791,6,0,P|358:99|305:63,1,97.9999970092774
132,184,57136,1,0,0:0:0:0:
244,44,57308,1,0,0:0:0:0:
219,195,57481,1,0,0:0:0:0:
156,44,57653,1,0,0:0:0:0:
292,148,57826,1,0,0:0:0:0:
56,144,57998,1,0,0:0:0:0:
136,241,58171,6,0,P|192:221|236:169,1,97.9999970092774
156,44,58515,2,0,P|136:108|144:152,1,97.9999970092774
256,104,58860,2,0,P|304:76|360:72,1,97.9999970092774
464,88,59205,2,0,P|440:144|392:176,1,97.9999970092774
296,207,59550,5,0,0:0:0:0:
280,315,59722,1,0,0:0:0:0:
184,215,59895,1,0,0:0:0:0:
336,147,60067,1,0,0:0:0:0:
200,295,60240,1,0,0:0:0:0:
136,127,60412,1,0,0:0:0:0:
72,308,60584,1,0,0:0:0:0:
232,131,60757,1,0,0:0:0:0:
316,264,60929,6,0,P|296:324|252:356,1,97.9999970092774
187,213,61274,2,0,P|207:153|251:121,1,97.9999970092774
356,68,61619,1,0,0:0:0:0:
160,93,61791,1,0,0:0:0:0:
291,218,61964,1,0,0:0:0:0:
260,57,62136,1,0,0:0:0:0:
474,85,62308,6,0,P|450:143|400:185,1,97.9999970092774
188,252,62653,1,0,0:0:0:0:
224,60,62826,1,0,0:0:0:0:
352,236,62998,1,0,0:0:0:0:
228,188,63171,1,0,0:0:0:0:
356,68,63343,1,0,0:0:0:0:
144,136,63515,1,0,0:0:0:0:
276,301,63688,6,0,P|330:336|404:327,1,97.9999970092774
306,129,64033,2,0,P|251:93|177:102,1,97.9999970092774
369,219,64377,2,0,P|404:164|395:90,1,97.9999970092774
209,215,64722,2,0,P|173:269|182:343,1,97.9999970092774
306,129,65067,5,0,0:0:0:0:
266,293,65240,1,0,0:0:0:0:
144,136,65412,1,0,0:0:0:0:
362,299,65584,1,0,0:0:0:0:
116,232,65757,1,0,0:0:0:0:
248,54,65929,1,0,0:0:0:0:
314,221,66102,1,0,0:0:0:0:
102,38,66274,1,0,0:0:0:0:
146,229,66446,6,0,L|194:253,1,41.9999987182618
236,180,66791,2,0,L|188:160,1,41.9999987182618
164,88,67136,2,0,L|212:80,3,41.9999987182618
304,72,67998,1,0,0:0:0:0:
360,132,68170,2,0,L|392:164,1,41.9999987182618
336,228,68515,1,0,0:0:0:0:
336,228,68688,1,0,0:0:0:0:
428,280,68860,1,0,0:0:0:0:
428,280,69033,1,0,0:0:0:0:
348,332,69205,6,0,L|304:312,1,41.9999987182618
224,332,69550,2,0,L|216:280,1,41.9999987182618
256,216,69895,2,0,L|208:180,3,41.9999987182618
128,112,70757,1,0,0:0:0:0:
184,48,70929,2,0,L|224:32,1,41.9999987182618
276,96,71274,1,0,0:0:0:0:
276,96,71446,1,0,0:0:0:0:
328,36,71619,1,0,0:0:0:0:
328,36,71791,1,0,0:0:0:0:
364,112,71964,6,0,L|344:148,1,41.9999987182618
424,184,72308,2,0,L|452:216,1,41.9999987182618
360,236,72653,2,0,L|304:236,3,41.9999987182618
196,244,73515,1,0,0:0:0:0:
116,208,73688,2,0,L|152:172,1,41.9999987182618
224,160,74033,1,0,0:0:0:0:
224,160,74205,1,0,0:0:0:0:
152,96,74377,1,0,0:0:0:0:
152,96,74550,1,0,0:0:0:0:
64,128,74722,6,0,L|36:168,1,41.9999987182618
112,208,75067,2,0,L|136:248,1,41.9999987182618
96,320,75412,2,0,L|152:328,3,41.9999987182618
268,284,76274,1,0,0:0:0:0:
343,234,76446,2,0,L|362:193,1,41.9999987182618
287,134,76791,1,0,0:0:0:0:
287,134,76964,1,0,0:0:0:0:
300,40,77136,1,0,0:0:0:0:
300,40,77308,1,0,0:0:0:0:
