osu file format v14

[General]
AudioFilename: audio.mp3
AudioLeadIn: 0
PreviewTime: 32726
Countdown: 1
SampleSet: None
StackLeniency: 0.7
Mode: 0
LetterboxInBreaks: 0
WidescreenStoryboard: 1

[Editor]
Bookmarks: 10657,22208,121490
DistanceSpacing: 1.5
BeatDivisor: 4
GridSize: 4
TimelineZoom: 1

[Metadata]
Title:My Heart
TitleUnicode:My Heart
Artist:Different Heaven & EH!DE
ArtistUnicode:Different Heaven & EH!DE
Creator:GreenHue
Version:Very Hard
Source:
Tags:
BeatmapID:1201896
BeatmapSetID:559333

[Difficulty]
HPDrainRate:5
CircleSize:4
OverallDifficulty:7
ApproachRate:8
SliderMultiplier:1.40000000596046
SliderTickRate:1

[Events]
//Background and Video events
0,0,"Anime Background.jpg",0,0
//Break Periods
//Storyboard Layer 0 (Background)
//Storyboard Layer 1 (Fail)
//Storyboard Layer 2 (Pass)
//Storyboard Layer 3 (Foreground)
//Storyboard Sound Samples

[TimingPoints]
140,344.827586206897,4,3,1,100,1,0
32726,-133.333333333333,4,3,1,100,0,1
33243,-100,4,3,1,100,0,1
43588,-133.333333333333,4,3,1,100,0,1
44191,-100,4,3,1,100,0,0
44277,-100,4,3,1,100,0,1
55140,-100,4,3,1,100,0,0
55319,-100,4,3,1,100,0,1
66174,-100,4,3,1,100,0,1
77381,-100,4,3,1,100,0,0

[HitObjects]
104,112,10657,6,0,P|128:144|180:164,1,70.000000298023
228,152,11002,2,0,P|268:188|280:220,1,70.000000298023
288,228,11519,1,0,0:0:0:0:
384,272,11864,1,0,0:0:0:0:
384,272,12036,1,0,0:0:0:0:
420,212,12208,2,0,B|436:180|436:180|476:144,2,70.000000298023
116,296,13415,6,0,P|140:256|176:228,1,70.000000298023
204,188,13760,2,0,B|228:168|228:168|252:120,1,70.000000298023
108,100,14277,1,0,0:0:0:0:
52,240,14622,1,0,0:0:0:0:
52,240,14795,1,0,0:0:0:0:
52,240,14967,2,0,P|104:272|120:272,1,70.000000298023,0|0,0:0|0:0,0:0:0:0:
180,268,15312,1,0,0:0:0:0:
272,64,17036,6,0,P|300:88|344:108,1,70.000000298023
396,124,17381,1,0,0:0:0:0:
260,152,17726,2,0,P|156:124|112:132,1,140.000000596046
40,236,18415,1,0,0:0:0:0:
40,236,18588,1,0,0:0:0:0:
40,236,18760,2,0,B|109:206|109:206|124:288|160:236|160:236|196:268|196:268|224:232|272:220,1,280.000001192092
256,192,19795,12,0,22208,0:0:0:0:
186,180,22553,5,0,0:0:0:0:
295,92,22898,2,0,P|350:91|382:99,1,70.000000298023
446,160,23243,1,0,0:0:0:0:
348,197,23415,2,0,P|293:225|237:292,1,140.000000596046
144,324,23933,1,0,0:0:0:0:
227,169,24105,1,0,0:0:0:0:
74,206,24277,1,0,0:0:0:0:
185,265,24450,1,0,0:0:0:0:
149,166,24622,1,0,0:0:0:0:
231,95,24795,6,0,P|303:68|324:66,1,70.000000298023
432,148,25312,1,0,0:0:0:0:
234,218,25657,2,0,P|173:232|153:227,1,70.000000298023
260,280,26002,1,0,0:0:0:0:
380,232,26174,2,0,B|460:180|460:180|484:110,1,140.000000596046
396,66,26691,5,0,0:0:0:0:
298,26,26864,1,0,0:0:0:0:
253,183,27036,1,0,0:0:0:0:
319,102,27208,1,0,0:0:0:0:
410,238,27381,1,0,0:0:0:0:
324,176,27553,1,0,0:0:0:0:
232,115,27726,6,0,B|180:73|180:73|99:57,1,140.000000596046
206,242,28415,2,0,P|236:271|288:282,1,70.000000298023
365,263,28760,1,0,0:0:0:0:
306,175,28933,2,0,P|246:108|228:57,1,140.000000596046
126,43,29450,1,0,0:0:0:0:
149,160,29622,1,0,0:0:0:0:
39,56,29795,1,0,0:0:0:0:
183,174,29967,1,0,0:0:0:0:
171,44,30140,1,0,0:0:0:0:
244,118,30312,2,0,P|272:158|292:172,1,70.000000298023
452,301,30829,1,0,0:0:0:0:
248,248,31174,2,0,B|158:239|119:200|119:200|153:244|173:332,1,280.000001192092
397,224,32812,6,0,L|304:252,1,78.7500033393501
220,272,33243,2,0,P|180:260|216:196,1,140.000000596046,8|0,0:0|0:0,0:0:0:0:
352,156,33933,6,0,P|400:132|428:96,1,70.000000298023,4|0,0:0|0:0,0:0:0:0:
316,80,34277,1,0,0:0:0:0:
212,76,34450,2,0,L|44:96,1,140.000000596046,8|0,0:0|0:0,0:0:0:0:
144,172,34967,2,0,L|240:180,1,70.000000298023
288,256,35312,5,4,0:0:0:0:
128,328,35484,1,0,0:0:0:0:
176,248,35657,1,0,0:0:0:0:
248,324,35829,1,0,0:0:0:0:
352,332,36002,2,0,B|432:312|432:312|480:244,1,140.000000596046,8|0,0:0|0:0,0:0:0:0:
476,160,36519,1,0,0:0:0:0:
384,112,36691,6,0,P|316:120|296:116,1,70.000000298023,4|0,0:0|0:0,0:0:0:0:
236,48,37036,1,0,0:0:0:0:
144,96,37208,2,0,P|56:112|8:140,1,140.000000596046,8|0,0:0|0:0,0:0:0:0:
116,168,37726,2,0,P|160:168|208:140,1,70.000000298023
272,100,38071,5,4,0:0:0:0:
372,76,38243,2,0,B|456:40|456:40|400:120|408:136,1,175.000000745057
372,148,38760,2,0,P|336:192|356:300,1,140.000000596046,8|0,0:0|0:0,0:0:0:0:
424,332,39277,1,0,0:0:0:0:
337,272,39450,6,0,L|176:128,1,210.000000894069,4|8,0:0|0:0,0:0:0:0:
108,56,40140,1,0,0:0:0:0:
44,140,40312,2,0,L|108:196,1,70.000000298023
4,236,40657,6,0,L|84:272,1,70.000000298023,0|4,0:0|0:0,0:0:0:0:
8,352,41002,2,0,L|96:332,1,70.000000298023
176,300,41346,1,0,0:0:0:0:
280,292,41519,2,0,P|376:292|440:280,1,140.000000596046,8|0,0:0|0:0,0:0:0:0:
468,192,42036,2,0,P|448:136|448:112,1,70.000000298023,0|4,0:0|0:0,0:0:0:0:
380,44,42381,6,0,P|320:52|284:44,1,70.000000298023
208,44,42726,2,0,B|168:40|168:40|140:68|76:96,1,140.000000596046,8|0,0:0|0:0,0:0:0:0:
32,200,43243,1,0,0:0:0:0:
128,152,43415,1,0,0:0:0:0:
208,212,43588,2,0,P|248:242|298:270,1,105.000004452467,4|0,0:0|0:0,0:0:0:0:
464,140,44277,6,0,P|488:84|416:88,1,140.000000596046,8|0,0:0|0:0,0:0:0:0:
232,152,44967,6,0,P|168:180|148:180,1,70.000000298023,4|0,0:0|0:0,0:0:0:0:
64,188,45312,1,0,0:0:0:0:
132,108,45484,2,0,L|264:52,1,140.000000596046,8|0,0:0|0:0,0:0:0:0:
364,84,46002,1,0,0:0:0:0:
448,192,46174,1,0,0:0:0:0:
412,68,46346,5,4,0:0:0:0:
448,192,46519,1,0,0:0:0:0:
464,64,46691,1,0,0:0:0:0:
448,192,46864,1,0,0:0:0:0:
356,244,47036,2,0,P|290:261|207:275,1,140.000000596046,8|0,0:0|0:0,0:0:0:0:
116,284,47553,2,0,L|36:336,1,70.000000298023,0|4,0:0|0:0,0:0:0:0:
80,220,47898,5,0,0:0:0:0:
80,220,48071,1,0,0:0:0:0:
128,128,48243,2,0,P|188:104|192:160,1,140.000000596046,8|0,0:0|0:0,0:0:0:0:
116,232,48760,1,0,0:0:0:0:
44,156,48933,1,0,0:0:0:0:
88,60,49105,1,12,0:0:0:0:
192,80,49277,6,0,P|260:84|340:80,1,140.000000596046
432,60,49795,2,0,P|476:100|416:136,1,140.000000596046,8|0,0:0|0:0,0:0:0:0:
216,140,50484,2,0,L|120:148,1,70.000000298023,4|0,0:0|0:0,0:0:0:0:
40,160,50829,5,0,0:0:0:0:
128,216,51002,2,8,L|264:248,1,140.000000596046,8|0,0:0|0:0,0:0:0:0:
408,292,51519,1,0,0:0:0:0:
308,320,51691,1,0,0:0:0:0:
332,216,51864,5,4,0:0:0:0:
244,160,52036,1,0,0:0:0:0:
336,112,52208,1,0,0:0:0:0:
332,216,52381,1,0,0:0:0:0:
256,260,52553,2,0,B|196:292|196:292|128:356,1,140.000000596046,8|0,0:0|0:0,0:0:0:0:
142,341,53071,1,0,0:0:0:0:
60,280,53243,2,0,L|152:260,1,70.000000298023,4|0,0:0|0:0,0:0:0:0:
212,204,53588,5,0,0:0:0:0:
108,188,53760,2,0,B|52:188|52:188|52:148|52:148|104:148|104:148,1,140.000000596046,8|0,0:0|0:0,0:0:0:0:
184,92,54277,1,0,0:0:0:0:
284,56,54450,1,0,0:0:0:0:
388,56,54622,6,0,P|448:72|472:152,1,140.000000596046,4|0,0:0|0:0,0:0:0:0:
396,336,55312,2,0,P|356:320|392:232,1,140.000000596046,8|0,0:0|0:0,0:0:0:0:
460,48,55915,1,0,0:0:0:0:
460,48,56002,6,0,L|376:64,1,70.000000298023,4|0,0:0|0:0,0:0:0:0:
288,72,56346,1,0,0:0:0:0:
184,84,56519,2,0,L|264:108,1,70.000000298023,8|0,0:0|0:0,0:0:0:0:
160,160,56864,2,0,L|72:164,1,70.000000298023
152,248,57208,2,0,L|228:212,1,70.000000298023,0|4,0:0|0:0,0:0:0:0:
316,188,57553,6,0,L|272:272,1,70.000000298023
208,324,57898,1,0,0:0:0:0:
312,320,58071,2,0,L|452:236,1,140.000000596046,8|0,0:0|0:0,0:0:0:0:
472,152,58588,1,0,0:0:0:0:
472,152,58674,1,0,0:0:0:0:
472,152,58760,5,4,0:0:0:0:
376,200,58933,2,0,P|336:216|288:224,1,70.000000298023
204,224,59277,2,0,P|136:244|64:280,1,140.000000596046,8|0,0:0|0:0,0:0:0:0:
140,192,59795,2,0,P|184:168|208:148,1,70.000000298023
244,60,60140,1,4,0:0:0:0:
336,60,60312,6,0,P|404:64|484:52,1,140.000000596046
476,56,60829,2,0,B|452:77|452:77|464:93|464:93|448:109|448:109|472:136|472:136|448:156|448:156,1,140.000000596046,8|0,0:0|0:0,0:0:0:0:
280,292,61519,2,0,L|212:324,2,70.000000298023,4|0|0,0:0|0:0|0:0,0:0:0:0:
204,220,62036,6,0,L|48:276,1,140.000000596046,8|0,0:0|0:0,0:0:0:0:
148,192,62553,2,0,L|60:204,1,70.000000298023
140,116,62898,2,0,L|208:96,1,70.000000298023,4|0,0:0|0:0,0:0:0:0:
292,32,63243,5,0,0:0:0:0:
372,92,63415,2,0,P|408:124|440:144,1,70.000000298023,0|8,0:0|0:0,0:0:0:0:
456,336,63933,1,0,0:0:0:0:
360,296,64105,2,0,B|328:284|328:284|288:240,1,70.000000298023,0|4,0:0|0:0,0:0:0:0:
264,160,64450,6,0,B|228:168|228:168|176:200,1,70.000000298023
172,292,64795,2,0,B|132:308|132:308|52:236,1,140.000000596046,8|0,0:0|0:0,0:0:0:0:
144,112,65312,1,0,0:0:0:0:
96,200,65484,1,0,0:0:0:0:
60,88,65657,2,0,P|112:40|200:48,1,140.000000596046,4|0,0:0|0:0,0:0:0:0:
368,120,66346,6,0,B|416:156|416:156|400:184|400:184|440:240,1,140.000000596046,8|0,0:0|0:0,0:0:0:0:
228,292,67036,2,0,P|168:288|144:272,1,70.000000298023,4|0,0:0|0:0,0:0:0:0:
240,216,67381,6,0,P|300:204|320:192,1,70.000000298023,0|8,0:0|0:0,0:0:0:0:
340,300,67726,2,0,P|384:308|416:328,1,70.000000298023
492,260,68071,1,0,0:0:0:0:
388,148,68243,1,0,0:0:0:0:
412,240,68415,1,4,0:0:0:0:
472,128,68588,5,0,0:0:0:0:
368,64,68760,1,0,0:0:0:0:
280,144,68933,1,0,0:0:0:0:
276,248,69105,2,0,P|336:244|368:156,1,140.000000596046,8|0,0:0|0:0,0:0:0:0:
448,108,69622,1,0,0:0:0:0:
448,108,69708,1,0,0:0:0:0:
448,108,69795,1,4,0:0:0:0:
448,200,69967,6,0,L|400:264,1,70.000000298023
352,168,70312,2,0,P|331:122|252:68,1,140.000000596046,8|0,0:0|0:0,0:0:0:0:
156,68,70829,2,0,L|72:32,1,70.000000298023
128,140,71174,1,4,0:0:0:0:
232,124,71346,6,0,B|280:112|280:112|288:168|356:200,1,140.000000596046
428,224,71864,2,0,P|488:212|448:156,1,140.000000596046,8|0,0:0|0:0,0:0:0:0:
272,72,72553,2,0,P|216:88|180:88,1,70.000000298023,4|0,0:0|0:0,0:0:0:0:
108,44,72898,6,0,P|64:60|32:84,1,70.000000298023
132,128,73243,2,0,P|152:192|152:276,1,140.000000596046,8|0,0:0|0:0,0:0:0:0:
356,328,73760,1,0,0:0:0:0:
356,328,73933,2,0,P|424:292|460:236,1,140.000000596046,4|0,0:0|0:0,0:0:0:0:
364,196,74450,6,0,B|392:144|480:136|480:136|384:64|328:84,1,280.000001192092,8|4,0:0|0:0,0:0:0:0:
252,120,75312,2,0,L|156:108,1,70.000000298023
268,48,75657,2,0,L|352:48,1,70.000000298023
432,148,76346,5,0,0:0:0:0:
448,168,76864,5,0,0:0:0:0:
468,192,77381,6,0,P|432:160|496:168,1,140.000000596046,10|4,0:0|0:0,0:0:0:0:
300,228,78071,5,0,0:0:0:0:
300,228,78243,6,0,L|224:252,1,70.000000298023,8|4,0:0|0:0,0:0:0:0:
124,204,78588,1,8,0:0:0:0:
124,204,78760,2,0,L|180:144,1,70.000000298023
264,100,79105,2,0,P|328:64|352:60,1,70.000000298023,4|0,0:0|0:0,0:0:0:0:
424,104,79450,2,0,P|400:128|360:144,1,70.000000298023,0|8,0:0|0:0,0:0:0:0:
264,136,79795,6,0,P|344:180|368:232,1,140.000000596046,4|8,0:0|0:0,0:0:0:0:
180,324,80484,1,4,0:0:0:0:
96,132,80829,2,0,L|64:64,2,70.000000298023,0|8|4,0:0|0:0|0:0,0:0:0:0:
188,180,81346,5,0,0:0:0:0:
280,132,81519,2,0,P|312:112|364:92,1,70.000000298023,8|0,0:0|0:0,0:0:0:0:
448,112,81864,2,0,P|416:184|416:188,1,70.000000298023,4|0,0:0|0:0,0:0:0:0:
332,232,82208,2,0,P|344:160|340:140,1,70.000000298023,0|8,0:0|0:0,0:0:0:0:
296,68,82553,6,0,P|256:120|248:140,1,70.000000298023,4|0,0:0|0:0,0:0:0:0:
172,188,82898,2,0,P|90:202|105:244,1,140.000000596046,8|4,0:0|0:0,0:0:0:0:
300,300,83588,2,0,L|392:320,2,70.000000298023,0|8|4,0:0|0:0|0:0,0:0:0:0:
204,256,84105,6,0,B|236:240|236:240|264:200,1,70.000000298023,0|8,0:0|0:0,0:0:0:0:
448,128,84622,1,4,0:0:0:0:
244,80,84967,1,0,0:0:0:0:
244,80,85140,6,0,L|156:120,1,70.000000298023,8|4,0:0|0:0,0:0:0:0:
76,108,85484,1,0,0:0:0:0:
76,108,85657,2,0,P|107:141|52:124,1,140.000000596046,8|4,0:0|0:0,0:0:0:0:
176,308,86346,5,0,0:0:0:0:
268,256,86519,2,0,L|352:248,1,70.000000298023,8|4,0:0|0:0,0:0:0:0:
408,328,86864,2,2,L|312:324,1,70.000000298023,10|2,0:0|0:0,0:0:0:0:
412,252,87208,2,2,P|444:220|464:176,1,70.000000298023,10|2,0:0|0:0,0:0:0:0:
352,204,87553,2,2,P|316:256|304:268,1,70.000000298023,8|2,0:0|0:0,0:0:0:0:
220,220,87898,2,0,L|248:172,4,35.0000001490115
208,116,88415,6,0,P|172:80|192:128,1,140.000000596046,8|4,0:0|0:0,0:0:0:0:
276,56,88933,2,0,P|328:52|408:96,1,140.000000596046,0|8,0:0|0:0,0:0:0:0:
460,180,89450,6,0,P|424:80|424:56,1,105.000000447034,4|0,0:0|0:0,0:0:0:0:
468,56,89795,2,0,P|424:80|332:40,1,140.000000596046,8|4,0:0|0:0,0:0:0:0:
240,32,90312,1,0,0:0:0:0:
140,56,90484,2,0,P|72:92|56:96,1,70.000000298023,0|8,0:0|0:0,0:0:0:0:
124,192,90829,5,4,0:0:0:0:
300,304,91174,2,0,B|354:341|391:330|391:330|423:323|387:270|396:336,1,140.000000596046,8|4,0:0|0:0,0:0:0:0:
340,220,91691,2,0,B|312:196|312:196|288:144,1,70.000000298023
336,68,92036,6,0,B|372:96|372:96|388:144,1,70.000000298023,8|4,0:0|0:0,0:0:0:0:
184,44,92553,2,0,B|168:36|168:36|160:52|160:52|140:44|140:44|128:60|128:60|108:48|108:48|96:68|96:68|68:64|68:64,1,140.000000596046,10|4,0:0|0:0,0:0:0:0:
164,132,93071,2,0,L|236:160,1,70.000000298023
229,157,93415,1,8,0:0:0:0:
284,248,93588,6,0,B|296:232|296:232|288:224|288:224|300:224|300:224|292:216|292:216|304:216|304:216|312:204,1,70.000000298023,4|0,0:0|0:0,0:0:0:0:
388,140,93933,2,0,P|446:134|408:174,1,140.000000596046,8|4,0:0|0:0,0:0:0:0:
316,140,94450,1,0,0:0:0:0:
316,140,94622,1,0,0:0:0:0:
224,92,94795,6,0,P|168:80|136:64,1,70.000000298023,8|4,0:0|0:0,0:0:0:0:
4,176,95312,2,0,P|60:212|136:228,1,140.000000596046,8|4,0:0|0:0,0:0:0:0:
236,196,95829,2,0,P|288:200|316:212,1,70.000000298023
376,280,96174,6,0,P|416:288|472:280,1,70.000000298023,8|4,0:0|0:0,0:0:0:0:
388,196,96519,1,0,0:0:0:0:
312,124,96691,2,0,P|240:144|232:232,1,140.000000596046,8|4,0:0|0:0,0:0:0:0:
220,200,97208,1,0,0:0:0:0:
284,284,97381,2,0,P|328:320|368:332,1,70.000000298023,0|8,0:0|0:0,0:0:0:0:
432,272,97726,5,4,0:0:0:0:
340,84,98071,1,0,0:0:0:0:
240,52,98243,2,2,P|168:40|144:40,1,70.000000298023,10|2,0:0|0:0,0:0:0:0:
84,100,98588,2,2,L|180:108,1,70.000000298023,10|2,0:0|0:0,0:0:0:0:
236,168,98933,2,2,L|152:172,1,70.000000298023,10|2,0:0|0:0,0:0:0:0:
64,192,99277,1,8,0:0:0:0:
156,240,99450,6,0,B|224:248|224:248|300:296,1,140.000000596046,8|0,0:0|0:0,0:0:0:0:
484,220,100140,2,0,P|436:204|412:160,1,70.000000298023,4|0,0:0|0:0,0:0:0:0:
380,96,100484,5,0,0:0:0:0:
280,60,100657,2,0,P|224:48|120:72,1,140.000000596046,8|0,0:0|0:0,0:0:0:0:
44,124,101174,1,0,0:0:0:0:
140,164,101346,1,0,0:0:0:0:
40,192,101519,1,4,0:0:0:0:
136,232,101691,5,0,0:0:0:0:
36,260,101864,1,0,0:0:0:0:
132,300,102036,1,0,0:0:0:0:
236,288,102208,2,0,L|376:272,1,140.000000596046,8|0,0:0|0:0,0:0:0:0:
452,56,102898,2,0,P|440:104|404:140,1,70.000000298023,4|0,0:0|0:0,0:0:0:0:
344,184,103243,5,0,0:0:0:0:
368,80,103415,2,0,P|424:116|448:192,1,140.000000596046,8|0,0:0|0:0,0:0:0:0:
372,256,103933,2,0,P|332:304|324:324,1,70.000000298023
292,212,104277,2,0,P|308:156|336:132,1,70.000000298023,4|0,0:0|0:0,0:0:0:0:
400,84,104622,5,0,0:0:0:0:
296,80,104795,2,0,P|236:64|200:48,1,70.000000298023,0|8,0:0|0:0,0:0:0:0:
20,28,105312,1,0,0:0:0:0:
96,232,105657,2,0,L|128:308,1,70.000000298023,4|0,0:0|0:0,0:0:0:0:
152,164,106002,5,0,0:0:0:0:
224,216,106174,2,0,L|300:352,1,140.000000596046,8|0,0:0|0:0,0:0:0:0:
328,240,106691,2,0,L|292:160,1,70.000000298023
400,212,107036,2,0,L|448:288,1,70.000000298023,4|0,0:0|0:0,0:0:0:0:
468,168,107381,5,0,0:0:0:0:
428,72,107553,1,0,0:0:0:0:
344,136,107726,2,0,P|304:180|208:216,1,140.000000596046,8|0,0:0|0:0,0:0:0:0:
20,220,108415,2,0,P|72:196|100:164,1,70.000000298023,4|0,0:0|0:0,0:0:0:0:
152,108,108760,5,0,0:0:0:0:
232,40,108933,2,0,P|304:28|384:76,1,140.000000596046,8|0,0:0|0:0,0:0:0:0:
456,124,109450,2,0,P|392:144|368:140,1,70.000000298023
288,172,109795,2,0,P|328:220|360:232,1,70.000000298023,4|0,0:0|0:0,0:0:0:0:
384,316,110140,5,0,0:0:0:0:
284,280,110312,1,0,0:0:0:0:
188,240,110484,2,0,P|84:268|52:304,2,140.000000596046,8|0|4,0:0|0:0|0:0,0:0:0:0:
288,200,111346,6,0,P|344:184|372:164,1,70.000000298023
448,128,111691,2,0,P|468:52|396:44,1,140.000000596046,8|0,0:0|0:0,0:0:0:0:
324,60,112208,2,0,L|232:89,1,70.000000298023
229,183,112553,2,0,L|316:154,1,70.000000298023,4|0,0:0|0:0,0:0:0:0:
324,60,112898,6,0,L|243:112,1,70.000000298023
236,200,113243,2,0,P|292:165|380:201,1,140.000000596046,8|0,0:0|0:0,0:0:0:0:
476,356,113933,2,0,P|420:312|400:308,1,70.000000298023,4|0,0:0|0:0,0:0:0:0:
320,288,114277,5,0,0:0:0:0:
220,320,114450,2,0,P|152:336|76:336,1,140.000000596046,8|0,0:0|0:0,0:0:0:0:
164,196,114967,1,0,0:0:0:0:
267,271,115140,1,0,0:0:0:0:
147,319,115312,1,4,0:0:0:0:
164,196,115484,5,0,0:0:0:0:
267,271,115657,1,0,0:0:0:0:
147,319,115829,1,0,0:0:0:0:
84,236,116002,2,0,B|52:176|52:176|80:80,1,140.000000596046,8|0,0:0|0:0,0:0:0:0:
220,40,116691,2,0,P|232:80|272:108,1,70.000000298023,4|0,0:0|0:0,0:0:0:0:
352,72,117036,5,0,0:0:0:0:
316,168,117208,2,0,P|268:212|172:236,1,140.000000596046,8|0,0:0|0:0,0:0:0:0:
96,204,117726,1,0,0:0:0:0:
68,104,117898,1,0,0:0:0:0:
136,28,118071,1,4,0:0:0:0:
240,40,118243,5,0,0:0:0:0:
332,88,118415,2,0,P|360:112|408:128,1,70.000000298023,0|0,0:0|0:0,0:0:0:0:
480,180,118760,1,8,0:0:0:0:
280,244,119105,2,0,P|204:276|144:316,1,140.000000596046,0|4,0:0|0:0,0:0:0:0:
52,288,119622,6,0,P|104:256|116:244,1,70.000000298023
196,188,119967,2,0,B|260:148|260:148|280:76,1,140.000000596046,8|0,0:0|0:0,0:0:0:0:
328,180,120484,2,0,P|356:232|380:264,1,70.000000298023
328,340,120829,2,0,P|304:304|260:272,1,70.000000298023,4|0,0:0|0:0,0:0:0:0:
200,224,121174,1,0,0:0:0:0:
296,180,121346,2,0,L|368:216,1,70.000000298023,0|8,0:0|0:0,0:0:0:0:
