osu file format v14

[General]
AudioFilename: audio.mp3
AudioLeadIn: 0
PreviewTime: 32726
Countdown: 1
SampleSet: None
StackLeniency: 0.7
Mode: 0
LetterboxInBreaks: 0
WidescreenStoryboard: 1

[Editor]
Bookmarks: 121490
DistanceSpacing: 1.1
BeatDivisor: 4
GridSize: 4
TimelineZoom: 1

[Metadata]
Title:My Heart
TitleUnicode:My Heart
Artist:Different Heaven & EH!DE
ArtistUnicode:Different Heaven & EH!DE
Creator:GreenHue
Version:Normal
Source:
Tags:
BeatmapID:1192928
BeatmapSetID:559333

[Difficulty]
HPDrainRate:3
CircleSize:3.5
OverallDifficulty:4
ApproachRate:5
SliderMultiplier:1.00000000596046
SliderTickRate:1

[Events]
//Background and Video events
0,0,"Anime Background.jpg",0,0
//Break Periods
2,22408,26526
//Storyboard Layer 0 (Background)
//Storyboard Layer 1 (Fail)
//Storyboard Layer 2 (Pass)
//Storyboard Layer 3 (Foreground)
//Storyboard Sound Samples

[TimingPoints]
140,344.827586206897,4,3,1,100,1,0
32726,-100,4,3,1,100,0,1
44191,-100,4,3,1,100,0,0
44277,-100,4,3,1,100,0,1
55140,-100,4,3,1,100,0,0
55319,-100,4,3,1,100,0,1
66174,-100,4,3,1,100,0,1
77381,-100,4,3,1,100,0,0

[HitObjects]
32,52,10657,6,0,B|132:64|132:64|164:136|244:120|244:120|224:184|224:184|328:152|360:276|464:204,1,550.000003278253
432,60,13415,6,0,B|336:100|336:100|320:172|228:160|228:160|184:120|184:120|164:216|164:216|96:120|32:176,1,550.000003278253
460,300,16691,6,0,B|416:184|416:184|368:268|256:264|256:264|220:164|220:164|152:264|88:240|88:240|184:156|160:40|160:40,1,800.000004768368
256,192,19795,12,0,22208,0:0:0:0:
96,88,27726,6,0,P|124:144|160:164,1,100.000000596046
256,204,28415,1,0,0:0:0:0:
356,248,28760,2,0,P|384:264|440:308,2,100.000000596046
268,180,29795,1,0,0:0:0:0:
184,108,30140,1,0,0:0:0:0:
76,92,30484,1,0,0:0:0:0:
124,192,30829,1,0,0:0:0:0:
232,184,31174,2,0,B|332:168|332:168|424:152|428:212,1,200.000001192092
148,88,33243,6,0,P|224:124|252:128,1,100.000000596046,8|2,0:0|0:0,0:0:0:0:
344,160,33933,2,0,P|412:184|496:284,1,200.000001192092,4|8,0:0|0:0,0:0:0:0:
384,300,34967,1,2,0:0:0:0:
288,244,35312,2,0,P|232:192|216:168,1,100.000000596046,4|0,0:0|0:0,0:0:0:0:
152,84,36002,6,0,L|84:164,1,100.000000596046,8|2,0:0|0:0,0:0:0:0:
164,240,36691,2,0,P|264:216|368:232,1,200.000001192092,4|8,0:0|0:0,0:0:0:0:
412,160,37726,1,2,0:0:0:0:
324,92,38071,1,4,0:0:0:0:
224,136,38415,1,0,0:0:0:0:
124,88,38760,6,0,L|28:36,1,100.000000596046,8|2,0:0|0:0,0:0:0:0:
68,148,39450,2,0,B|100:212|100:212|136:212|136:212|188:292,1,200.000001192092,4|8,0:0|0:0,0:0:0:0:
268,216,40484,1,2,0:0:0:0:
348,140,40829,1,4,0:0:0:0:
352,248,41174,1,0,0:0:0:0:
272,172,41519,6,0,P|208:120|172:116,1,100.000000596046,8|2,0:0|0:0,0:0:0:0:
84,132,42208,2,0,P|152:52|256:44,1,200.000001192092,4|8,0:0|0:0,0:0:0:0:
320,120,43243,1,2,0:0:0:0:
216,160,43588,2,0,P|172:184|100:192,2,100.000000596046,4|2|8,0:0|0:0|0:0,0:0:0:0:
320,196,44622,5,2,0:0:0:0:
392,112,44967,2,0,B|428:76|428:76|440:176|396:224,1,200.000001192092,4|8,0:0|0:0,0:0:0:0:
304,268,46002,1,2,0:0:0:0:
212,208,46346,2,0,P|144:168|120:160,1,100.000000596046,4|2,0:0|0:0,0:0:0:0:
208,92,47036,6,0,P|244:76|316:64,1,100.000000596046,8|2,0:0|0:0,0:0:0:0:
228,144,47726,2,0,P|140:120|48:52,1,200.000001192092,4|8,0:0|0:0,0:0:0:0:
56,168,48760,1,2,0:0:0:0:
112,264,49105,2,0,P|176:312|212:324,1,100.000000596046,4|2,0:0|0:0,0:0:0:0:
304,300,49795,5,8,0:0:0:0:
224,228,50140,1,2,0:0:0:0:
332,220,50484,2,0,B|428:196|428:196|488:96,1,200.000001192092,4|8,0:0|0:0,0:0:0:0:
384,56,51519,1,2,0:0:0:0:
272,52,51864,2,0,P|204:48|152:36,1,100.000000596046,4|2,0:0|0:0,0:0:0:0:
80,100,52553,6,0,P|48:176|32:196,1,100.000000596046,8|2,0:0|0:0,0:0:0:0:
148,184,53243,2,0,P|200:112|304:88,1,200.000001192092,4|8,0:0|0:0,0:0:0:0:
400,140,54277,1,2,0:0:0:0:
452,236,54622,1,4,0:0:0:0:
344,216,54967,1,2,0:0:0:0:
244,172,55312,6,0,P|184:136|136:128,1,100.000000596046,8|2,0:0|0:0,0:0:0:0:
48,100,56002,2,0,B|72:180|72:180|136:208|180:260,1,200.000001192092,4|8,0:0|0:0,0:0:0:0:
260,304,57036,2,0,P|312:336|360:348,1,100.000000596046,2|4,0:0|0:0,0:0:0:0:
452,308,57726,1,2,0:0:0:0:
372,232,58071,6,0,P|328:184|328:132,1,100.000000596046,8|2,0:0|0:0,0:0:0:0:
400,160,58760,2,0,L|224:264,1,200.000001192092,4|8,0:0|0:0,0:0:0:0:
152,180,59795,1,2,0:0:0:0:
260,204,60140,1,4,0:0:0:0:
216,104,60484,2,0,P|152:72|104:52,2,100.000000596046,2|8|2,0:0|0:0|0:0,0:0:0:0:
288,112,61519,6,0,P|196:148|116:224,1,200.000001192092,4|8,0:0|0:0,0:0:0:0:
228,244,62553,2,0,P|276:264|324:312,1,100.000000596046,2|4,0:0|0:0,0:0:0:0:
412,340,63243,1,2,0:0:0:0:
408,232,63588,6,0,P|400:184|416:128,1,100.000000596046,8|2,0:0|0:0,0:0:0:0:
372,32,64277,2,0,B|300:72|276:128|276:128|208:96,1,200.000001192092,4|8,0:0|0:0,0:0:0:0:
120,52,65312,1,2,0:0:0:0:
60,144,65657,1,4,0:0:0:0:
148,160,66002,2,0,P|128:88|108:68,2,100.000000596046,2|8|2,0:0|0:0|0:0,0:0:0:0:
184,256,67036,6,0,L|396:312,1,200.000001192092,4|8,0:0|0:0,0:0:0:0:
460,232,68071,1,2,0:0:0:0:
352,216,68415,2,0,P|300:208|248:184,1,100.000000596046,4|2,0:0|0:0,0:0:0:0:
148,168,69105,5,8,0:0:0:0:
148,168,69450,1,2,0:0:0:0:
240,104,69795,2,0,B|300:84|320:52|320:52|340:84|412:112,1,200.000001192092,4|8,0:0|0:0,0:0:0:0:
476,192,70829,2,0,P|484:248|464:288,1,100.000000596046,2|4,0:0|0:0,0:0:0:0:
388,364,71519,1,2,0:0:0:0:
324,276,71864,6,0,P|264:224|232:216,1,100.000000596046,8|2,0:0|0:0,0:0:0:0:
220,324,72553,2,0,L|356:168,1,200.000001192092,4|8,0:0|0:0,0:0:0:0:
412,80,73588,2,0,L|452:36,1,50.000000298023,2|0,0:0|0:0,0:0:0:0:
392,56,73933,2,0,P|320:96|188:116,1,200.000001192092,4|8,0:0|0:0,0:0:0:0:
100,88,74967,2,0,P|188:164|244:240,1,200.000001192092
276,280,75829,5,4,0:0:0:0:
376,148,76346,1,4,0:0:0:0:
240,52,76864,1,4,0:0:0:0:
80,88,77381,6,0,P|168:136|184:136,1,100.000000596046,8|4,0:0|0:0,0:0:0:0:
480,240,78760,2,0,P|424:264|384:304,1,100.000000596046,8|4,0:0|0:0,0:0:0:0:
64,300,80140,2,0,P|128:264|160:232,1,100.000000596046,8|4,0:0|0:0,0:0:0:0:
424,68,81519,2,0,P|364:76|304:72,1,100.000000596046,8|4,0:0|0:0,0:0:0:0:
276,76,82036,2,0,L|212:44,3,50.000000298023
124,68,82898,6,0,P|96:100|40:136,1,100.000000596046,8|4,0:0|0:0,0:0:0:0:
380,108,84277,2,0,P|436:172|468:188,1,100.000000596046,8|4,0:0|0:0,0:0:0:0:
128,284,85657,2,0,P|96:232|80:172,1,100.000000596046,8|4,0:0|0:0,0:0:0:0:
368,360,87036,2,0,P|416:332|460:284,1,100.000000596046,8|4,0:0|0:0,0:0:0:0:
432,76,88415,6,0,P|368:136|344:148,1,100.000000596046,8|4,0:0|0:0,0:0:0:0:
316,180,88933,1,0,0:0:0:0:
404,244,89277,2,0,L|460:276,1,50.000000298023,8|4,0:0|0:0,0:0:0:0:
336,288,89795,6,0,P|252:268|224:248,1,100.000000596046,8|4,0:0|0:0,0:0:0:0:
192,240,90312,1,0,0:0:0:0:
108,168,90657,1,0,0:0:0:0:
256,108,91174,6,0,P|192:112|136:96,1,100.000000596046,8|4,0:0|0:0,0:0:0:0:
104,84,91691,1,0,0:0:0:0:
140,188,92036,2,0,P|168:216|180:240,1,50.000000298023,8|4,0:0|0:0,0:0:0:0:
268,164,92553,2,0,P|256:112|276:120,1,100.000000596046,8|4,0:0|0:0,0:0:0:0:
304,80,93071,1,0,0:0:0:0:
380,160,93415,2,0,B|436:192|436:192|488:192|488:192|448:228,1,150.000000894069
372,280,94277,6,0,L|308:312,1,50.000000298023,8|4,0:0|0:0,0:0:0:0:
220,280,94795,2,0,L|272:244,1,50.000000298023,8|4,0:0|0:0,0:0:0:0:
172,188,95312,2,0,P|112:240|92:264,1,100.000000596046,8|4,0:0|0:0,0:0:0:0:
48,272,95829,1,0,0:0:0:0:
76,164,96174,1,0,0:0:0:0:
228,104,96691,6,0,P|280:156|320:180,1,100.000000596046,8|4,0:0|0:0,0:0:0:0:
356,172,97208,1,0,0:0:0:0:
276,244,97553,2,0,L|216:268,1,50.000000298023,8|4,0:0|0:0,0:0:0:0:
256,192,98071,12,0,99450,0:0:0:0:
368,176,99795,5,2,0:0:0:0:
312,272,100140,2,0,P|244:232|120:224,1,200.000001192092,4|8,0:0|0:0,0:0:0:0:
220,164,101174,2,0,P|312:128|324:112,1,100.000000596046,2|4,0:0|0:0,0:0:0:0:
384,48,101864,1,2,0:0:0:0:
400,156,102208,6,0,P|416:220|440:256,1,100.000000596046,8|2,0:0|0:0,0:0:0:0:
500,344,102898,2,0,B|435:300|400:268|400:268|364:300|320:300,1,200.000001192092,4|8,0:0|0:0,0:0:0:0:
228,268,103933,1,2,0:0:0:0:
120,296,104277,2,0,P|84:320|16:340,2,100.000000596046,4|2|8,0:0|0:0|0:0,0:0:0:0:
176,200,105312,5,2,0:0:0:0:
252,120,105657,2,0,B|348:48|348:48|348:100|392:124,1,200.000001192092,4|8,0:0|0:0,0:0:0:0:
444,208,106691,1,2,0:0:0:0:
340,168,107036,2,0,P|276:144|224:152,1,100.000000596046,4|2,0:0|0:0,0:0:0:0:
144,184,107726,5,8,0:0:0:0:
80,276,108071,1,2,0:0:0:0:
188,260,108415,2,0,B|284:236|284:236|384:244,1,200.000001192092,4|8,0:0|0:0,0:0:0:0:
480,304,109450,1,2,0:0:0:0:
472,196,109795,2,0,P|440:148|400:108,1,100.000000596046,4|2,0:0|0:0,0:0:0:0:
308,72,110484,6,0,L|204:104,1,100.000000596046,8|2,0:0|0:0,0:0:0:0:
104,88,111174,2,0,B|152:88|176:96|76:240,1,200.000001192092,4|8,0:0|0:0,0:0:0:0:
24,336,112208,1,2,0:0:0:0:
128,304,112553,2,0,P|204:276|236:280,1,100.000000596046,4|2,0:0|0:0,0:0:0:0:
332,276,113243,5,8,0:0:0:0:
440,272,113588,1,2,0:0:0:0:
352,204,113933,2,0,P|284:132|272:36,1,200.000001192092,4|8,0:0|0:0,0:0:0:0:
176,88,114967,1,2,0:0:0:0:
96,164,115312,2,0,P|64:204|36:268,2,100.000000596046,4|2|8,0:0|0:0|0:0,0:0:0:0:
196,116,116346,5,2,0:0:0:0:
192,228,116691,2,0,P|164:288|40:352,1,200.000001192092,4|8,0:0|0:0,0:0:0:0:
112,260,117726,1,2,0:0:0:0:
212,308,118071,2,0,P|264:332|320:312,1,100.000000596046,4|2,0:0|0:0,0:0:0:0:
404,292,118760,5,8,0:0:0:0:
496,232,119105,1,2,0:0:0:0:
432,140,119450,2,0,B|384:100|384:100|312:152|248:164,1,200.000001192092,4|8,0:0|0:0,0:0:0:0:
152,180,120484,2,12,B|96:203|96:203|240:184|340:248,1,300.000001788138,4|0,0:0|0:0,0:0:0:0:
