osu file format v14

[General]
AudioFilename: willi.ogg
AudioLeadIn: 0
PreviewTime: 13069
Countdown: 0
SampleSet: Normal
StackLeniency: 0
Mode: 1
LetterboxInBreaks: 0
WidescreenStoryboard: 1

[Editor]
Bookmarks: 59,2668,13103,20929,31363,36581,40494
DistanceSpacing: 1
BeatDivisor: 2
GridSize: 16
TimelineZoom: 1.4

[Metadata]
Title:Willi wills wissen
TitleUnicode:Willi wills wissen
Artist:Dieter Holesch & Ecco Meineke
ArtistUnicode:Dieter Holesch & Ecco Meineke
Creator:liku
Version:Mittel
Source:Willi wills wissen
Tags:fernseh-hits für kids 2 german tv show main theme weitzel education entertainment edutainment br bayerischer rundfunk megaherz film und fernsehen institut bild in wissenschaft unterricht hhr10031-2 hhr20008 hi-hat records
BeatmapID:3488627
BeatmapSetID:1707309

[Difficulty]
HPDrainRate:8
CircleSize:5
OverallDifficulty:4
ApproachRate:5
SliderMultiplier:1.4
SliderTickRate:1

[Events]
//Background and Video events
0,0,"fwefwe.jpg",0,-28
//Break Periods
//Storyboard Layer 0 (Background)
//Storyboard Layer 1 (Fail)
//Storyboard Layer 2 (Pass)
//Storyboard Layer 3 (Foreground)
//Storyboard Layer 4 (Overlay)
//Storyboard Sound Samples

[TimingPoints]
26,326.086956521739,4,1,0,80,1,0
26,-111.111111111111,4,1,0,80,0,0
13069,-111.111111111111,4,1,0,80,0,1
18286,-111.111111111111,4,1,0,80,0,0
31330,-111.111111111111,4,1,0,80,0,1
36547,-111.111111111111,4,1,0,80,0,0

[HitObjects]
177,126,26,5,12,0:0:0:0:
146,103,352,1,4,0:0:0:0:
157,137,678,1,12,0:0:0:0:
178,159,1330,1,4,0:0:0:0:
146,103,1656,1,12,0:0:0:0:
144,128,1982,1,4,0:0:0:0:
139,136,2634,1,8,0:0:0:0:
157,137,2960,1,0,0:0:0:0:
78,89,3286,1,8,0:0:0:0:
157,137,3775,1,8,0:0:0:0:
78,89,3939,1,0,0:0:0:0:
203,149,4265,1,0,0:0:0:0:
160,182,4428,1,8,0:0:0:0:
78,89,5243,1,0,0:0:0:0:
112,106,5569,1,8,0:0:0:0:
112,106,5732,1,0,0:0:0:0:
93,115,5895,1,8,0:0:0:0:
93,115,6221,1,8,0:0:0:0:
93,115,6547,1,0,0:0:0:0:
112,106,6873,1,8,0:0:0:0:
108,107,7036,1,0,0:0:0:0:
112,106,7852,1,8,0:0:0:0:
108,107,8178,1,0,0:0:0:0:
108,107,8341,1,0,0:0:0:0:
93,127,8504,1,8,0:0:0:0:
112,102,8993,1,0,0:0:0:0:
93,127,9156,1,0,0:0:0:0:
131,138,9482,1,8,0:0:0:0:
140,78,9645,1,0,0:0:0:0:
140,78,9808,1,8,0:0:0:0:
137,86,10460,1,8,0:0:0:0:
137,86,10786,1,0,0:0:0:0:
99,119,11112,1,8,0:0:0:0:
137,86,11439,1,0,0:0:0:0:
99,119,11765,1,8,0:0:0:0:
137,86,11928,1,0,0:0:0:0:
145,91,12091,1,8,0:0:0:0:
142,92,12254,1,0,0:0:0:0:
93,127,12417,1,12,0:0:0:0:
79,128,13069,1,4,0:0:0:0:
134,135,13395,1,8,0:0:0:0:
124,137,13558,1,8,0:0:0:0:
155,126,13721,1,0,0:0:0:0:
74,130,14047,1,8,0:0:0:0:
74,130,14373,1,0,0:0:0:0:
87,166,14699,1,8,0:0:0:0:
87,166,14862,1,0,0:0:0:0:
23,110,15352,1,0,0:0:0:0:
74,130,15678,1,0,0:0:0:0:
146,155,16004,1,8,0:0:0:0:
146,155,16167,1,8,0:0:0:0:
137,157,16330,1,0,0:0:0:0:
152,128,16656,1,8,0:0:0:0:
63,132,16982,1,0,0:0:0:0:
127,162,17308,1,8,0:0:0:0:
120,166,17471,1,0,0:0:0:0:
117,133,18286,1,12,0:0:0:0:
147,102,18612,1,4,0:0:0:0:
154,148,18939,1,12,0:0:0:0:
116,134,19591,1,4,0:0:0:0:
147,102,19917,1,12,0:0:0:0:
176,112,20243,1,4,0:0:0:0:
112,135,20895,1,8,0:0:0:0:
78,155,21221,1,0,0:0:0:0:
72,154,21547,1,8,0:0:0:0:
489,71,21710,1,0,0:0:0:0:
103,89,21873,1,8,0:0:0:0:
72,154,22199,1,0,0:0:0:0:
161,119,22525,1,0,0:0:0:0:
99,92,22689,1,8,0:0:0:0:
148,124,23504,1,0,0:0:0:0:
101,117,23830,1,0,0:0:0:0:
76,158,24156,1,8,0:0:0:0:
134,106,24482,1,8,0:0:0:0:
62,152,24808,1,0,0:0:0:0:
91,120,25134,1,0,0:0:0:0:
91,120,25297,1,8,0:0:0:0:
56,148,26112,1,0,0:0:0:0:
145,94,26439,1,0,0:0:0:0:
75,111,26602,5,0,0:0:0:0:
305,129,26765,1,8,0:0:0:0:
85,106,27254,1,0,0:0:0:0:
85,106,27417,1,8,0:0:0:0:
26,98,27743,1,8,0:0:0:0:
71,107,27906,1,0,0:0:0:0:
305,129,28069,1,8,0:0:0:0:
59,140,28721,1,0,0:0:0:0:
122,86,29047,1,0,0:0:0:0:
59,140,29373,1,8,0:0:0:0:
122,86,29699,1,8,0:0:0:0:
305,132,30025,1,8,0:0:0:0:
113,95,30189,1,8,0:0:0:0:
305,132,30352,1,0,0:0:0:0:
113,95,30515,1,0,0:0:0:0:
113,95,30678,1,12,0:0:0:0:
79,128,31330,1,4,0:0:0:0:
119,80,31656,1,8,0:0:0:0:
119,80,31819,1,0,0:0:0:0:
116,85,31982,1,8,0:0:0:0:
74,130,32308,1,8,0:0:0:0:
74,130,32634,1,0,0:0:0:0:
104,118,32960,1,8,0:0:0:0:
155,126,33123,1,0,0:0:0:0:
74,130,33939,1,0,0:0:0:0:
163,112,34265,1,8,0:0:0:0:
163,112,34428,1,0,0:0:0:0:
152,128,34591,1,8,0:0:0:0:
63,132,34917,1,8,0:0:0:0:
152,128,35243,1,0,0:0:0:0:
111,117,35569,1,8,0:0:0:0:
152,128,35732,1,0,0:0:0:0:
117,133,36547,1,12,0:0:0:0:
96,51,36873,1,4,0:0:0:0:
132,114,37199,1,12,0:0:0:0:
116,134,37852,1,4,0:0:0:0:
88,54,38178,1,4,0:0:0:0:
88,54,38504,1,12,0:0:0:0:
145,125,39156,5,12,0:0:0:0:
174,144,39645,1,8,0:0:0:0:
145,125,39808,1,0,0:0:0:0:
92,177,40134,1,8,0:0:0:0:
156,154,40297,1,8,0:0:0:0:
92,177,40460,1,4,0:0:0:0:
