osu file format v14

[General]
AudioFilename: willi.ogg
AudioLeadIn: 0
PreviewTime: 13069
Countdown: 0
SampleSet: Normal
StackLeniency: 0
Mode: 1
LetterboxInBreaks: 0
WidescreenStoryboard: 1

[Editor]
Bookmarks: 59,2668,13103,20929,31363,36581,40494
DistanceSpacing: 1
BeatDivisor: 2
GridSize: 16
TimelineZoom: 1.7

[Metadata]
Title:Willi wills wissen
TitleUnicode:Willi wills wissen
Artist:Dieter Holesch & Ecco Meineke
ArtistUnicode:Dieter Holesch & Ecco Meineke
Creator:liku
Version:Grundwissen
Source:Willi wills wissen
Tags:fernseh-hits für kids 2 german tv show main theme weitzel education entertainment edutainment br bayerischer rundfunk megaherz film und fernsehen institut bild in wissenschaft unterricht hhr10031-2 hhr20008 hi-hat records
BeatmapID:3488923
BeatmapSetID:1707309

[Difficulty]
HPDrainRate:6.5
CircleSize:5
OverallDifficulty:5.5
ApproachRate:5
SliderMultiplier:1.4
SliderTickRate:1

[Events]
//Background and Video events
0,0,"fwefwe.jpg",0,-28
//Break Periods
//Storyboard Layer 0 (Background)
//Storyboard Layer 1 (Fail)
//Storyboard Layer 2 (Pass)
//Storyboard Layer 3 (Foreground)
//Storyboard Layer 4 (Overlay)
//Storyboard Sound Samples

[TimingPoints]
26,326.086956521739,4,1,0,80,1,0
26,-83.3333333333333,4,1,0,80,0,0
2308,-100,4,1,0,60,0,0
2598,-100,4,1,0,80,0,0
11683,-96.1538461538461,4,1,0,80,0,0
11846,-92.5925925925926,4,1,0,80,0,0
12009,-89.2857142857143,4,1,0,80,0,0
12172,-86.2068965517241,4,1,0,80,0,0
12335,-83.3333333333333,4,1,0,80,0,0
13069,-83.3333333333333,4,1,0,80,0,1
13232,-100,4,1,0,80,0,1
18286,-83.3333333333333,4,1,0,80,0,0
19102,-90.9090909090909,4,1,0,80,0,0
19428,-83.3333333333333,4,1,0,80,0,0
20406,-90.9090909090909,4,1,0,80,0,0
20732,-100,4,1,0,80,0,0
29944,-96.1538461538461,4,1,0,80,0,0
30107,-92.5925925925926,4,1,0,80,0,0
30270,-89.2857142857143,4,1,0,80,0,0
30433,-86.2068965517241,4,1,0,80,0,0
30596,-83.3333333333333,4,1,0,80,0,0
31330,-83.3333333333333,4,1,0,80,0,1
31493,-100,4,1,0,80,0,1
36547,-83.3333333333333,4,1,0,80,0,0
38422,-80,4,1,0,80,0,0
38993,-95.2380952380952,4,1,0,80,0,0
39564,-90.9090909090909,4,1,0,80,0,0
39727,-87.719298245614,4,1,0,80,0,0
39890,-84.7457627118644,4,1,0,80,0,0
40053,-81.9672131147541,4,1,0,80,0,0
40216,-79.3650793650794,4,1,0,80,0,0
40379,-76.9230769230769,4,1,0,80,0,0

[HitObjects]
177,126,26,5,12,0:0:0:0:
211,129,189,1,4,0:0:0:0:
201,138,352,1,12,0:0:0:0:
160,113,515,1,4,0:0:0:0:
157,137,678,1,12,0:0:0:0:
164,165,1330,1,4,0:0:0:0:
114,139,1493,1,12,0:0:0:0:
114,139,1656,1,4,0:0:0:0:
161,113,1819,1,4,0:0:0:0:
114,139,1982,1,12,0:0:0:0:
122,170,2525,1,0,0:0:0:0:
139,136,2634,1,8,0:0:0:0:
188,191,2797,1,0,0:0:0:0:
168,120,2960,1,8,0:0:0:0:
168,120,3042,1,8,0:0:0:0:
168,120,3123,1,0,0:0:0:0:
168,120,3286,1,8,0:0:0:0:
168,120,3449,1,0,0:0:0:0:
168,120,3612,1,8,0:0:0:0:
164,126,3775,1,0,0:0:0:0:
164,126,3857,1,0,0:0:0:0:
164,126,3939,1,8,0:0:0:0:
164,126,4102,1,0,0:0:0:0:
165,126,4265,1,8,0:0:0:0:
165,126,4346,1,0,0:0:0:0:
165,126,4428,1,8,0:0:0:0:
151,120,4591,1,0,0:0:0:0:
150,121,4754,1,0,0:0:0:0:
150,121,4917,1,8,0:0:0:0:
151,121,5080,1,8,0:0:0:0:
152,147,5161,1,8,0:0:0:0:
151,121,5243,1,0,0:0:0:0:
180,138,5406,1,0,0:0:0:0:
180,138,5569,1,8,0:0:0:0:
149,146,5650,1,0,0:0:0:0:
149,146,5732,1,8,0:0:0:0:
150,146,5895,1,8,0:0:0:0:
150,146,6058,1,0,0:0:0:0:
150,146,6221,1,8,0:0:0:0:
79,202,6384,1,0,0:0:0:0:
149,146,6547,1,8,0:0:0:0:
88,123,6629,1,0,0:0:0:0:
89,123,6710,1,0,0:0:0:0:
148,182,6792,1,0,0:0:0:0:
112,106,6873,1,8,0:0:0:0:
149,77,7036,1,8,0:0:0:0:
149,77,7199,1,0,0:0:0:0:
128,85,7362,1,0,0:0:0:0:
132,83,7525,1,8,0:0:0:0:
132,83,7852,1,8,0:0:0:0:
190,165,8015,1,0,0:0:0:0:
190,165,8178,1,8,0:0:0:0:
168,114,8259,1,8,0:0:0:0:
168,114,8341,1,0,0:0:0:0:
93,127,8504,1,8,0:0:0:0:
168,114,8667,1,0,0:0:0:0:
159,118,8830,1,8,0:0:0:0:
157,118,8993,1,0,0:0:0:0:
156,118,9074,1,0,0:0:0:0:
91,117,9156,1,8,0:0:0:0:
90,117,9319,1,0,0:0:0:0:
131,138,9482,1,8,0:0:0:0:
144,84,9564,1,8,0:0:0:0:
150,119,9645,1,0,0:0:0:0:
149,119,9727,1,0,0:0:0:0:
149,119,9808,1,8,0:0:0:0:
146,121,9971,1,0,0:0:0:0:
75,111,10134,1,8,0:0:0:0:
111,89,10297,1,0,0:0:0:0:
137,86,10460,1,8,0:0:0:0:
195,72,10542,1,8,0:0:0:0:
150,119,10623,1,0,0:0:0:0:
149,119,10786,1,8,0:0:0:0:
146,121,10949,1,0,0:0:0:0:
150,119,11112,1,8,0:0:0:0:
182,74,11194,1,8,0:0:0:0:
150,119,11275,1,0,0:0:0:0:
120,164,11439,1,8,0:0:0:0:
120,164,11602,1,0,0:0:0:0:
99,119,11765,1,12,0:0:0:0:
137,86,11928,1,4,0:0:0:0:
145,91,12091,1,12,0:0:0:0:
142,92,12254,1,4,0:0:0:0:
93,127,12417,1,12,0:0:0:0:
178,165,12580,1,8,0:0:0:0:
79,128,13069,1,4,0:0:0:0:
134,135,13395,1,8,0:0:0:0:
124,137,13558,1,8,0:0:0:0:
155,126,13721,1,0,0:0:0:0:
74,130,14047,1,8,0:0:0:0:
74,130,14373,1,0,0:0:0:0:
146,104,14536,1,0,0:0:0:0:
87,166,14699,1,8,0:0:0:0:
87,166,14862,1,0,0:0:0:0:
146,104,15189,1,0,0:0:0:0:
146,104,15352,1,8,0:0:0:0:
74,130,15678,1,0,0:0:0:0:
146,155,16004,1,8,0:0:0:0:
146,155,16167,1,8,0:0:0:0:
137,157,16330,1,0,0:0:0:0:
152,128,16656,1,8,0:0:0:0:
63,132,16982,1,0,0:0:0:0:
137,107,17145,1,0,0:0:0:0:
127,162,17308,1,8,0:0:0:0:
120,166,17471,1,0,0:0:0:0:
146,128,17797,1,0,0:0:0:0:
149,126,17960,1,8,0:0:0:0:
117,133,18286,1,12,0:0:0:0:
211,129,18449,1,12,0:0:0:0:
201,138,18612,1,4,0:0:0:0:
160,113,18775,1,4,0:0:0:0:
154,148,18939,1,12,0:0:0:0:
194,160,19265,1,8,0:0:0:0:
178,159,19591,1,4,0:0:0:0:
114,139,19754,1,12,0:0:0:0:
114,139,19917,1,12,0:0:0:0:
173,113,20080,1,4,0:0:0:0:
114,139,20243,1,12,0:0:0:0:
194,160,20569,1,8,0:0:0:0:
196,122,20786,1,0,0:0:0:0:
112,135,20895,1,8,0:0:0:0:
251,112,21058,1,0,0:0:0:0:
251,112,21221,1,8,0:0:0:0:
251,112,21384,1,8,0:0:0:0:
251,112,21547,1,0,0:0:0:0:
235,118,21629,1,8,0:0:0:0:
235,118,21710,1,0,0:0:0:0:
103,89,21873,1,8,0:0:0:0:
133,146,22036,1,8,0:0:0:0:
72,154,22199,1,0,0:0:0:0:
108,143,22281,1,0,0:0:0:0:
133,146,22362,1,0,0:0:0:0:
133,152,22444,1,0,0:0:0:0:
133,152,22525,1,8,0:0:0:0:
99,92,22689,1,8,0:0:0:0:
160,78,22770,1,0,0:0:0:0:
160,78,22852,1,8,0:0:0:0:
196,65,23015,1,0,0:0:0:0:
196,65,23178,1,8,0:0:0:0:
142,157,23259,1,8,0:0:0:0:
161,43,23341,1,8,0:0:0:0:
148,124,23504,1,0,0:0:0:0:
148,183,23667,1,8,0:0:0:0:
101,117,23830,1,0,0:0:0:0:
131,81,23911,1,8,0:0:0:0:
156,73,23993,1,0,0:0:0:0:
156,73,24156,1,8,0:0:0:0:
124,80,24319,1,0,0:0:0:0:
156,73,24400,1,0,0:0:0:0:
134,106,24482,1,8,0:0:0:0:
156,73,24645,1,0,0:0:0:0:
62,152,24808,1,8,0:0:0:0:
156,149,24890,1,8,0:0:0:0:
127,84,24971,1,0,0:0:0:0:
156,149,25053,1,0,0:0:0:0:
127,84,25134,1,8,0:0:0:0:
128,84,25297,1,0,0:0:0:0:
92,161,25379,1,8,0:0:0:0:
126,85,25460,1,0,0:0:0:0:
117,149,25623,1,8,0:0:0:0:
117,149,25786,1,8,0:0:0:0:
56,148,26112,1,0,0:0:0:0:
182,128,26275,1,0,0:0:0:0:
145,94,26439,1,8,0:0:0:0:
151,162,26520,1,0,0:0:0:0:
151,162,26602,1,8,0:0:0:0:
305,129,26765,1,0,0:0:0:0:
151,162,26928,1,0,0:0:0:0:
148,118,27091,1,8,0:0:0:0:
155,160,27254,1,0,0:0:0:0:
207,62,27335,1,0,0:0:0:0:
176,106,27417,1,8,0:0:0:0:
178,106,27580,1,8,0:0:0:0:
305,129,27743,1,0,0:0:0:0:
161,145,27824,1,8,0:0:0:0:
134,96,27906,1,0,0:0:0:0:
132,108,27987,1,0,0:0:0:0:
305,129,28069,1,8,0:0:0:0:
161,145,28232,1,0,0:0:0:0:
161,145,28395,1,8,0:0:0:0:
59,140,28721,1,8,0:0:0:0:
58,92,28803,1,0,0:0:0:0:
76,133,28884,1,0,0:0:0:0:
76,133,29047,1,8,0:0:0:0:
76,133,29210,1,0,0:0:0:0:
76,133,29373,1,8,0:0:0:0:
76,133,29455,1,0,0:0:0:0:
64,99,29536,1,0,0:0:0:0:
63,99,29699,1,8,0:0:0:0:
212,189,29862,1,0,0:0:0:0:
305,132,30025,1,12,0:0:0:0:
113,95,30189,1,12,0:0:0:0:
305,132,30352,1,4,0:0:0:0:
113,95,30515,1,4,0:0:0:0:
113,95,30678,1,12,0:0:0:0:
119,144,30841,1,8,0:0:0:0:
79,128,31330,1,4,0:0:0:0:
119,80,31656,1,8,0:0:0:0:
119,80,31819,1,0,0:0:0:0:
116,85,31982,1,8,0:0:0:0:
74,130,32308,1,8,0:0:0:0:
74,130,32634,1,0,0:0:0:0:
172,117,32797,1,0,0:0:0:0:
104,118,32960,1,8,0:0:0:0:
155,126,33123,1,0,0:0:0:0:
115,87,33449,1,0,0:0:0:0:
119,90,33612,1,8,0:0:0:0:
74,130,33939,1,0,0:0:0:0:
163,112,34265,1,8,0:0:0:0:
163,112,34428,1,8,0:0:0:0:
152,128,34591,1,0,0:0:0:0:
63,132,34917,1,8,0:0:0:0:
152,128,35243,1,0,0:0:0:0:
161,180,35406,1,0,0:0:0:0:
111,117,35569,1,8,0:0:0:0:
152,128,35732,1,0,0:0:0:0:
178,137,36058,1,0,0:0:0:0:
178,137,36221,1,8,0:0:0:0:
117,133,36547,1,12,0:0:0:0:
72,100,36710,1,4,0:0:0:0:
72,100,36873,1,12,0:0:0:0:
178,137,37036,1,4,0:0:0:0:
132,114,37199,1,12,0:0:0:0:
116,134,37852,1,4,0:0:0:0:
71,103,38015,1,12,0:0:0:0:
71,103,38178,1,4,0:0:0:0:
176,135,38341,1,4,0:0:0:0:
71,103,38504,1,12,0:0:0:0:
145,125,39156,1,12,0:0:0:0:
174,144,39645,1,8,0:0:0:0:
145,125,39808,1,0,0:0:0:0:
156,154,39971,1,0,0:0:0:0:
92,177,40134,1,8,0:0:0:0:
101,121,40297,1,8,0:0:0:0:
92,177,40460,1,4,0:0:0:0:
