osu file format v14

[General]
AudioFilename: willi.ogg
AudioLeadIn: 0
PreviewTime: 13069
Countdown: 0
SampleSet: Normal
StackLeniency: 0
Mode: 1
LetterboxInBreaks: 0
WidescreenStoryboard: 1

[Editor]
Bookmarks: 59,2668,13103,20929,31363,36581,40494
DistanceSpacing: 1
BeatDivisor: 2
GridSize: 16
TimelineZoom: 1.4

[Metadata]
Title:Willi wills wissen
TitleUnicode:Willi wills wissen
Artist:Dieter Holesch & Ecco Meineke
ArtistUnicode:Dieter Holesch & Ecco Meineke
Creator:liku
Version:Einfach
Source:Willi wills wissen
Tags:fernseh-hits für kids 2 german tv show main theme weitzel education entertainment edutainment br bayerischer rundfunk megaherz film und fernsehen institut bild in wissenschaft unterricht hhr10031-2 hhr20008 hi-hat records
BeatmapID:3488628
BeatmapSetID:1707309

[Difficulty]
HPDrainRate:9
CircleSize:5
OverallDifficulty:3
ApproachRate:5
SliderMultiplier:1.4
SliderTickRate:1

[Events]
//Background and Video events
0,0,"fwefwe.jpg",0,-28
//Break Periods
//Storyboard Layer 0 (Background)
//Storyboard Layer 1 (Fail)
//Storyboard Layer 2 (Pass)
//Storyboard Layer 3 (Foreground)
//Storyboard Layer 4 (Overlay)
//Storyboard Sound Samples

[TimingPoints]
26,326.086956521739,4,1,0,80,1,0
26,-125,4,1,0,80,0,0
13069,-125,4,1,0,80,0,1
18286,-125,4,1,0,80,0,0
31330,-125,4,1,0,80,0,1
36547,-125,4,1,0,80,0,0

[HitObjects]
177,126,26,5,12,0:0:0:0:
195,51,678,1,12,0:0:0:0:
178,159,1330,1,4,0:0:0:0:
166,78,1982,1,4,0:0:0:0:
111,75,2634,1,8,0:0:0:0:
78,89,3286,1,8,0:0:0:0:
78,89,3939,1,0,0:0:0:0:
203,149,4265,1,0,0:0:0:0:
160,182,4591,1,8,0:0:0:0:
78,89,5243,1,0,0:0:0:0:
93,115,5895,1,8,0:0:0:0:
93,115,6221,1,8,0:0:0:0:
93,115,6547,1,0,0:0:0:0:
119,123,7852,1,8,0:0:0:0:
93,127,8504,1,8,0:0:0:0:
93,127,9156,1,0,0:0:0:0:
93,127,9482,1,0,0:0:0:0:
93,127,9808,1,8,0:0:0:0:
16,26,10460,1,0,0:0:0:0:
99,119,11112,1,0,0:0:0:0:
99,119,11765,1,8,0:0:0:0:
111,152,12091,1,0,0:0:0:0:
93,127,12417,1,12,0:0:0:0:
79,128,13069,1,4,0:0:0:0:
155,126,13721,1,8,0:0:0:0:
74,130,14047,1,8,0:0:0:0:
74,130,14373,1,0,0:0:0:0:
162,115,14862,1,8,0:0:0:0:
74,130,15678,1,0,0:0:0:0:
152,128,16330,1,8,0:0:0:0:
152,128,16656,1,8,0:0:0:0:
63,132,16982,1,0,0:0:0:0:
182,94,17471,1,8,0:0:0:0:
117,133,18286,1,12,0:0:0:0:
116,80,18939,1,12,0:0:0:0:
116,134,19591,1,4,0:0:0:0:
116,80,20243,1,4,0:0:0:0:
112,135,20895,1,8,0:0:0:0:
72,154,21547,1,8,0:0:0:0:
72,154,22199,1,0,0:0:0:0:
161,119,22525,1,0,0:0:0:0:
161,119,22852,1,8,0:0:0:0:
148,124,23504,1,0,0:0:0:0:
76,158,24156,1,8,0:0:0:0:
134,106,24482,1,8,0:0:0:0:
62,152,24808,1,0,0:0:0:0:
56,148,26112,1,0,0:0:0:0:
305,129,26765,1,8,0:0:0:0:
53,149,27417,1,8,0:0:0:0:
305,129,27743,1,0,0:0:0:0:
305,129,28069,1,8,0:0:0:0:
59,140,28721,1,0,0:0:0:0:
59,140,29373,1,8,0:0:0:0:
305,132,30025,1,8,0:0:0:0:
305,132,30352,1,8,0:0:0:0:
59,140,30678,1,4,0:0:0:0:
79,128,31330,1,4,0:0:0:0:
155,126,31982,1,8,0:0:0:0:
74,130,32308,1,0,0:0:0:0:
74,130,32634,1,0,0:0:0:0:
155,126,33123,1,8,0:0:0:0:
74,130,33939,1,0,0:0:0:0:
152,128,34591,1,8,0:0:0:0:
123,93,34917,1,8,0:0:0:0:
123,93,35243,1,0,0:0:0:0:
152,128,35732,1,8,0:0:0:0:
117,133,36547,1,12,0:0:0:0:
123,93,37199,1,12,0:0:0:0:
116,134,37852,1,4,0:0:0:0:
123,93,38504,1,12,0:0:0:0:
145,125,39156,5,12,0:0:0:0:
145,125,39808,1,0,0:0:0:0:
92,177,40134,1,8,0:0:0:0:
92,177,40460,1,4,0:0:0:0:
