osu file format v14

[General]
AudioFilename: audio.mp3
AudioLeadIn: 0
PreviewTime: 13542
Countdown: 0
SampleSet: Drum
StackLeniency: 0.7
Mode: 3
LetterboxInBreaks: 0
SpecialStyle: 0
WidescreenStoryboard: 1

[Editor]
DistanceSpacing: 1
BeatDivisor: 4
GridSize: 16
TimelineZoom: 1

[Metadata]
Title:Willi wills wissen
TitleUnicode:Willi wills wissen
Artist:Dieter Holesch & Ecco Meineke
ArtistUnicode:Dieter Holesch & Ecco Meineke
Creator:Niko_Plays
Version:Normal
Source:Willi wills wissen
Tags:maxim-miau ikira fernseh-hits für kids 2 german tv show main theme weitzel education entertainment edutainment br bayerischer rundfunk megaherz film und fernsehen institut bild in wissenschaft unterricht hhr10031-2 hhr20008 hi-hat records other
BeatmapID:2784376
BeatmapSetID:1343736

[Difficulty]
HPDrainRate:7.5
CircleSize:4
OverallDifficulty:7.5
ApproachRate:5
SliderMultiplier:1.4
SliderTickRate:1

[Events]
//Background and Video events
0,0,"fwefwe.jpg",0,0
//Break Periods
//Storyboard Layer 0 (Background)
//Storyboard Layer 1 (Fail)
//Storyboard Layer 2 (Pass)
//Storyboard Layer 3 (Foreground)
//Storyboard Layer 4 (Overlay)
//Storyboard Sound Samples

[TimingPoints]
174,326.086956521739,4,3,3,80,1,0
13543,-100,4,3,3,80,0,1
21043,-100,4,3,3,80,0,0
31804,-100,4,3,3,80,0,1
38652,-100,4,3,3,80,0,0

[HitObjects]
64,192,174,5,4,0:0:0:0:
192,192,174,1,2,0:0:0:0:
320,192,500,1,2,0:0:0:0:
448,192,500,1,0,0:0:0:0:
64,192,826,1,8,0:0:0:0:
192,192,826,1,0,0:0:0:0:
448,192,1152,1,0,0:0:0:0:
320,192,1478,1,4,0:0:0:0:
448,192,1478,1,2,0:0:0:0:
64,192,1804,1,2,0:0:0:0:
192,192,1804,1,0,0:0:0:0:
320,192,2130,1,8,0:0:0:0:
448,192,2130,1,0,0:0:0:0:
64,192,2782,1,4,0:0:0:0:
448,192,2782,1,2,0:0:0:0:
320,192,2945,1,0,0:0:0:0:
64,192,3108,1,8,0:0:0:0:
192,192,3108,1,0,0:0:0:0:
448,192,3271,1,0,0:0:0:0:
320,192,3434,1,2,0:0:0:0:
192,192,3597,1,2,0:0:0:0:
64,192,3760,1,8,0:0:0:0:
320,192,3760,1,0,0:0:0:0:
192,192,4087,1,2,0:0:0:0:
320,192,4250,1,0,0:0:0:0:
64,192,4413,1,8,0:0:0:0:
448,192,4413,1,0,0:0:0:0:
192,192,4576,1,0,0:0:0:0:
320,192,4739,1,2,0:0:0:0:
64,192,4902,1,2,0:0:0:0:
192,192,5065,1,8,0:0:0:0:
448,192,5065,1,0,0:0:0:0:
320,192,5228,1,0,0:0:0:0:
448,192,5391,1,2,0:0:0:0:
64,192,5554,1,2,0:2:0:0:
192,192,5554,1,0,0:0:0:0:
320,192,5717,1,8,0:0:0:0:
448,192,5717,1,0,0:0:0:0:
64,192,5880,1,0,0:0:0:0:
192,192,6043,1,2,0:0:0:0:
320,192,6206,1,2,0:0:0:0:
64,192,6369,1,8,0:0:0:0:
448,192,6369,1,0,0:0:0:0:
320,192,6695,1,2,0:0:0:0:
448,192,6858,1,0,0:0:0:0:
64,192,7021,1,8,0:0:0:0:
192,192,7021,1,0,0:0:0:0:
448,192,7184,1,0,0:0:0:0:
320,192,7347,1,2,0:0:0:0:
64,192,7510,1,2,0:0:0:0:
192,192,7673,1,2,0:2:0:0:
448,192,7673,1,8,0:0:0:0:
64,192,7837,1,2,0:2:0:0:
320,192,7837,1,0,0:0:0:0:
448,192,8000,1,2,0:0:0:0:
64,192,8163,1,2,0:2:0:0:
192,192,8163,1,0,0:0:0:0:
320,192,8326,1,8,0:0:0:0:
448,192,8326,1,0,0:0:0:0:
192,192,8489,1,0,0:0:0:0:
320,192,8652,1,2,0:0:0:0:
64,192,8978,1,8,0:0:0:0:
320,192,8978,1,0,0:0:0:0:
448,192,9141,1,0,0:0:0:0:
320,192,9304,1,2,0:0:0:0:
192,192,9467,1,0,0:0:0:0:
64,192,9630,1,8,0:0:0:0:
448,192,9630,1,0,0:0:0:0:
320,192,9793,1,0,0:0:0:0:
192,192,9956,1,2,0:0:0:0:
64,192,10119,1,2,0:0:0:0:
192,192,10282,1,8,0:0:0:0:
448,192,10282,1,0,0:0:0:0:
320,192,10445,1,0,0:0:0:0:
64,192,10608,1,4,0:0:0:0:
192,192,10608,1,2,0:0:0:0:
64,192,10934,1,8,0:0:0:0:
448,192,10934,1,0,0:0:0:0:
192,192,11097,1,0,0:0:0:0:
320,192,11260,1,2,0:0:0:0:
448,192,11260,1,0,0:0:0:0:
64,192,11423,1,2,0:0:0:0:
192,192,11587,1,8,0:0:0:0:
448,192,11587,1,0,0:0:0:0:
320,192,11750,1,0,0:0:0:0:
64,192,11913,1,2,0:2:0:0:
192,192,11913,1,0,0:0:0:0:
192,192,12239,1,8,0:0:0:0:
320,192,12239,1,2,0:2:0:0:
320,192,12565,1,12,0:0:0:0:
448,192,12565,1,2,0:2:0:0:
192,192,12728,1,2,0:2:0:0:
64,192,12891,1,8,0:0:0:0:
448,192,12891,1,0,0:0:0:0:
320,192,13054,1,0,0:0:0:0:
192,192,13217,1,2,0:0:0:0:
448,192,13217,1,4,0:0:0:0:
64,192,13380,1,0,0:0:0:0:
320,192,13543,1,8,0:0:0:0:
448,192,13543,1,0,0:0:0:0:
192,192,13706,1,8,0:0:0:0:
64,192,13869,1,2,0:0:0:0:
320,192,13869,1,0,0:0:0:0:
448,192,14032,1,0,0:0:0:0:
64,192,14195,1,8,0:0:0:0:
192,192,14195,1,0,0:0:0:0:
320,192,14358,1,0,0:0:0:0:
192,192,14521,1,2,0:0:0:0:
448,192,14521,1,0,0:0:0:0:
64,192,14684,1,0,0:0:0:0:
320,192,14847,1,8,0:0:0:0:
448,192,14847,1,0,0:0:0:0:
64,192,15010,1,8,0:0:0:0:
192,192,15010,1,0,0:0:0:0:
448,192,15173,1,0,0:0:0:0:
320,192,15337,1,0,0:0:0:0:
64,192,15500,1,8,0:0:0:0:
448,192,15500,1,0,0:0:0:0:
64,192,15826,1,2,0:0:0:0:
320,192,15826,1,0,0:0:0:0:
64,192,16152,1,8,0:0:0:0:
192,192,16152,1,0,0:0:0:0:
320,192,16315,1,8,0:0:0:0:
192,192,16478,1,2,0:0:0:0:
448,192,16478,1,0,0:0:0:0:
64,192,16641,1,0,0:0:0:0:
320,192,16804,1,8,0:0:0:0:
448,192,16804,1,0,0:0:0:0:
192,192,16967,1,0,0:0:0:0:
64,192,17130,1,2,0:0:0:0:
448,192,17130,1,0,0:0:0:0:
320,192,17293,1,0,0:0:0:0:
64,192,17456,1,8,0:0:0:0:
192,192,17456,1,0,0:0:0:0:
320,192,17619,1,2,0:0:0:0:
448,192,17619,1,0,0:0:0:0:
192,192,17782,1,0,0:0:0:0:
64,192,17945,1,0,0:0:0:0:
320,192,17945,1,0,0:0:0:0:
192,192,18108,1,8,0:0:0:0:
448,192,18108,1,0,0:0:0:0:
320,192,18434,1,4,0:0:0:0:
448,192,18434,1,2,0:0:0:0:
64,192,18760,1,8,0:0:0:0:
192,192,18760,1,2,0:0:0:0:
320,192,19087,1,2,0:0:0:0:
448,192,19087,1,0,0:0:0:0:
64,192,19413,1,8,0:0:0:0:
64,192,19739,1,2,0:0:0:0:
192,192,19739,1,0,0:0:0:0:
320,192,20065,1,8,0:0:0:0:
448,192,20065,1,2,0:0:0:0:
64,192,20391,1,2,0:0:0:0:
192,192,20391,1,0,0:0:0:0:
192,192,20717,1,8,0:0:0:0:
64,192,21043,1,4,0:0:0:0:
448,192,21043,1,2,0:0:0:0:
192,192,21206,1,0,0:0:0:0:
320,192,21369,1,8,0:0:0:0:
448,192,21369,1,0,0:0:0:0:
64,192,21532,1,0,0:0:0:0:
192,192,21695,1,2,0:0:0:0:
320,192,21858,1,2,0:0:0:0:
192,192,22021,1,8,0:0:0:0:
448,192,22021,1,0,0:0:0:0:
320,192,22347,1,2,0:0:0:0:
192,192,22510,1,0,0:0:0:0:
64,192,22673,1,8,0:0:0:0:
448,192,22673,1,0,0:0:0:0:
320,192,22837,1,0,0:0:0:0:
64,192,23000,1,2,0:0:0:0:
192,192,23000,1,0,0:0:0:0:
448,192,23163,1,2,0:2:0:0:
64,192,23326,1,8,0:0:0:0:
320,192,23326,1,0,0:0:0:0:
192,192,23489,1,0,0:0:0:0:
448,192,23489,1,0,0:0:0:0:
64,192,23652,1,2,0:0:0:0:
320,192,23815,1,4,0:0:0:0:
448,192,23815,1,0,0:0:0:0:
64,192,23978,1,8,0:0:0:0:
192,192,23978,1,0,0:0:0:0:
448,192,24141,1,0,0:0:0:0:
320,192,24304,1,2,0:0:0:0:
192,192,24467,1,2,0:0:0:0:
64,192,24630,1,8,0:0:0:0:
448,192,24630,1,0,0:0:0:0:
192,192,24956,1,2,0:0:0:0:
64,192,25119,1,0,0:0:0:0:
320,192,25282,1,8,0:0:0:0:
448,192,25282,1,0,0:0:0:0:
64,192,25445,1,0,0:0:0:0:
192,192,25608,1,2,0:0:0:0:
320,192,25771,1,2,0:2:0:0:
448,192,25771,1,0,0:0:0:0:
64,192,25934,1,8,0:0:0:0:
192,192,25934,1,0,0:0:0:0:
320,192,26097,1,0,0:0:0:0:
64,192,26260,1,2,0:2:0:0:
448,192,26260,1,0,0:0:0:0:
320,192,26423,1,0,0:0:0:0:
64,192,26587,1,8,0:0:0:0:
192,192,26587,1,0,0:0:0:0:
448,192,26750,1,0,0:0:0:0:
320,192,26913,1,2,0:0:0:0:
192,192,27076,1,2,0:0:0:0:
320,192,27239,1,8,0:0:0:0:
448,192,27239,1,0,0:0:0:0:
64,192,27402,1,0,0:0:0:0:
192,192,27565,1,2,0:0:0:0:
320,192,27728,1,0,0:0:0:0:
64,192,27891,1,8,0:0:0:0:
448,192,27891,1,0,0:0:0:0:
192,192,28054,1,0,0:0:0:0:
320,192,28217,1,2,0:0:0:0:
448,192,28380,1,2,0:0:0:0:
64,192,28543,1,8,0:0:0:0:
320,192,28543,1,0,0:0:0:0:
192,192,28706,1,0,0:0:0:0:
320,192,28869,1,4,0:0:0:0:
448,192,28869,1,2,0:0:0:0:
64,192,29195,1,8,0:0:0:0:
448,192,29195,1,0,0:0:0:0:
320,192,29358,1,0,0:0:0:0:
64,192,29521,1,2,0:0:0:0:
192,192,29521,1,0,0:0:0:0:
448,192,29684,1,2,0:0:0:0:
64,192,29847,1,8,0:0:0:0:
320,192,29847,1,0,0:0:0:0:
192,192,30010,1,0,0:0:0:0:
320,192,30173,1,2,0:0:0:0:
448,192,30173,1,0,0:0:0:0:
192,192,30500,1,8,0:0:0:0:
320,192,30500,1,4,0:0:0:0:
64,192,30826,1,2,0:0:0:0:
192,192,30826,1,0,0:0:0:0:
320,192,30989,1,2,0:0:0:0:
64,192,31152,1,8,0:0:0:0:
448,192,31152,1,0,0:0:0:0:
192,192,31315,1,0,0:0:0:0:
64,192,31478,1,4,0:0:0:0:
320,192,31478,1,2,0:0:0:0:
448,192,31641,1,0,0:0:0:0:
64,192,31804,1,8,0:0:0:0:
192,192,31804,1,0,0:0:0:0:
320,192,31967,1,8,0:0:0:0:
192,192,32130,1,2,0:0:0:0:
448,192,32130,1,0,0:0:0:0:
64,192,32293,1,0,0:0:0:0:
320,192,32456,1,8,0:0:0:0:
448,192,32456,1,0,0:0:0:0:
192,192,32619,1,0,0:0:0:0:
64,192,32782,1,2,0:0:0:0:
320,192,32782,1,0,0:0:0:0:
448,192,32945,1,0,0:0:0:0:
64,192,33108,1,8,0:0:0:0:
192,192,33108,1,0,0:0:0:0:
320,192,33271,1,8,0:0:0:0:
448,192,33271,1,0,0:0:0:0:
64,192,33434,1,0,0:0:0:0:
192,192,33597,1,0,0:0:0:0:
448,192,33597,1,0,0:0:0:0:
64,192,33760,1,8,0:0:0:0:
320,192,33760,1,0,0:0:0:0:
320,192,34087,1,2,0:0:0:0:
448,192,34087,1,0,0:0:0:0:
320,192,34413,1,8,0:0:0:0:
448,192,34413,1,0,0:0:0:0:
192,192,34576,1,8,0:0:0:0:
64,192,34739,1,2,0:0:0:0:
320,192,34739,1,0,0:0:0:0:
448,192,34902,1,0,0:0:0:0:
64,192,35065,1,8,0:0:0:0:
192,192,35065,1,0,0:0:0:0:
320,192,35228,1,0,0:0:0:0:
64,192,35391,1,2,0:0:0:0:
448,192,35391,1,0,0:0:0:0:
192,192,35554,1,0,0:0:0:0:
320,192,35717,1,8,0:0:0:0:
448,192,35717,1,0,0:0:0:0:
64,192,35880,1,2,0:0:0:0:
192,192,35880,1,0,0:0:0:0:
320,192,36043,1,0,0:0:0:0:
192,192,36206,1,0,0:0:0:0:
64,192,36369,1,8,0:0:0:0:
320,192,36369,1,0,0:0:0:0:
64,192,36695,1,4,0:0:0:0:
192,192,36695,1,2,0:0:0:0:
320,192,37021,1,2,0:0:0:0:
448,192,37021,1,0,0:0:0:0:
64,192,37347,1,8,0:0:0:0:
192,192,37347,1,2,0:0:0:0:
448,192,37673,1,0,0:0:0:0:
320,192,38000,1,2,0:0:0:0:
448,192,38000,1,0,0:0:0:0:
64,192,38326,1,2,0:0:0:0:
192,192,38326,1,0,0:0:0:0:
320,192,38652,128,8,39304:0:0:0:0:
448,192,38652,128,2,39304:0:0:0:0:
64,192,39304,1,4,0:0:0:0:
192,192,39304,1,2,0:0:0:0:
448,192,39467,1,0,0:0:0:0:
320,192,39630,1,0,0:0:0:0:
64,192,39793,1,2,0:2:0:0:
192,192,39793,1,0,0:0:0:0:
320,192,39956,1,4,0:0:0:0:
448,192,39956,1,2,0:0:0:0:
64,192,40119,1,2,0:2:0:0:
192,192,40119,1,0,0:0:0:0:
320,192,40282,1,2,0:2:0:0:
448,192,40282,1,0,0:0:0:0:
64,192,40445,1,2,0:2:0:0:
192,192,40445,1,0,0:0:0:0:
320,192,40608,1,2,0:2:0:0:
448,192,40608,1,8,0:0:0:0:
