osu file format v14

[General]
AudioFilename: 01 - White Flag.mp3
AudioLeadIn: 0
PreviewTime: -1
Countdown: 0
SampleSet: None
StackLeniency: 0.7
Mode: 3
LetterboxInBreaks: 0
SpecialStyle: 0
WidescreenStoryboard: 0

[Editor]
DistanceSpacing: 0.8
BeatDivisor: 2
GridSize: 32
TimelineZoom: 1

[Metadata]
Title:White Flag
TitleUnicode:White Flag
Artist:Dido
ArtistUnicode:Dido
Creator:rosepetal
Version:Beginner
Source:
Tags:
BeatmapID:1678704
BeatmapSetID:799544

[Difficulty]
HPDrainRate:5
CircleSize:4
OverallDifficulty:7
ApproachRate:5
SliderMultiplier:1.4
SliderTickRate:1

[Events]
//Background and Video events
//Break Periods
//Storyboard Layer 0 (Background)
//Storyboard Layer 1 (Fail)
//Storyboard Layer 2 (Pass)
//Storyboard Layer 3 (Foreground)
//Storyboard Sound Samples

[TimingPoints]
332,352.941176,4,1,0,100,1,0

[HitObjects]
448,192,1214,5,0,0:0:0:0:
448,192,1391,1,0,0:0:0:0:
448,192,1567,1,0,0:0:0:0:
448,192,1744,1,0,0:0:0:0:
448,192,1920,1,0,0:0:0:0:
448,192,2097,1,0,0:0:0:0:
448,192,2273,1,0,0:0:0:0:
64,192,2450,1,0,0:0:0:0:
64,192,2626,1,0,0:0:0:0:
64,192,2803,1,0,0:0:0:0:
64,192,2979,1,0,0:0:0:0:
64,192,3156,1,0,0:0:0:0:
64,192,3332,1,0,0:0:0:0:
64,192,3508,1,0,0:0:0:0:
64,192,3685,1,0,0:0:0:0:
64,192,3861,1,0,0:0:0:0:
64,192,4038,1,0,0:0:0:0:
64,192,4214,1,0,0:0:0:0:
64,192,4391,1,0,0:0:0:0:
448,192,4567,1,0,0:0:0:0:
448,192,4744,1,0,0:0:0:0:
448,192,4920,1,0,0:0:0:0:
448,192,5097,1,0,0:0:0:0:
448,192,5273,1,0,0:0:0:0:
448,192,5450,1,0,0:0:0:0:
448,192,5626,1,0,0:0:0:0:
448,192,5803,1,0,0:0:0:0:
448,192,5979,1,0,0:0:0:0:
192,192,7038,1,0,0:0:0:0:
192,192,7214,1,0,0:0:0:0:
192,192,7391,1,0,0:0:0:0:
192,192,7567,1,0,0:0:0:0:
192,192,7744,1,0,0:0:0:0:
192,192,7920,1,0,0:0:0:0:
192,192,8097,1,0,0:0:0:0:
192,192,8273,1,0,0:0:0:0:
192,192,8450,1,0,0:0:0:0:
192,192,8626,1,0,0:0:0:0:
320,192,8803,1,0,0:0:0:0:
320,192,8979,1,0,0:0:0:0:
320,192,9156,1,0,0:0:0:0:
320,192,9332,1,0,0:0:0:0:
320,192,9508,1,0,0:0:0:0:
320,192,9685,1,0,0:0:0:0:
448,192,9861,1,0,0:0:0:0:
448,192,10038,1,0,0:0:0:0:
448,192,10214,1,0,0:0:0:0:
448,192,10391,1,0,0:0:0:0:
448,192,10567,1,0,0:0:0:0:
448,192,10744,1,0,0:0:0:0:
448,192,10920,1,0,0:0:0:0:
448,192,11097,1,0,0:0:0:0:
448,192,11273,1,0,0:0:0:0:
64,192,12508,1,0,0:0:0:0:
448,192,12508,1,0,0:0:0:0:
192,192,12597,1,0,0:0:0:0:
320,192,12597,1,0,0:0:0:0:
64,192,12685,1,0,0:0:0:0:
448,192,12685,1,0,0:0:0:0:
192,192,12773,1,0,0:0:0:0:
320,192,12773,1,0,0:0:0:0:
64,192,12861,1,0,0:0:0:0:
448,192,12861,1,0,0:0:0:0:
192,192,12950,1,0,0:0:0:0:
320,192,12950,1,0,0:0:0:0:
64,192,13038,1,0,0:0:0:0:
448,192,13038,1,0,0:0:0:0:
320,192,13126,1,0,0:0:0:0:
448,192,13214,1,0,0:0:0:0:
320,192,13303,1,0,0:0:0:0:
448,192,13391,1,0,0:0:0:0:
320,192,13479,1,0,0:0:0:0:
192,192,13567,1,0,0:0:0:0:
64,192,13656,1,0,0:0:0:0:
192,192,13744,1,0,0:0:0:0:
320,192,13803,1,0,0:0:0:0:
448,192,13861,1,0,0:0:0:0:
64,192,13920,1,0,0:0:0:0:
192,192,13979,1,0,0:0:0:0:
320,192,14038,1,0,0:0:0:0:
448,192,14097,1,0,0:0:0:0:
64,192,14156,1,0,0:0:0:0:
192,192,14214,1,0,0:0:0:0:
320,192,14273,1,0,0:0:0:0:
448,192,14332,1,0,0:0:0:0:
64,192,14391,1,0,0:0:0:0:
192,192,14450,1,0,0:0:0:0:
320,192,14508,1,0,0:0:0:0:
448,192,14567,1,0,0:0:0:0:
64,192,14626,1,0,0:0:0:0:
192,192,14685,1,0,0:0:0:0:
320,192,14744,1,0,0:0:0:0:
448,192,14803,128,0,15156:0:0:0:0:
64,192,15156,1,0,0:0:0:0:
64,192,15332,1,0,0:0:0:0:
64,192,15508,1,0,0:0:0:0:
64,192,15685,1,0,0:0:0:0:
64,192,15861,1,0,0:0:0:0:
64,192,16038,1,0,0:0:0:0:
64,192,16214,1,0,0:0:0:0:
448,192,16214,1,0,0:0:0:0:
320,192,16303,1,0,0:0:0:0:
64,192,16391,1,0,0:0:0:0:
448,192,16391,1,0,0:0:0:0:
320,192,16479,1,0,0:0:0:0:
64,192,16567,1,0,0:0:0:0:
448,192,16567,1,0,0:0:0:0:
320,192,16656,1,0,0:0:0:0:
64,192,16744,1,0,0:0:0:0:
448,192,16744,1,0,0:0:0:0:
320,192,16832,1,0,0:0:0:0:
64,192,16920,1,0,0:0:0:0:
448,192,16920,1,0,0:0:0:0:
320,192,17008,1,0,0:0:0:0:
64,192,17097,1,0,0:0:0:0:
448,192,17097,1,0,0:0:0:0:
320,192,17185,1,0,0:0:0:0:
64,192,17273,1,0,0:0:0:0:
448,192,17273,1,0,0:0:0:0:
320,192,17361,1,0,0:0:0:0:
64,192,17450,1,0,0:0:0:0:
448,192,17450,1,0,0:0:0:0:
64,192,17979,1,0,0:0:0:0:
320,192,17979,1,0,0:0:0:0:
448,192,17979,1,0,0:0:0:0:
192,192,18067,1,0,0:0:0:0:
64,192,18156,1,0,0:0:0:0:
320,192,18156,1,0,0:0:0:0:
448,192,18156,1,0,0:0:0:0:
192,192,18244,1,0,0:0:0:0:
64,192,18332,1,0,0:0:0:0:
320,192,18332,1,0,0:0:0:0:
448,192,18332,1,0,0:0:0:0:
192,192,18420,1,0,0:0:0:0:
64,192,18508,1,0,0:0:0:0:
320,192,18508,1,0,0:0:0:0:
448,192,18508,1,0,0:0:0:0:
192,192,18597,1,0,0:0:0:0:
64,192,18685,1,0,0:0:0:0:
320,192,18685,1,0,0:0:0:0:
448,192,18685,1,0,0:0:0:0:
192,192,18861,1,0,0:0:0:0:
64,192,19038,1,0,0:0:0:0:
192,192,19038,1,0,0:0:0:0:
320,192,19038,1,0,0:0:0:0:
448,192,19038,1,0,0:0:0:0:
192,192,19214,1,0,0:0:0:0:
64,192,19391,1,0,0:0:0:0:
192,192,19391,1,0,0:0:0:0:
320,192,19391,1,0,0:0:0:0:
448,192,19391,1,0,0:0:0:0:
64,192,19567,1,0,0:0:0:0:
192,192,19567,1,0,0:0:0:0:
320,192,19567,1,0,0:0:0:0:
448,192,19567,1,0,0:0:0:0:
320,192,19744,1,0,0:0:0:0:
320,192,19920,1,0,0:0:0:0:
320,192,20097,1,0,0:0:0:0:
320,192,20273,1,0,0:0:0:0:
320,192,20450,1,0,0:0:0:0:
320,192,20626,1,0,0:0:0:0:
320,192,20803,1,0,0:0:0:0:
64,192,20891,1,0,0:0:0:0:
192,192,20891,1,0,0:0:0:0:
448,192,20891,1,0,0:0:0:0:
320,192,20979,1,0,0:0:0:0:
64,192,21067,1,0,0:0:0:0:
192,192,21067,1,0,0:0:0:0:
448,192,21067,1,0,0:0:0:0:
320,192,21156,1,0,0:0:0:0:
64,192,21244,1,0,0:0:0:0:
192,192,21244,1,0,0:0:0:0:
448,192,21244,1,0,0:0:0:0:
320,192,21332,1,0,0:0:0:0:
64,192,21420,1,0,0:0:0:0:
192,192,21420,1,0,0:0:0:0:
448,192,21420,1,0,0:0:0:0:
320,192,21508,1,0,0:0:0:0:
320,192,21685,1,0,0:0:0:0:
64,192,21861,1,0,0:0:0:0:
192,192,21861,1,0,0:0:0:0:
320,192,21861,1,0,0:0:0:0:
448,192,21861,1,0,0:0:0:0:
64,192,22038,1,0,0:0:0:0:
192,192,22038,1,0,0:0:0:0:
320,192,22038,1,0,0:0:0:0:
448,192,22038,1,0,0:0:0:0:
64,192,22214,1,0,0:0:0:0:
192,192,22214,1,0,0:0:0:0:
320,192,22214,1,0,0:0:0:0:
448,192,22214,1,0,0:0:0:0:
64,192,22391,1,0,0:0:0:0:
192,192,22391,1,0,0:0:0:0:
320,192,22391,1,0,0:0:0:0:
448,192,22391,1,0,0:0:0:0:
64,192,22567,1,0,0:0:0:0:
192,192,22567,1,0,0:0:0:0:
320,192,22567,1,0,0:0:0:0:
448,192,22567,1,0,0:0:0:0:
64,192,22920,1,0,0:0:0:0:
192,192,22964,1,0,0:0:0:0:
448,192,23008,1,0,0:0:0:0:
320,192,23053,1,0,0:0:0:0:
192,192,23097,1,0,0:0:0:0:
64,192,23141,1,0,0:0:0:0:
192,192,23185,1,0,0:0:0:0:
320,192,23229,1,0,0:0:0:0:
448,192,23273,1,0,0:0:0:0:
320,192,23317,1,0,0:0:0:0:
192,192,23361,1,0,0:0:0:0:
64,192,23406,1,0,0:0:0:0:
448,192,23406,1,0,0:0:0:0:
320,192,23450,1,0,0:0:0:0:
192,192,23494,1,0,0:0:0:0:
64,192,23538,1,0,0:0:0:0:
448,192,23538,1,0,0:0:0:0:
320,192,23582,1,0,0:0:0:0:
192,192,23626,1,0,0:0:0:0:
64,192,23803,1,0,0:0:0:0:
448,192,23803,1,0,0:0:0:0:
64,192,23979,1,0,0:0:0:0:
320,192,23979,1,0,0:0:0:0:
64,192,24156,1,0,0:0:0:0:
192,192,24156,1,0,0:0:0:0:
64,192,24332,1,0,0:0:0:0:
320,192,24332,1,0,0:0:0:0:
64,192,24508,1,0,0:0:0:0:
448,192,24508,1,0,0:0:0:0:
64,192,24685,1,0,0:0:0:0:
320,192,24685,1,0,0:0:0:0:
64,192,24861,1,0,0:0:0:0:
320,192,24861,1,0,0:0:0:0:
64,192,25038,1,0,0:0:0:0:
448,192,25038,1,0,0:0:0:0:
320,192,25097,1,0,0:0:0:0:
64,192,25156,1,0,0:0:0:0:
320,192,25214,1,0,0:0:0:0:
64,192,25273,1,0,0:0:0:0:
320,192,25332,1,0,0:0:0:0:
64,192,25391,1,0,0:0:0:0:
192,192,25391,1,0,0:0:0:0:
448,192,25391,1,0,0:0:0:0:
320,192,25450,1,0,0:0:0:0:
64,192,25508,1,0,0:0:0:0:
320,192,25567,1,0,0:0:0:0:
64,192,25626,1,0,0:0:0:0:
320,192,25685,1,0,0:0:0:0:
64,192,25744,1,0,0:0:0:0:
320,192,25803,1,0,0:0:0:0:
64,192,25861,1,0,0:0:0:0:
320,192,25920,1,0,0:0:0:0:
64,192,25979,1,0,0:0:0:0:
320,192,26038,1,0,0:0:0:0:
64,192,26097,1,0,0:0:0:0:
192,192,26273,1,0,0:0:0:0:
320,192,26273,1,0,0:0:0:0:
448,192,26273,1,0,0:0:0:0:
192,192,26450,1,0,0:0:0:0:
320,192,26450,1,0,0:0:0:0:
448,192,26450,1,0,0:0:0:0:
192,192,26626,1,0,0:0:0:0:
320,192,26626,1,0,0:0:0:0:
448,192,26626,1,0,0:0:0:0:
192,192,26803,1,0,0:0:0:0:
320,192,26803,1,0,0:0:0:0:
448,192,26803,1,0,0:0:0:0:
64,192,26979,1,0,0:0:0:0:
64,192,27156,1,0,0:0:0:0:
64,192,27332,1,0,0:0:0:0:
64,192,27508,1,0,0:0:0:0:
448,192,27508,1,0,0:0:0:0:
192,192,27597,1,0,0:0:0:0:
64,192,27685,1,0,0:0:0:0:
448,192,27685,1,0,0:0:0:0:
192,192,27773,1,0,0:0:0:0:
64,192,27861,1,0,0:0:0:0:
448,192,27861,1,0,0:0:0:0:
192,192,27950,1,0,0:0:0:0:
64,192,28038,1,0,0:0:0:0:
448,192,28038,1,0,0:0:0:0:
192,192,28126,1,0,0:0:0:0:
64,192,28214,1,0,0:0:0:0:
448,192,28214,1,0,0:0:0:0:
192,192,28303,1,0,0:0:0:0:
64,192,28391,1,0,0:0:0:0:
448,192,28391,1,0,0:0:0:0:
192,192,28479,1,0,0:0:0:0:
64,192,28567,1,0,0:0:0:0:
448,192,28567,1,0,0:0:0:0:
192,192,28656,1,0,0:0:0:0:
64,192,28744,1,0,0:0:0:0:
448,192,28744,1,0,0:0:0:0:
64,192,29097,1,0,0:0:0:0:
192,192,29097,1,0,0:0:0:0:
320,192,29097,1,0,0:0:0:0:
64,192,29273,1,0,0:0:0:0:
448,192,29273,1,0,0:0:0:0:
448,192,29361,1,0,0:0:0:0:
64,192,29450,1,0,0:0:0:0:
448,192,29450,1,0,0:0:0:0:
448,192,29538,1,0,0:0:0:0:
64,192,29626,1,0,0:0:0:0:
448,192,29626,128,0,31391:0:0:0:0:
64,192,30332,1,0,0:0:0:0:
320,192,30420,1,0,0:0:0:0:
192,192,30508,1,0,0:0:0:0:
64,192,30597,1,0,0:0:0:0:
320,192,30685,1,0,0:0:0:0:
192,192,30773,1,0,0:0:0:0:
64,192,30861,1,0,0:0:0:0:
320,192,30950,1,0,0:0:0:0:
192,192,31038,1,0,0:0:0:0:
64,192,31126,1,0,0:0:0:0:
320,192,31214,1,0,0:0:0:0:
192,192,31303,1,0,0:0:0:0:
64,192,31391,1,0,0:0:0:0:
64,192,31567,1,0,0:0:0:0:
64,192,31744,1,0,0:0:0:0:
64,192,31920,1,0,0:0:0:0:
64,192,32097,1,0,0:0:0:0:
192,192,32097,1,0,0:0:0:0:
448,192,32097,1,0,0:0:0:0:
320,192,32185,1,0,0:0:0:0:
192,192,32273,1,0,0:0:0:0:
448,192,32273,1,0,0:0:0:0:
320,192,32361,1,0,0:0:0:0:
192,192,32450,1,0,0:0:0:0:
448,192,32450,1,0,0:0:0:0:
320,192,32538,1,0,0:0:0:0:
192,192,32626,1,0,0:0:0:0:
448,192,32626,1,0,0:0:0:0:
320,192,32714,1,0,0:0:0:0:
192,192,32803,1,0,0:0:0:0:
448,192,32803,1,0,0:0:0:0:
320,192,32979,1,0,0:0:0:0:
64,192,33156,1,0,0:0:0:0:
192,192,33156,1,0,0:0:0:0:
320,192,33156,1,0,0:0:0:0:
448,192,33156,1,0,0:0:0:0:
64,192,33332,1,0,0:0:0:0:
192,192,33332,1,0,0:0:0:0:
320,192,33332,1,0,0:0:0:0:
448,192,33332,1,0,0:0:0:0:
64,192,33508,1,0,0:0:0:0:
192,192,33508,1,0,0:0:0:0:
320,192,33508,1,0,0:0:0:0:
448,192,33508,1,0,0:0:0:0:
64,192,33685,1,0,0:0:0:0:
192,192,33685,1,0,0:0:0:0:
320,192,33685,1,0,0:0:0:0:
448,192,33685,1,0,0:0:0:0:
64,192,33861,1,0,0:0:0:0:
192,192,33861,1,0,0:0:0:0:
320,192,33861,1,0,0:0:0:0:
448,192,33861,1,0,0:0:0:0:
64,192,34038,1,0,0:0:0:0:
192,192,34038,1,0,0:0:0:0:
320,192,34038,1,0,0:0:0:0:
448,192,34038,1,0,0:0:0:0:
448,192,34214,1,0,0:0:0:0:
320,192,34258,1,0,0:0:0:0:
64,192,34303,1,0,0:0:0:0:
192,192,34347,1,0,0:0:0:0:
320,192,34391,1,0,0:0:0:0:
448,192,34435,1,0,0:0:0:0:
320,192,34479,1,0,0:0:0:0:
64,192,34523,1,0,0:0:0:0:
192,192,34567,1,0,0:0:0:0:
192,192,34920,1,0,0:0:0:0:
448,192,34920,1,0,0:0:0:0:
320,192,34979,1,0,0:0:0:0:
448,192,35038,1,0,0:0:0:0:
320,192,35097,1,0,0:0:0:0:
192,192,35156,1,0,0:0:0:0:
64,192,35214,1,0,0:0:0:0:
192,192,35273,1,0,0:0:0:0:
448,192,35273,1,0,0:0:0:0:
320,192,35332,1,0,0:0:0:0:
448,192,35391,1,0,0:0:0:0:
320,192,35450,1,0,0:0:0:0:
192,192,35508,1,0,0:0:0:0:
64,192,35567,1,0,0:0:0:0:
192,192,35626,1,0,0:0:0:0:
448,192,35626,1,0,0:0:0:0:
64,192,35979,1,0,0:0:0:0:
448,192,35979,1,0,0:0:0:0:
192,192,36038,1,0,0:0:0:0:
64,192,36097,1,0,0:0:0:0:
192,192,36156,1,0,0:0:0:0:
64,192,36214,1,0,0:0:0:0:
192,192,36273,1,0,0:0:0:0:
64,192,36332,1,0,0:0:0:0:
448,192,36332,1,0,0:0:0:0:
320,192,36391,1,0,0:0:0:0:
448,192,36450,1,0,0:0:0:0:
320,192,36508,1,0,0:0:0:0:
448,192,36567,1,0,0:0:0:0:
320,192,36626,1,0,0:0:0:0:
64,192,36685,1,0,0:0:0:0:
448,192,36685,1,0,0:0:0:0:
192,192,36744,1,0,0:0:0:0:
320,192,36803,1,0,0:0:0:0:
192,192,36861,1,0,0:0:0:0:
320,192,36920,1,0,0:0:0:0:
192,192,36979,1,0,0:0:0:0:
64,192,37038,1,0,0:0:0:0:
448,192,37038,1,0,0:0:0:0:
192,192,37391,1,0,0:0:0:0:
320,192,37391,1,0,0:0:0:0:
448,192,37450,1,0,0:0:0:0:
320,192,37508,1,0,0:0:0:0:
192,192,37567,1,0,0:0:0:0:
320,192,37626,1,0,0:0:0:0:
192,192,37685,1,0,0:0:0:0:
64,192,37744,1,0,0:0:0:0:
448,192,37744,1,0,0:0:0:0:
192,192,37803,1,0,0:0:0:0:
448,192,37861,1,0,0:0:0:0:
192,192,37920,1,0,0:0:0:0:
448,192,37979,1,0,0:0:0:0:
320,192,38038,1,0,0:0:0:0:
192,192,38097,1,0,0:0:0:0:
448,192,38097,1,0,0:0:0:0:
64,192,38156,1,0,0:0:0:0:
320,192,38214,1,0,0:0:0:0:
64,192,38273,1,0,0:0:0:0:
320,192,38332,1,0,0:0:0:0:
192,192,38391,1,0,0:0:0:0:
64,192,38450,1,0,0:0:0:0:
320,192,38450,1,0,0:0:0:0:
320,192,38803,1,0,0:0:0:0:
448,192,38803,1,0,0:0:0:0:
192,192,38861,1,0,0:0:0:0:
64,192,38920,1,0,0:0:0:0:
192,192,38979,1,0,0:0:0:0:
320,192,39038,1,0,0:0:0:0:
448,192,39097,1,0,0:0:0:0:
64,192,39156,1,0,0:0:0:0:
192,192,39156,1,0,0:0:0:0:
320,192,39214,1,0,0:0:0:0:
192,192,39273,1,0,0:0:0:0:
320,192,39332,1,0,0:0:0:0:
64,192,39391,1,0,0:0:0:0:
192,192,39450,1,0,0:0:0:0:
320,192,39508,1,0,0:0:0:0:
448,192,39508,1,0,0:0:0:0:
64,192,39567,1,0,0:0:0:0:
448,192,39626,1,0,0:0:0:0:
192,192,39685,1,0,0:0:0:0:
448,192,39744,1,0,0:0:0:0:
320,192,39803,1,0,0:0:0:0:
64,192,39861,1,0,0:0:0:0:
192,192,39861,1,0,0:0:0:0:
192,192,40214,1,0,0:0:0:0:
448,192,40214,1,0,0:0:0:0:
64,192,40273,1,0,0:0:0:0:
320,192,40332,1,0,0:0:0:0:
64,192,40391,1,0,0:0:0:0:
320,192,40450,1,0,0:0:0:0:
64,192,40508,1,0,0:0:0:0:
320,192,40567,1,0,0:0:0:0:
448,192,40567,1,0,0:0:0:0:
192,192,40626,1,0,0:0:0:0:
320,192,40685,1,0,0:0:0:0:
192,192,40744,1,0,0:0:0:0:
320,192,40803,1,0,0:0:0:0:
448,192,40861,1,0,0:0:0:0:
64,192,40920,1,0,0:0:0:0:
320,192,40920,1,0,0:0:0:0:
192,192,40979,1,0,0:0:0:0:
448,192,41038,1,0,0:0:0:0:
192,192,41097,1,0,0:0:0:0:
448,192,41156,1,0,0:0:0:0:
320,192,41214,1,0,0:0:0:0:
64,192,41273,1,0,0:0:0:0:
192,192,41273,1,0,0:0:0:0:
448,192,41332,1,0,0:0:0:0:
64,192,41391,1,0,0:0:0:0:
448,192,41450,1,0,0:0:0:0:
64,192,41508,1,0,0:0:0:0:
192,192,41567,1,0,0:0:0:0:
64,192,41626,1,0,0:0:0:0:
448,192,41626,1,0,0:0:0:0:
192,192,42332,1,0,0:0:0:0:
320,192,42332,1,0,0:0:0:0:
448,192,42332,1,0,0:0:0:0:
64,192,42597,1,0,0:0:0:0:
192,192,42861,1,0,0:0:0:0:
320,192,42861,1,0,0:0:0:0:
448,192,42861,1,0,0:0:0:0:
64,192,43391,1,0,0:0:0:0:
192,192,43391,1,0,0:0:0:0:
320,192,43391,1,0,0:0:0:0:
448,192,43391,1,0,0:0:0:0:
64,192,43744,1,0,0:0:0:0:
192,192,43744,1,0,0:0:0:0:
320,192,43744,1,0,0:0:0:0:
448,192,43744,1,0,0:0:0:0:
64,192,44097,1,0,0:0:0:0:
64,192,44450,1,0,0:0:0:0:
192,192,44450,1,0,0:0:0:0:
64,192,44626,1,0,0:0:0:0:
192,192,44626,1,0,0:0:0:0:
320,192,44626,1,0,0:0:0:0:
64,192,44803,1,0,0:0:0:0:
192,192,44803,1,0,0:0:0:0:
320,192,44803,1,0,0:0:0:0:
448,192,44803,1,0,0:0:0:0:
64,192,45156,1,0,0:0:0:0:
192,192,45156,1,0,0:0:0:0:
320,192,45156,1,0,0:0:0:0:
448,192,45156,1,0,0:0:0:0:
64,192,45508,1,0,0:0:0:0:
448,192,45508,1,0,0:0:0:0:
192,192,45567,1,0,0:0:0:0:
320,192,45626,1,0,0:0:0:0:
448,192,45685,1,0,0:0:0:0:
320,192,45744,1,0,0:0:0:0:
64,192,45803,1,0,0:0:0:0:
192,192,45861,1,0,0:0:0:0:
448,192,45861,1,0,0:0:0:0:
64,192,45920,1,0,0:0:0:0:
192,192,45979,1,0,0:0:0:0:
320,192,46038,1,0,0:0:0:0:
192,192,46097,1,0,0:0:0:0:
320,192,46156,1,0,0:0:0:0:
64,192,46214,1,0,0:0:0:0:
448,192,46214,1,0,0:0:0:0:
192,192,46273,1,0,0:0:0:0:
320,192,46332,1,0,0:0:0:0:
448,192,46391,1,0,0:0:0:0:
64,192,46450,1,0,0:0:0:0:
320,192,46508,1,0,0:0:0:0:
192,192,46567,1,0,0:0:0:0:
448,192,46567,1,0,0:0:0:0:
320,192,46626,1,0,0:0:0:0:
192,192,46685,1,0,0:0:0:0:
64,192,46744,1,0,0:0:0:0:
448,192,46744,1,0,0:0:0:0:
320,192,46803,1,0,0:0:0:0:
192,192,46861,1,0,0:0:0:0:
64,192,46920,1,0,0:0:0:0:
448,192,46920,1,0,0:0:0:0:
320,192,46979,1,0,0:0:0:0:
192,192,47038,1,0,0:0:0:0:
64,192,47097,1,0,0:0:0:0:
448,192,47097,1,0,0:0:0:0:
320,192,47156,1,0,0:0:0:0:
192,192,47214,1,0,0:0:0:0:
64,192,47273,1,0,0:0:0:0:
448,192,47273,1,0,0:0:0:0:
320,192,47332,1,0,0:0:0:0:
192,192,47391,1,0,0:0:0:0:
320,192,47450,1,0,0:0:0:0:
448,192,47508,1,0,0:0:0:0:
192,192,47567,1,0,0:0:0:0:
64,192,47626,1,0,0:0:0:0:
320,192,47626,1,0,0:0:0:0:
448,192,47685,1,0,0:0:0:0:
192,192,47744,1,0,0:0:0:0:
448,192,47803,1,0,0:0:0:0:
192,192,47861,1,0,0:0:0:0:
320,192,47920,1,0,0:0:0:0:
64,192,47979,1,0,0:0:0:0:
448,192,47979,1,0,0:0:0:0:
192,192,48038,1,0,0:0:0:0:
64,192,48097,1,0,0:0:0:0:
320,192,48156,1,0,0:0:0:0:
448,192,48214,1,0,0:0:0:0:
192,192,48273,1,0,0:0:0:0:
64,192,48332,1,0,0:0:0:0:
320,192,48332,1,0,0:0:0:0:
64,192,48508,1,0,0:0:0:0:
448,192,48508,1,0,0:0:0:0:
64,192,48685,1,0,0:0:0:0:
448,192,48685,1,0,0:0:0:0:
320,192,48744,1,0,0:0:0:0:
64,192,48803,1,0,0:0:0:0:
448,192,48861,1,0,0:0:0:0:
320,192,48920,1,0,0:0:0:0:
64,192,48979,1,0,0:0:0:0:
192,192,49038,1,0,0:0:0:0:
448,192,49038,1,0,0:0:0:0:
320,192,49097,1,0,0:0:0:0:
64,192,49156,1,0,0:0:0:0:
320,192,49214,1,0,0:0:0:0:
192,192,49273,1,0,0:0:0:0:
448,192,49332,1,0,0:0:0:0:
64,192,49391,1,0,0:0:0:0:
320,192,49391,1,0,0:0:0:0:
192,192,49450,1,0,0:0:0:0:
320,192,49508,1,0,0:0:0:0:
448,192,49567,1,0,0:0:0:0:
64,192,49626,1,0,0:0:0:0:
192,192,49685,1,0,0:0:0:0:
64,192,49744,1,0,0:0:0:0:
448,192,49744,1,0,0:0:0:0:
320,192,49803,1,0,0:0:0:0:
448,192,49861,1,0,0:0:0:0:
192,192,49920,1,0,0:0:0:0:
64,192,49979,1,0,0:0:0:0:
448,192,50038,1,0,0:0:0:0:
192,192,50097,1,0,0:0:0:0:
320,192,50097,1,0,0:0:0:0:
64,192,50156,1,0,0:0:0:0:
448,192,50214,1,0,0:0:0:0:
192,192,50273,1,0,0:0:0:0:
320,192,50332,1,0,0:0:0:0:
192,192,50391,1,0,0:0:0:0:
64,192,50450,1,0,0:0:0:0:
448,192,50450,1,0,0:0:0:0:
320,192,50508,1,0,0:0:0:0:
448,192,50567,1,0,0:0:0:0:
192,192,50626,1,0,0:0:0:0:
64,192,50685,1,0,0:0:0:0:
320,192,50744,1,0,0:0:0:0:
192,192,50803,1,0,0:0:0:0:
448,192,50803,1,0,0:0:0:0:
64,192,50861,1,0,0:0:0:0:
320,192,50920,1,0,0:0:0:0:
192,192,50979,1,0,0:0:0:0:
448,192,51038,1,0,0:0:0:0:
192,192,51097,1,0,0:0:0:0:
64,192,51156,1,0,0:0:0:0:
320,192,51156,1,0,0:0:0:0:
64,192,51508,1,0,0:0:0:0:
448,192,51508,1,0,0:0:0:0:
64,192,51861,1,0,0:0:0:0:
448,192,51861,1,0,0:0:0:0:
320,192,51920,1,0,0:0:0:0:
192,192,51979,1,0,0:0:0:0:
64,192,52038,1,0,0:0:0:0:
320,192,52097,1,0,0:0:0:0:
64,192,52156,1,0,0:0:0:0:
192,192,52214,1,0,0:0:0:0:
448,192,52214,1,0,0:0:0:0:
320,192,52273,1,0,0:0:0:0:
192,192,52332,1,0,0:0:0:0:
448,192,52391,1,0,0:0:0:0:
192,192,52450,1,0,0:0:0:0:
448,192,52508,1,0,0:0:0:0:
64,192,52567,1,0,0:0:0:0:
320,192,52567,1,0,0:0:0:0:
192,192,52626,1,0,0:0:0:0:
320,192,52685,1,0,0:0:0:0:
448,192,52744,1,0,0:0:0:0:
64,192,52803,1,0,0:0:0:0:
192,192,52861,1,0,0:0:0:0:
64,192,52920,1,0,0:0:0:0:
448,192,52920,1,0,0:0:0:0:
320,192,52979,1,0,0:0:0:0:
192,192,53038,1,0,0:0:0:0:
64,192,53097,1,0,0:0:0:0:
448,192,53097,1,0,0:0:0:0:
320,192,53156,1,0,0:0:0:0:
192,192,53214,1,0,0:0:0:0:
64,192,53273,1,0,0:0:0:0:
192,192,53332,1,0,0:0:0:0:
320,192,53391,1,0,0:0:0:0:
64,192,53450,1,0,0:0:0:0:
448,192,53450,1,0,0:0:0:0:
320,192,53508,1,0,0:0:0:0:
192,192,53567,1,0,0:0:0:0:
64,192,53626,1,0,0:0:0:0:
192,192,53685,1,0,0:0:0:0:
320,192,53744,1,0,0:0:0:0:
64,192,53803,1,0,0:0:0:0:
448,192,53803,1,0,0:0:0:0:
320,192,53861,1,0,0:0:0:0:
192,192,53920,1,0,0:0:0:0:
64,192,53979,1,0,0:0:0:0:
192,192,54038,1,0,0:0:0:0:
320,192,54097,1,0,0:0:0:0:
64,192,54156,1,0,0:0:0:0:
448,192,54156,1,0,0:0:0:0:
64,192,54332,1,0,0:0:0:0:
448,192,54332,1,0,0:0:0:0:
192,192,54508,1,0,0:0:0:0:
320,192,54508,1,0,0:0:0:0:
64,192,54685,1,0,0:0:0:0:
192,192,54685,1,0,0:0:0:0:
320,192,54685,1,0,0:0:0:0:
448,192,54685,1,0,0:0:0:0:
448,192,54861,1,0,0:0:0:0:
448,192,55038,1,0,0:0:0:0:
320,192,55214,1,0,0:0:0:0:
320,192,55391,1,0,0:0:0:0:
192,192,55567,1,0,0:0:0:0:
192,192,55744,1,0,0:0:0:0:
64,192,55920,1,0,0:0:0:0:
448,192,55920,1,0,0:0:0:0:
64,192,56097,1,0,0:0:0:0:
64,192,56273,1,0,0:0:0:0:
64,192,56450,1,0,0:0:0:0:
448,192,56450,1,0,0:0:0:0:
192,192,56508,1,0,0:0:0:0:
448,192,56567,1,0,0:0:0:0:
320,192,56626,1,0,0:0:0:0:
64,192,56685,1,0,0:0:0:0:
320,192,56744,1,0,0:0:0:0:
192,192,56803,1,0,0:0:0:0:
448,192,56803,1,0,0:0:0:0:
64,192,56861,1,0,0:0:0:0:
320,192,56920,1,0,0:0:0:0:
192,192,56979,1,0,0:0:0:0:
64,192,57038,1,0,0:0:0:0:
192,192,57097,1,0,0:0:0:0:
320,192,57156,1,0,0:0:0:0:
448,192,57156,1,0,0:0:0:0:
64,192,57214,1,0,0:0:0:0:
192,192,57273,1,0,0:0:0:0:
448,192,57332,1,0,0:0:0:0:
192,192,57391,1,0,0:0:0:0:
448,192,57450,1,0,0:0:0:0:
64,192,57508,1,0,0:0:0:0:
192,192,57508,1,0,0:0:0:0:
320,192,57508,1,0,0:0:0:0:
448,192,57567,1,0,0:0:0:0:
64,192,57626,1,0,0:0:0:0:
192,192,57685,1,0,0:0:0:0:
320,192,57744,1,0,0:0:0:0:
192,192,57803,1,0,0:0:0:0:
64,192,57861,1,0,0:0:0:0:
448,192,57861,1,0,0:0:0:0:
320,192,57920,1,0,0:0:0:0:
64,192,57979,1,0,0:0:0:0:
320,192,58038,1,0,0:0:0:0:
64,192,58097,1,0,0:0:0:0:
448,192,58156,1,0,0:0:0:0:
64,192,58214,1,0,0:0:0:0:
192,192,58214,1,0,0:0:0:0:
320,192,58214,1,0,0:0:0:0:
448,192,58273,1,0,0:0:0:0:
320,192,58332,1,0,0:0:0:0:
192,192,58391,1,0,0:0:0:0:
64,192,58450,1,0,0:0:0:0:
320,192,58508,1,0,0:0:0:0:
192,192,58567,1,0,0:0:0:0:
448,192,58567,1,0,0:0:0:0:
64,192,58626,1,0,0:0:0:0:
192,192,58685,1,0,0:0:0:0:
64,192,58744,1,0,0:0:0:0:
192,192,58803,1,0,0:0:0:0:
320,192,58861,1,0,0:0:0:0:
64,192,58920,1,0,0:0:0:0:
448,192,58920,1,0,0:0:0:0:
320,192,58979,1,0,0:0:0:0:
448,192,59038,1,0,0:0:0:0:
320,192,59097,1,0,0:0:0:0:
448,192,59156,1,0,0:0:0:0:
192,192,59214,1,0,0:0:0:0:
64,192,59273,1,0,0:0:0:0:
320,192,59273,1,0,0:0:0:0:
448,192,59332,1,0,0:0:0:0:
192,192,59391,1,0,0:0:0:0:
448,192,59450,1,0,0:0:0:0:
192,192,59508,1,0,0:0:0:0:
320,192,59567,1,0,0:0:0:0:
64,192,59626,1,0,0:0:0:0:
448,192,59626,1,0,0:0:0:0:
192,192,59685,1,0,0:0:0:0:
320,192,59744,1,0,0:0:0:0:
64,192,59803,1,0,0:0:0:0:
192,192,59861,1,0,0:0:0:0:
320,192,59920,1,0,0:0:0:0:
64,192,59979,1,0,0:0:0:0:
448,192,59979,1,0,0:0:0:0:
192,192,60038,1,0,0:0:0:0:
320,192,60097,1,0,0:0:0:0:
448,192,60156,1,0,0:0:0:0:
320,192,60214,1,0,0:0:0:0:
192,192,60273,1,0,0:0:0:0:
64,192,60332,1,0,0:0:0:0:
448,192,60332,1,0,0:0:0:0:
192,192,60391,1,0,0:0:0:0:
320,192,60450,1,0,0:0:0:0:
448,192,60508,1,0,0:0:0:0:
320,192,60567,1,0,0:0:0:0:
192,192,60626,1,0,0:0:0:0:
64,192,60685,1,0,0:0:0:0:
448,192,60685,1,0,0:0:0:0:
192,192,60744,1,0,0:0:0:0:
320,192,60803,1,0,0:0:0:0:
448,192,60861,1,0,0:0:0:0:
320,192,60920,1,0,0:0:0:0:
64,192,60979,1,0,0:0:0:0:
192,192,61038,1,0,0:0:0:0:
448,192,61038,1,0,0:0:0:0:
320,192,61097,1,0,0:0:0:0:
64,192,61156,1,0,0:0:0:0:
320,192,61214,1,0,0:0:0:0:
64,192,61273,1,0,0:0:0:0:
192,192,61332,1,0,0:0:0:0:
64,192,61391,1,0,0:0:0:0:
448,192,61391,1,0,0:0:0:0:
192,192,61450,1,0,0:0:0:0:
320,192,61508,1,0,0:0:0:0:
64,192,61567,1,0,0:0:0:0:
448,192,61567,1,0,0:0:0:0:
192,192,61626,1,0,0:0:0:0:
320,192,61685,1,0,0:0:0:0:
64,192,61744,1,0,0:0:0:0:
448,192,61744,1,0,0:0:0:0:
192,192,61803,1,0,0:0:0:0:
320,192,61861,1,0,0:0:0:0:
64,192,61920,1,0,0:0:0:0:
448,192,61920,1,0,0:0:0:0:
192,192,61979,1,0,0:0:0:0:
320,192,62038,1,0,0:0:0:0:
448,192,62097,1,0,0:0:0:0:
64,192,62156,1,0,0:0:0:0:
192,192,62214,1,0,0:0:0:0:
320,192,62273,1,0,0:0:0:0:
448,192,62332,1,0,0:0:0:0:
192,192,62391,1,0,0:0:0:0:
64,192,62450,1,0,0:0:0:0:
320,192,62450,1,0,0:0:0:0:
448,192,62508,1,0,0:0:0:0:
192,192,62567,1,0,0:0:0:0:
320,192,62626,1,0,0:0:0:0:
64,192,62685,1,0,0:0:0:0:
320,192,62744,1,0,0:0:0:0:
64,192,62803,1,0,0:0:0:0:
448,192,62803,1,0,0:0:0:0:
192,192,62861,1,0,0:0:0:0:
448,192,62920,1,0,0:0:0:0:
192,192,62979,1,0,0:0:0:0:
320,192,63038,1,0,0:0:0:0:
64,192,63097,1,0,0:0:0:0:
192,192,63156,1,0,0:0:0:0:
448,192,63156,1,0,0:0:0:0:
320,192,63214,1,0,0:0:0:0:
64,192,63273,1,0,0:0:0:0:
320,192,63332,1,0,0:0:0:0:
64,192,63391,1,0,0:0:0:0:
192,192,63450,1,0,0:0:0:0:
64,192,63508,1,0,0:0:0:0:
448,192,63508,1,0,0:0:0:0:
320,192,63567,1,0,0:0:0:0:
448,192,63626,1,0,0:0:0:0:
192,192,63685,1,0,0:0:0:0:
64,192,63744,1,0,0:0:0:0:
192,192,63803,1,0,0:0:0:0:
320,192,63861,1,0,0:0:0:0:
448,192,63861,1,0,0:0:0:0:
64,192,63920,1,0,0:0:0:0:
448,192,63979,1,0,0:0:0:0:
192,192,64038,1,0,0:0:0:0:
320,192,64097,1,0,0:0:0:0:
64,192,64156,1,0,0:0:0:0:
192,192,64214,1,0,0:0:0:0:
448,192,64214,1,0,0:0:0:0:
320,192,64273,1,0,0:0:0:0:
64,192,64332,1,0,0:0:0:0:
448,192,64391,1,0,0:0:0:0:
192,192,64450,1,0,0:0:0:0:
320,192,64508,1,0,0:0:0:0:
64,192,64567,1,0,0:0:0:0:
192,192,64567,1,0,0:0:0:0:
448,192,64626,1,0,0:0:0:0:
320,192,64685,1,0,0:0:0:0:
448,192,64744,1,0,0:0:0:0:
64,192,64920,1,0,0:0:0:0:
320,192,64920,1,0,0:0:0:0:
64,192,65273,128,0,65979:0:0:0:0:
192,192,65273,1,0,0:0:0:0:
320,192,65273,128,0,65979:0:0:0:0:
192,192,65979,1,0,0:0:0:0:
448,192,65979,1,0,0:0:0:0:
320,192,66156,1,0,0:0:0:0:
192,192,66332,1,0,0:0:0:0:
448,192,66332,1,0,0:0:0:0:
192,192,66685,1,0,0:0:0:0:
320,192,66685,1,0,0:0:0:0:
448,192,66685,1,0,0:0:0:0:
64,192,67214,1,0,0:0:0:0:
320,192,67214,1,0,0:0:0:0:
64,192,67391,1,0,0:0:0:0:
192,192,67391,1,0,0:0:0:0:
320,192,67391,1,0,0:0:0:0:
64,192,67744,1,0,0:0:0:0:
192,192,67744,1,0,0:0:0:0:
320,192,67744,1,0,0:0:0:0:
448,192,67744,1,0,0:0:0:0:
64,192,68097,1,0,0:0:0:0:
192,192,68141,1,0,0:0:0:0:
320,192,68185,1,0,0:0:0:0:
448,192,68229,1,0,0:0:0:0:
320,192,68273,1,0,0:0:0:0:
64,192,68317,1,0,0:0:0:0:
192,192,68361,1,0,0:0:0:0:
320,192,68406,1,0,0:0:0:0:
448,192,68450,1,0,0:0:0:0:
64,192,68626,1,0,0:0:0:0:
192,192,68803,1,0,0:0:0:0:
448,192,68803,1,0,0:0:0:0:
320,192,68861,1,0,0:0:0:0:
64,192,68920,1,0,0:0:0:0:
448,192,68979,1,0,0:0:0:0:
192,192,69038,1,0,0:0:0:0:
64,192,69097,1,0,0:0:0:0:
320,192,69156,1,0,0:0:0:0:
448,192,69156,1,0,0:0:0:0:
192,192,69214,1,0,0:0:0:0:
320,192,69273,1,0,0:0:0:0:
448,192,69332,1,0,0:0:0:0:
192,192,69391,1,0,0:0:0:0:
448,192,69450,1,0,0:0:0:0:
64,192,69508,1,0,0:0:0:0:
320,192,69508,1,0,0:0:0:0:
192,192,69567,1,0,0:0:0:0:
64,192,69626,1,0,0:0:0:0:
320,192,69685,1,0,0:0:0:0:
448,192,69744,1,0,0:0:0:0:
320,192,69803,1,0,0:0:0:0:
64,192,69861,1,0,0:0:0:0:
192,192,69861,1,0,0:0:0:0:
448,192,69920,1,0,0:0:0:0:
64,192,69979,1,0,0:0:0:0:
320,192,70038,1,0,0:0:0:0:
192,192,70097,1,0,0:0:0:0:
320,192,70156,1,0,0:0:0:0:
64,192,70214,1,0,0:0:0:0:
448,192,70214,1,0,0:0:0:0:
192,192,70273,1,0,0:0:0:0:
320,192,70332,1,0,0:0:0:0:
448,192,70391,1,0,0:0:0:0:
64,192,70450,1,0,0:0:0:0:
192,192,70508,1,0,0:0:0:0:
64,192,70567,1,0,0:0:0:0:
320,192,70567,1,0,0:0:0:0:
448,192,70626,1,0,0:0:0:0:
320,192,70685,1,0,0:0:0:0:
192,192,70744,1,0,0:0:0:0:
64,192,70803,1,0,0:0:0:0:
192,192,70861,1,0,0:0:0:0:
64,192,70920,1,0,0:0:0:0:
448,192,70920,1,0,0:0:0:0:
320,192,70979,1,0,0:0:0:0:
192,192,71038,1,0,0:0:0:0:
320,192,71097,1,0,0:0:0:0:
192,192,71156,1,0,0:0:0:0:
64,192,71214,1,0,0:0:0:0:
192,192,71273,1,0,0:0:0:0:
448,192,71273,1,0,0:0:0:0:
320,192,71332,1,0,0:0:0:0:
64,192,71391,1,0,0:0:0:0:
320,192,71450,1,0,0:0:0:0:
64,192,71508,1,0,0:0:0:0:
448,192,71567,1,0,0:0:0:0:
192,192,71626,1,0,0:0:0:0:
320,192,71626,1,0,0:0:0:0:
448,192,71685,1,0,0:0:0:0:
64,192,71744,1,0,0:0:0:0:
448,192,71803,1,0,0:0:0:0:
64,192,71861,1,0,0:0:0:0:
320,192,71920,1,0,0:0:0:0:
64,192,71979,1,0,0:0:0:0:
448,192,71979,1,0,0:0:0:0:
192,192,72038,1,0,0:0:0:0:
64,192,72097,1,0,0:0:0:0:
192,192,72156,1,0,0:0:0:0:
64,192,72214,1,0,0:0:0:0:
320,192,72273,1,0,0:0:0:0:
64,192,72332,1,0,0:0:0:0:
448,192,72332,1,0,0:0:0:0:
320,192,72391,1,0,0:0:0:0:
448,192,72450,1,0,0:0:0:0:
320,192,72508,1,0,0:0:0:0:
448,192,72567,1,0,0:0:0:0:
64,192,72626,1,0,0:0:0:0:
192,192,72685,1,0,0:0:0:0:
320,192,72685,1,0,0:0:0:0:
448,192,72773,1,0,0:0:0:0:
320,192,72861,1,0,0:0:0:0:
448,192,72950,1,0,0:0:0:0:
320,192,73038,1,0,0:0:0:0:
448,192,73126,1,0,0:0:0:0:
320,192,73214,1,0,0:0:0:0:
448,192,73303,1,0,0:0:0:0:
320,192,73391,1,0,0:0:0:0:
448,192,73479,1,0,0:0:0:0:
320,192,73567,1,0,0:0:0:0:
192,192,73656,1,0,0:0:0:0:
64,192,73744,1,0,0:0:0:0:
448,192,73744,1,0,0:0:0:0:
320,192,73803,1,0,0:0:0:0:
192,192,73861,1,0,0:0:0:0:
320,192,73920,1,0,0:0:0:0:
192,192,73979,1,0,0:0:0:0:
320,192,74038,1,0,0:0:0:0:
64,192,74097,1,0,0:0:0:0:
448,192,74097,1,0,0:0:0:0:
192,192,74156,1,0,0:0:0:0:
64,192,74214,1,0,0:0:0:0:
192,192,74273,1,0,0:0:0:0:
64,192,74332,1,0,0:0:0:0:
192,192,74391,1,0,0:0:0:0:
64,192,74450,1,0,0:0:0:0:
448,192,74450,1,0,0:0:0:0:
320,192,74508,1,0,0:0:0:0:
448,192,74567,1,0,0:0:0:0:
320,192,74626,1,0,0:0:0:0:
448,192,74685,1,0,0:0:0:0:
320,192,74744,1,0,0:0:0:0:
64,192,74803,1,0,0:0:0:0:
448,192,74803,1,0,0:0:0:0:
192,192,74861,1,0,0:0:0:0:
64,192,74920,1,0,0:0:0:0:
320,192,74979,1,0,0:0:0:0:
448,192,75038,1,0,0:0:0:0:
192,192,75097,1,0,0:0:0:0:
64,192,75156,1,0,0:0:0:0:
448,192,75156,1,0,0:0:0:0:
320,192,75214,1,0,0:0:0:0:
448,192,75273,1,0,0:0:0:0:
64,192,75332,1,0,0:0:0:0:
192,192,75391,1,0,0:0:0:0:
320,192,75450,1,0,0:0:0:0:
64,192,75508,1,0,0:0:0:0:
448,192,75508,1,0,0:0:0:0:
192,192,75567,1,0,0:0:0:0:
448,192,75626,1,0,0:0:0:0:
192,192,75685,1,0,0:0:0:0:
448,192,75744,1,0,0:0:0:0:
192,192,75803,1,0,0:0:0:0:
64,192,75861,1,0,0:0:0:0:
448,192,75861,1,0,0:0:0:0:
320,192,75920,1,0,0:0:0:0:
64,192,75979,1,0,0:0:0:0:
320,192,76038,1,0,0:0:0:0:
64,192,76097,1,0,0:0:0:0:
320,192,76156,1,0,0:0:0:0:
64,192,76214,1,0,0:0:0:0:
448,192,76214,1,0,0:0:0:0:
192,192,76273,1,0,0:0:0:0:
320,192,76332,1,0,0:0:0:0:
64,192,76391,1,0,0:0:0:0:
448,192,76450,1,0,0:0:0:0:
192,192,76508,1,0,0:0:0:0:
64,192,76567,1,0,0:0:0:0:
448,192,76567,1,0,0:0:0:0:
320,192,76626,1,0,0:0:0:0:
448,192,76685,1,0,0:0:0:0:
192,192,76744,1,0,0:0:0:0:
64,192,76803,1,0,0:0:0:0:
320,192,76861,1,0,0:0:0:0:
64,192,76920,1,0,0:0:0:0:
448,192,76920,1,0,0:0:0:0:
192,192,76979,1,0,0:0:0:0:
64,192,77038,1,0,0:0:0:0:
448,192,77097,1,0,0:0:0:0:
320,192,77156,1,0,0:0:0:0:
192,192,77214,1,0,0:0:0:0:
64,192,77273,1,0,0:0:0:0:
448,192,77273,1,0,0:0:0:0:
320,192,77332,1,0,0:0:0:0:
64,192,77391,1,0,0:0:0:0:
448,192,77450,1,0,0:0:0:0:
192,192,77508,1,0,0:0:0:0:
320,192,77567,1,0,0:0:0:0:
64,192,77626,1,0,0:0:0:0:
448,192,77626,1,0,0:0:0:0:
192,192,77685,1,0,0:0:0:0:
448,192,77744,1,0,0:0:0:0:
64,192,77803,1,0,0:0:0:0:
320,192,77861,1,0,0:0:0:0:
192,192,77920,1,0,0:0:0:0:
64,192,77979,1,0,0:0:0:0:
448,192,77979,1,0,0:0:0:0:
64,192,78156,1,0,0:0:0:0:
192,192,78156,1,0,0:0:0:0:
320,192,78156,1,0,0:0:0:0:
448,192,78156,1,0,0:0:0:0:
64,192,78332,1,0,0:0:0:0:
448,192,78332,1,0,0:0:0:0:
192,192,78508,1,0,0:0:0:0:
320,192,78508,1,0,0:0:0:0:
64,192,78685,1,0,0:0:0:0:
448,192,78685,1,0,0:0:0:0:
192,192,78861,1,0,0:0:0:0:
320,192,78861,1,0,0:0:0:0:
64,192,79038,1,0,0:0:0:0:
448,192,79038,1,0,0:0:0:0:
320,192,79097,1,0,0:0:0:0:
64,192,79156,1,0,0:0:0:0:
192,192,79214,1,0,0:0:0:0:
320,192,79273,1,0,0:0:0:0:
64,192,79332,1,0,0:0:0:0:
192,192,79391,1,0,0:0:0:0:
448,192,79391,1,0,0:0:0:0:
320,192,79450,1,0,0:0:0:0:
448,192,79508,1,0,0:0:0:0:
64,192,79567,1,0,0:0:0:0:
320,192,79626,1,0,0:0:0:0:
192,192,79685,1,0,0:0:0:0:
320,192,79744,1,0,0:0:0:0:
448,192,79744,1,0,0:0:0:0:
64,192,79803,1,0,0:0:0:0:
320,192,79861,1,0,0:0:0:0:
192,192,79920,1,0,0:0:0:0:
448,192,79979,1,0,0:0:0:0:
64,192,80038,1,0,0:0:0:0:
192,192,80097,1,0,0:0:0:0:
320,192,80097,1,0,0:0:0:0:
448,192,80097,1,0,0:0:0:0:
64,192,80156,1,0,0:0:0:0:
192,192,80214,1,0,0:0:0:0:
320,192,80273,1,0,0:0:0:0:
448,192,80332,1,0,0:0:0:0:
192,192,80391,1,0,0:0:0:0:
64,192,80450,1,0,0:0:0:0:
320,192,80450,1,0,0:0:0:0:
448,192,80508,1,0,0:0:0:0:
320,192,80567,1,0,0:0:0:0:
448,192,80626,1,0,0:0:0:0:
64,192,80685,1,0,0:0:0:0:
448,192,80744,1,0,0:0:0:0:
64,192,80803,1,0,0:0:0:0:
192,192,80803,1,0,0:0:0:0:
320,192,80803,1,0,0:0:0:0:
448,192,80861,1,0,0:0:0:0:
64,192,80920,1,0,0:0:0:0:
192,192,80979,1,0,0:0:0:0:
320,192,81038,1,0,0:0:0:0:
64,192,81097,1,0,0:0:0:0:
192,192,81156,1,0,0:0:0:0:
448,192,81156,1,0,0:0:0:0:
320,192,81214,1,0,0:0:0:0:
192,192,81273,1,0,0:0:0:0:
64,192,81332,1,0,0:0:0:0:
448,192,81391,1,0,0:0:0:0:
64,192,81450,1,0,0:0:0:0:
192,192,81508,1,0,0:0:0:0:
320,192,81508,1,0,0:0:0:0:
448,192,81508,1,0,0:0:0:0:
64,192,81567,1,0,0:0:0:0:
448,192,81626,1,0,0:0:0:0:
320,192,81685,1,0,0:0:0:0:
192,192,81744,1,0,0:0:0:0:
448,192,81803,1,0,0:0:0:0:
64,192,81861,1,0,0:0:0:0:
320,192,81861,1,0,0:0:0:0:
192,192,81920,1,0,0:0:0:0:
320,192,81979,1,0,0:0:0:0:
64,192,82038,1,0,0:0:0:0:
448,192,82097,1,0,0:0:0:0:
320,192,82156,1,0,0:0:0:0:
192,192,82214,1,0,0:0:0:0:
448,192,82214,1,0,0:0:0:0:
64,192,82273,1,0,0:0:0:0:
192,192,82332,1,0,0:0:0:0:
64,192,82391,1,0,0:0:0:0:
448,192,82391,1,0,0:0:0:0:
320,192,82450,1,0,0:0:0:0:
192,192,82508,1,0,0:0:0:0:
64,192,82567,1,0,0:0:0:0:
192,192,82626,1,0,0:0:0:0:
320,192,82685,1,0,0:0:0:0:
64,192,82744,1,0,0:0:0:0:
448,192,82744,1,0,0:0:0:0:
320,192,82803,1,0,0:0:0:0:
192,192,82861,1,0,0:0:0:0:
64,192,82920,1,0,0:0:0:0:
192,192,82979,1,0,0:0:0:0:
320,192,83038,1,0,0:0:0:0:
64,192,83097,1,0,0:0:0:0:
448,192,83097,1,0,0:0:0:0:
320,192,83156,1,0,0:0:0:0:
192,192,83214,1,0,0:0:0:0:
64,192,83273,128,0,83626:0:0:0:0:
448,192,83273,128,0,83626:0:0:0:0:
192,192,83626,1,0,0:0:0:0:
320,192,83626,1,0,0:0:0:0:
64,192,83803,1,0,0:0:0:0:
448,192,83803,1,0,0:0:0:0:
192,192,83979,1,0,0:0:0:0:
320,192,83979,1,0,0:0:0:0:
64,192,84067,1,0,0:0:0:0:
192,192,84156,1,0,0:0:0:0:
64,192,84244,1,0,0:0:0:0:
192,192,84332,1,0,0:0:0:0:
64,192,84420,1,0,0:0:0:0:
192,192,84508,1,0,0:0:0:0:
64,192,84597,1,0,0:0:0:0:
192,192,84685,1,0,0:0:0:0:
64,192,84773,1,0,0:0:0:0:
192,192,84861,1,0,0:0:0:0:
64,192,84950,1,0,0:0:0:0:
192,192,85038,1,0,0:0:0:0:
448,192,85038,1,0,0:0:0:0:
320,192,85097,1,0,0:0:0:0:
64,192,85156,1,0,0:0:0:0:
192,192,85214,1,0,0:0:0:0:
320,192,85273,1,0,0:0:0:0:
192,192,85332,1,0,0:0:0:0:
64,192,85391,1,0,0:0:0:0:
448,192,85391,1,0,0:0:0:0:
320,192,85450,1,0,0:0:0:0:
192,192,85508,1,0,0:0:0:0:
448,192,85567,1,0,0:0:0:0:
320,192,85626,1,0,0:0:0:0:
192,192,85685,1,0,0:0:0:0:
64,192,85744,1,0,0:0:0:0:
448,192,85744,1,0,0:0:0:0:
320,192,85803,1,0,0:0:0:0:
192,192,85861,1,0,0:0:0:0:
64,192,85920,1,0,0:0:0:0:
448,192,85979,1,0,0:0:0:0:
192,192,86038,1,0,0:0:0:0:
64,192,86097,1,0,0:0:0:0:
320,192,86097,1,0,0:0:0:0:
64,192,86450,1,0,0:0:0:0:
448,192,86450,1,0,0:0:0:0:
64,192,86803,1,0,0:0:0:0:
448,192,86803,1,0,0:0:0:0:
64,192,87156,1,0,0:0:0:0:
448,192,87156,1,0,0:0:0:0:
320,192,87214,1,0,0:0:0:0:
192,192,87273,1,0,0:0:0:0:
64,192,87332,1,0,0:0:0:0:
448,192,87391,1,0,0:0:0:0:
64,192,87450,1,0,0:0:0:0:
192,192,87508,1,0,0:0:0:0:
320,192,87508,1,0,0:0:0:0:
448,192,87567,1,0,0:0:0:0:
64,192,87626,1,0,0:0:0:0:
192,192,87685,1,0,0:0:0:0:
320,192,87744,1,0,0:0:0:0:
448,192,87803,1,0,0:0:0:0:
192,192,87861,1,0,0:0:0:0:
320,192,87861,1,0,0:0:0:0:
64,192,87920,1,0,0:0:0:0:
192,192,87979,1,0,0:0:0:0:
320,192,88038,1,0,0:0:0:0:
448,192,88097,1,0,0:0:0:0:
192,192,88156,1,0,0:0:0:0:
64,192,88214,1,0,0:0:0:0:
448,192,88214,1,0,0:0:0:0:
64,192,88567,1,0,0:0:0:0:
448,192,88567,1,0,0:0:0:0:
192,192,88920,1,0,0:0:0:0:
448,192,88920,1,0,0:0:0:0:
320,192,88979,1,0,0:0:0:0:
64,192,89038,1,0,0:0:0:0:
192,192,89097,1,0,0:0:0:0:
320,192,89156,1,0,0:0:0:0:
448,192,89214,1,0,0:0:0:0:
64,192,89273,1,0,0:0:0:0:
320,192,89273,1,0,0:0:0:0:
192,192,89332,1,0,0:0:0:0:
320,192,89391,1,0,0:0:0:0:
448,192,89450,1,0,0:0:0:0:
64,192,89508,1,0,0:0:0:0:
192,192,89567,1,0,0:0:0:0:
64,192,89626,1,0,0:0:0:0:
448,192,89626,1,0,0:0:0:0:
320,192,89685,1,0,0:0:0:0:
448,192,89744,1,0,0:0:0:0:
192,192,89803,1,0,0:0:0:0:
64,192,89861,1,0,0:0:0:0:
320,192,89920,1,0,0:0:0:0:
64,192,89979,1,0,0:0:0:0:
448,192,89979,1,0,0:0:0:0:
